#TITLE:TIME;
#ARTIST:NM feat. Aleisha G;
#BANNER:TIME.png;
#BACKGROUND:TIME-bg.png;
#JACKET:TIME-jacket.png;
#MUSIC:TIME.ogg;
#SAMPLESTART:51.14;
#SAMPLELENGTH:20;
#DISPLAYBPM:115;
#BPMS:0=115;
#BGCHANGES:;

//---------------dance-single - ----------------
#NOTES:
     dance-single:
     :
     Beginner:
     1:
     :
0000
0000
0000
0000
,
0000
0000
0000
0000
,
0000
0000
0000
0000
,
0000
0000
0000
0000
,
0000
0000
0000
0000
,
0001
0000
0000
0000
,
0010
0000
0000
0000
,
1000
0000
0000
0000
,
0100
0000
0000
0000
,
0001
0000
0001
0000
,
1000
0000
1000
0000
,
0010
0000
0010
0000
,
0100
0000
0000
0000
,
1001
0000
0000
0000
,
1000
1000
1000
0000
,
0001
0001
0001
0000
,
0100
0000
0000
0000
,
0010
0000
0000
0000
,
1000
0000
0001
0000
,
1000
0000
0000
0000
,
0001
0000
1000
0000
,
0001
0000
0001
0000
,
0010
0000
0010
0000
,
0100
0000
0000
0000
,
1001
0000
0000
0000
,
0100
0000
0000
0000
,
0001
0000
1000
0000
,
0100
0000
0000
0000
,
0010
0000
0010
0000
,
0001
0000
0000
0000
,
0010
0000
0000
0000
,
1000
0000
0000
0000
,
0100
0000
0000
0000
,
1000
1000
1000
0000
,
0010
0000
0000
0000
,
0001
0001
0001
0000
,
0100
0000
0000
0000
,
0010
0000
0000
0000
,
1001
0000
0000
0000
,
0010
0000
0000
0000
,
0100
0000
0000
0000
,
0001
0000
1000
0000
,
0100
0000
0100
0000
,
0001
0000
1000
0000
,
0010
0000
0000
0000
,
1000
0000
0001
0000
,
0100
0000
0100
0000
,
0010
0000
0000
0000
,
1001
0000
0000
0000
,
0000
0000
0000
0000
;

//---------------dance-single - ----------------
#NOTES:
     dance-single:
     :
     Easy:
     5:
     :
0000
0000
0000
0000
,
0000
0000
0000
0000
,
0000
0000
0000
0000
,
0000
0000
0000
0000
,
0000
0000
0000
0000
,
0010
0001
0100
1000
,
0200
0000
0301
0100
,
0020
0030
2000
3000
,
0200
0000
0000
0300
,
0010
0000
1000
0000
,
0001
0100
1000
0100
,
0010
0000
0001
0000
,
1000
0100
0001
0100
,
0010
0000
1000
0000
,
0100
0001
0010
0001
,
1000
0100
0001
0000
,
2000
0000
0001
3001
,
1000
0000
0100
0000
,
0001
0100
0001
0100
,
0020
0030
1000
0000
,
1000
0100
0001
0010
,
2000
3000
0100
0000
,
0002
0003
0100
0000
,
1000
0100
0010
0001
,
1001
0000
1000
0001
,
0010
0001
0010
1000
,
0020
0030
0001
0100
,
0010
0001
0010
1000
,
0020
0030
1000
0100
,
0020
0030
0001
0100
,
1000
0100
0001
0100
,
0002
0000
1003
0000
,
0200
0300
0001
0010
,
1000
0000
0010
0001
,
0010
0000
1000
0100
,
0002
0003
0010
1000
,
0020
0030
0001
0100
,
0020
0030
1000
0100
,
1000
2000
3100
0100
,
0020
0000
0001
0031
,
2002
3003
0001
1000
,
0010
0020
1030
2000
,
0000
3000
0100
0001
,
0200
0000
1300
0100
,
0020
0000
0031
0100
,
0010
0020
1030
2000
,
0000
3000
0100
0001
,
0200
0000
1300
0100
,
0020
0000
0031
0100
,
0002
0000
0000
0003
,
0000
0000
0000
0000
;

//---------------dance-single - ----------------
#NOTES:
     dance-single:
     :
     Medium:
     7:
     :
0000
0000
0000
0000
,
0000
0000
0000
0000
,
0000
0000
0000
0000
,
0000
0000
0000
0000
,
0000
0000
0000
0000
,
0010
0000
0100
0000
1000
0000
0100
0002
,
0003
1000
0100
0000
0010
0000
0100
0000
,
1000
0000
0001
0000
1000
0000
0100
0020
,
0030
1000
0100
0000
0001
0000
1000
0000
,
0010
0000
0100
0000
1000
0001
0100
0000
,
1000
0000
0100
0000
0010
0001
1000
0000
,
0100
0000
0010
0000
1000
0100
0010
0000
,
0100
0000
0001
0000
1000
0100
0010
0000
,
1000
0000
0001
0000
0100
0010
1000
0000
,
0001
0000
0100
0000
0001
0010
1000
0000
,
0100
0000
0001
0000
0100
0010
1000
0000
,
0001
0000
0010
0000
1000
0001
0100
0010
,
1000
0000
0100
0000
0010
0000
0001
0010
,
1000
0000
0100
0000
0001
0000
0100
0010
,
1000
0000
0100
0000
0001
0000
1000
0010
,
0100
0000
0001
0000
0010
0000
0100
0001
,
1000
0000
0100
0000
0001
0000
1000
0010
,
0100
0000
1000
0100
0001
0000
1000
0100
,
0010
0000
0001
0000
0100
0000
1000
0020
,
0030
1000
0001
0000
0010
0000
1000
0000
,
0200
2300
3020
0230
,
0300
0000
0001
0000
0010
1000
0100
0000
,
1000
0000
0010
0000
1000
0100
0010
0000
,
1000
0000
0010
0000
1000
0100
0001
0000
,
1000
0000
0010
0000
1000
0100
0010
0000
,
1000
0000
0010
0000
0001
0000
1000
0100
,
0010
1000
0100
0001
,
1000
0000
0100
0000
1000
0000
0001
0100
,
1000
0000
0001
0000
1000
0100
0010
0000
,
1000
0000
0001
0000
1000
0100
0010
0000
,
1000
0000
0010
0000
1000
0100
0010
0000
,
1000
0000
0001
0000
1000
0100
0010
0000
,
0001
0000
0100
0000
1000
0001
0100
0000
,
1000
0000
0010
0000
0100
1000
0010
0000
,
0001
1000
0010
1000
,
0010
0000
0001
0000
0100
1000
0001
0000
,
1000
0000
0100
0000
0001
0000
0100
2000
,
3000
0010
0100
0000
0001
0000
1000
0000
,
0100
0000
0010
0000
0001
0000
1000
0020
,
0030
1000
0100
0000
0010
0000
0001
0000
,
0010
0000
0001
0000
1000
0000
0010
2000
,
3000
0010
1000
0000
0001
0000
0100
0000
,
1000
0000
0001
0000
0010
0000
1000
0200
,
0300
0001
0010
0000
1000
0000
0010
0202
,
0000
0000
0000
0303
,
0000
0000
0000
0000
;

//---------------dance-single - ----------------
#NOTES:
     dance-single:
     :
     Hard:
     9:
     :
0000
0000
0000
0000
,
0000
0000
0000
0000
,
0000
0000
0000
0000
,
0000
0000
0000
0000
,
0000
0000
0000
0000
,
1000
0000
0100
0000
0010
0001
1000
0002
,
0000
0000
1003
0000
0001
0100
0010
1000
,
0100
0000
0000
0000
0010
0000
0001
2000
0000
0000
0000
0000
3001
0000
0200
0000
,
0000
0000
0301
0000
1000
0100
0010
0001
,
1000
0000
0010
0100
0001
0000
1000
0100
,
0020
0001
1000
0031
,
1000
0000
0001
0100
0010
0000
1000
0001
,
1000
0000
0100
0010
0001
0000
1000
0001
,
1000
0000
0001
1000
0100
0000
0010
0001
,
1000
0000
0100
0000
0010
0000
0001
1000
,
0001
0000
0100
0001
0000
1000
0001
0010
,
0100
1000
0001
1000
0001
0000
0100
0010
,
1000
0000
0100
1000
0010
0000
0100
0001
,
1000
0001
1000
0000
0100
0000
0010
0001
,
1000
0000
0100
0010
0001
0000
1000
0001
,
2000
0000
3002
0000
0203
0000
0310
1000
,
0001
0000
1000
0100
0000
0010
0001
1000
,
0001
0000
1000
0001
0000
0100
0010
1000
,
0002
0000
0203
0000
0320
0000
1030
0001
,
0000
0000
1000
0001
1000
0000
0000
0000
0100
0000
0000
1000
0001
0000
0000
1000
,
0001
0000
0100
0002
0000
1003
0100
2000
,
0000
0000
3001
1000
0010
0100
0001
1000
,
0100
0000
0010
0001
0000
1000
0001
2000
,
0000
0000
3000
0001
0010
0100
1000
0001
,
2000
0001
0100
3001
,
1000
0000
0100
0010
0001
0000
1000
0001
,
0100
0010
1000
0001
1000
0000
0100
0010
,
0001
0000
0100
0002
0100
0000
0013
0000
,
0100
0000
1000
0001
1000
0100
0010
0000
,
0001
0000
1000
0001
1000
0100
0010
0001
,
1000
0000
0001
1000
0000
0010
0100
0001
,
1000
0000
0100
0020
0000
0031
1000
0001
,
0200
0000
0310
1000
0001
0000
1000
0000
,
0100
0000
0010
0000
0001
1000
0001
0000
,
1000
0000
0100
0020
0000
0000
0031
1000
,
0001
0000
1000
0001
1000
0000
0100
0000
0000
0000
0010
0000
0001
0000
1000
0000
,
0001
0000
0100
0010
1000
0001
1000
0200
,
0000
0000
1300
0000
0001
1000
0100
0010
,
0001
0000
0100
0010
1000
0000
0100
2000
,
0000
0000
3001
0000
1000
0001
0100
0010
,
1000
0000
0100
0000
0010
0001
1000
0002
,
0000
0000
1003
0000
0100
0010
0001
1000
,
0001
0000
0100
0001
1000
0000
0100
0020
,
0000
0000
0000
0000
1030
0001
0000
0000
1000
0000
0000
0000
0100
0000
0010
0000
,
0000
0000
0000
0000
;

//---------------dance-single - ----------------
#NOTES:
     dance-single:
     :
     Challenge:
     13:
     :
0000
0000
0000
0000
,
0000
0000
0000
0000
,
0000
0000
0000
0000
,
0000
0000
0000
0000
,
0000
0000
0000
0000
,
1010
0000
0100
0000
0101
0000
0010
0001
0020
0000
0230
0000
2300
0000
3002
0000
,
0000
0000
0100
0000
0103
0000
0010
1000
0010
0100
0002
0000
2003
0000
3010
0000
,
0101
0000
0001
0000
0010
0000
0001
1000
0100
0000
1000
0001
0100
0000
2020
0000
,
0000
0000
0030
0000
3001
0000
1000
0100
1000
0000
0001
0100
0001
0000
1000
0000
,
1001
0100
0010
0001
0000
1000
1000
0010
,
1000
0100
0000
0000
0100
0001
0000
0000
0001
0010
0000
0000
0010
1000
0000
0000
,
1001
0010
1000
0100
0000
0001
0001
0010
,
0001
0100
0000
0000
0100
1000
0000
0000
1000
0010
0000
0000
0010
0001
0000
0000
,
1001
0000
0001
0010
0001
0000
1000
0000
0000
0000
0100
0000
0100
0000
0010
0000
,
0001
1000
0000
0000
0010
0100
0000
0000
0001
1000
0000
0000
0010
0100
0000
0000
,
0110
0001
0010
1000
0000
0100
1000
0001
,
0000
0000
0011
0000
1100
0000
0000
0000
0011
0000
1100
0000
0010
0000
1000
0001
,
0100
0000
0010
0000
1001
0000
0010
1000
0100
0000
0010
0000
0001
0000
0100
0000
,
0002
1000
0000
0000
2003
0010
0000
0000
3020
0100
0000
0000
0230
0001
0000
0000
,
0301
0000
0010
0000
0110
0000
0001
1000
0100
0000
0010
0000
0100
0000
1000
0000
,
0010
1000
0000
0000
1000
0100
0000
0000
0100
0001
0000
0000
0001
0010
0000
0000
,
1010
0100
0001
0011
0000
1000
0010
1000
,
1100
0001
0100
0101
0000
0010
1000
0001
,
0101
0000
1010
0000
0101
0000
1100
0101
,
0000
0000
1000
0100
0010
0000
0000
0000
1001
0000
0000
0000
1001
0000
0000
0000
,
0110
0001
0010
1000
0010
0100
0010
0001
,
0100
0000
1000
0000
0100
0000
0001
1000
0001
0000
0010
0000
0100
0000
1000
0000
,
0010
0100
1000
0100
0001
0100
1000
0100
,
0001
0000
0010
0000
0100
0000
1000
0000
0010
0100
0010
0000
1000
0000
0001
0100
,
0002
0010
0010
0100
1003
0010
1000
0001
,
0200
0010
0320
1000
2030
0001
3001
0100
,
1001
0000
0010
0000
1000
0100
1000
0000
0001
0000
0200
0000
0320
0000
1030
0000
,
1100
0001
0010
0100
1001
0000
1001
0000
,
0110
0100
0001
0010
1000
0010
0001
0100
,
0010
0000
0001
0000
0010
0000
1000
0100
1000
0000
0001
0000
1000
0000
0100
0000
,
0010
1000
0010
0001
0100
1000
0100
0001
,
0010
0000
0100
0000
0010
0000
0001
0000
1000
0010
1000
0000
0001
0000
0100
0000
,
2010
0000
0001
0000
0001
0000
0100
0000
3010
1000
0010
0000
0100
0000
0001
1000
,
0002
0010
0023
0100
0230
1000
1300
0001
,
0011
0000
0010
0100
1000
0000
1100
0000
0001
0000
0100
0000
0001
0000
1000
0000
,
1010
0000
0100
0001
0010
0000
0110
0000
0000
0000
1000
0010
1000
0000
0001
0000
,
1010
0000
0100
0000
0101
0000
0010
0001
2000
0000
3200
0000
0320
0000
0032
0000
,
0100
0000
1000
0000
1003
0000
0001
0010
0100
0010
0002
0000
2003
0000
3200
0000
,
2300
0000
0010
0000
3100
0000
0001
1000
0010
0000
0100
0000
0110
0000
2002
0000
,
0003
0000
0010
0000
3010
0000
1000
0100
0001
0100
1000
0000
0010
0000
0100
0000
,
0101
0000
0010
0000
1100
0000
0001
1000
0002
0000
0203
0000
0320
0000
2030
0000
,
0100
0000
0001
0000
3001
0000
1000
0010
1000
0010
0200
0000
0302
0000
2003
0000
,
3020
0000
0100
0000
1030
0000
0010
0100
0001
0000
1000
0000
1100
0000
0022
0000
,
0003
0000
0100
0000
0031
0010
0001
0010
0100
1000
0100
1000
0010
0100
0001
0000
,
2020
0000
0000
0000
,
0000
0000
0000
0000
,
0000
0000
0000
0000
,
3030
0000
0000
0000
;

//---------------dance-double - ----------------
#NOTES:
     dance-double:
     :
     Easy:
     5:
     :
00000000
00000000
00000000
00000000
,
00000000
00000000
00000000
00000000
,
00000000
00000000
00000000
00000000
,
00000000
00000000
00000000
00000000
,
00000000
00000000
00000000
00000000
,
01000000
00010000
00001000
00000100
,
00000002
00000000
00000103
00001000
,
00020000
00030000
00200000
00300000
,
02000000
00000000
00000000
03000000
,
00010000
00000000
00000000
00000000
,
00001000
00000100
00001000
00010000
,
00100000
00000000
00000000
00000000
,
00010000
00001000
00000100
00000001
,
00000100
00000000
00001000
00000000
,
00100000
00010000
01000000
00010000
,
00001000
00000010
00000001
00000000
,
00002000
00000000
00010000
00013000
,
00100000
00000000
01000000
00000000
,
00010000
00001000
00000100
00000001
,
00000200
00000300
00010000
00000000
,
00100000
10000000
00100000
00010000
,
00002000
00003000
00000100
00000100
,
00002000
00003000
00010000
00010000
,
00100000
10000000
01000000
00010000
,
00011000
00000000
00001000
00001000
,
00000010
00000001
00000010
00001000
,
00020000
00030000
00001000
00010000
,
01000000
10000000
01000000
00010000
,
00002000
00003000
00000010
00000001
,
00002000
00003000
00010000
00100000
,
10000000
00100000
00010000
00001000
,
00000200
00000000
00000301
00000000
,
00000200
00000300
00001000
00010000
,
01000000
00000000
10000000
01000000
,
00010000
00000000
00001000
00000010
,
00000002
00000003
00000100
00001000
,
00020000
00030000
00100000
10000000
,
02000000
03000000
00010000
00001000
,
00000100
00000002
00000103
00001000
,
00020000
00000000
01000000
01030000
,
00020000
00030000
00001000
00000010
,
00000001
00000020
00001030
00020000
,
00000000
00030000
01000000
10000000
,
02000000
00000000
03010000
00001000
,
00000200
00000000
00000301
00000100
,
00001000
00020000
00130000
20000000
,
00000000
30000000
01000000
00010000
,
00002000
00000000
00003010
00000001
,
00000200
00000000
00001300
00010000
,
00002000
00000000
00000000
00003000
,
00000000
00000000
00000000
00000000
;

//---------------dance-double - ----------------
#NOTES:
     dance-double:
     :
     Medium:
     7:
     :
00000000
00000000
00000000
00000000
,
00000000
00000000
00000000
00000000
,
00000000
00000000
00000000
00000000
,
00000000
00000000
00000000
00000000
,
00000000
00000000
00000000
00000000
,
00100000
00000000
01000000
00000000
10000000
00000000
01000000
00020000
,
00030000
00001000
00000100
00000000
00000010
00000000
00001000
00000000
,
00010000
00000000
01000000
00000000
10000000
00000000
01000000
00200000
,
00300000
00010000
00001000
00000000
00000100
00000000
00000010
00000000
,
00000100
00000000
00010000
00000000
00100000
00010000
01000000
00000000
,
10000000
00000000
01000000
00000000
00100000
00010000
00001000
00000000
,
00000010
00000000
00001000
00000000
00010000
01000000
00100000
00000000
,
01000000
00000000
00010000
00000000
00001000
00000100
00000010
00000000
,
00001000
00000000
00010000
00000000
01000000
00100000
01000000
00000000
,
00010000
00000000
00000100
00000000
00000010
00000001
00001000
00000000
,
00000100
00000000
00010000
00000000
01000000
10000000
00100000
00000000
,
00010000
00000000
00001000
00001000
,
00100000
00000000
01000000
00000000
00100000
00000000
00010000
00100000
,
00001000
00000000
00000010
00000000
00000100
00000000
00000010
00001000
,
00010000
00000000
01000000
00000000
00010000
00000000
01000000
00100000
,
00010000
00000000
00001000
00000000
00000100
00000000
00000010
00000100
,
00001000
00000000
00010000
00000000
00100000
00000000
01000000
00100000
,
01000000
00000000
10000000
01000000
00010000
00000000
00001000
00000100
,
00000010
00000000
00000100
00000000
00001000
00000000
00010000
00200000
,
00300000
01000000
00010000
00000000
00100000
00000000
00001000
00000000
,
00000200
00000320
00002030
00023000
,
00030000
00000000
00100000
00000000
00100000
10000000
01000000
00000000
,
10000000
00000000
00100000
00000000
00010000
00001000
00000010
00000000
,
00000200
00000000
00000300
00000000
00010000
00001000
00010000
00000000
,
00001000
00000000
00000010
00000000
00001000
00010000
01000000
00000000
,
00100000
00000000
10000000
00000000
01000000
00000000
00100000
00010000
,
00001000
00000100
00000010
00001000
,
00010000
00000000
01000000
00100000
10000000
00000000
00010000
00000000
,
00100000
00000000
00010000
00001000
00000100
00000000
00000010
00000000
,
00001000
00000000
00010000
00000000
00100000
01000000
00100000
00000000
,
10000000
00000000
00100000
00000000
01000000
00100000
00010000
00000000
,
00001000
00000000
00000100
00000000
00000010
00001000
00100000
00000000
,
00010000
00000000
01000000
00000000
10000000
00010000
01000000
00000000
,
00010000
00000000
00001000
00000000
00000010
00001000
00000100
00000000
,
00001000
00000000
00010000
01000000
00100000
00000000
10000000
00000000
,
00100000
00000000
00010000
00001000
00000000
00000100
00000010
00000000
,
00001000
00000000
00010000
00000000
01000000
00000000
00100000
20000000
,
30000000
00100000
01000000
00000000
00010000
00000000
00001000
00000000
,
00000100
00000000
00000010
00000000
00000100
00000000
00001000
00020000
,
00030000
00100000
01000000
00000000
00100000
00000000
00010000
00000000
,
00100000
00000000
00010000
00000000
00001000
00000000
00000100
00000020
,
00000030
00000100
00001000
00000000
00010000
00000000
01000000
00000000
,
00100000
00000000
10000000
00000000
00100000
00000000
00010000
00002000
,
00003000
00000100
00000010
00000000
00000100
00000000
00000010
00002002
,
00000000
00000000
00000000
00003003
,
00000000
00000000
00000000
00000000
;

//---------------dance-double - ----------------
#NOTES:
     dance-double:
     :
     Hard:
     10:
     :
00000000
00000000
00000000
00000000
,
00000000
00000000
00000000
00000000
,
00000000
00000000
00000000
00000000
,
00000000
00000000
00000000
00000000
,
00000000
00000000
00000000
00000000
,
10000000
00000000
01000000
00000000
00010000
00001000
00000100
00000002
,
00000000
00000000
00001003
00000000
00000010
00000100
00001000
00010000
,
00100000
00000000
00000000
00000000
10000000
00000000
00010000
20000000
00000000
00000000
00000000
00000000
31000000
00000000
00020000
00000000
,
00000000
00000000
00030000
00000000
00001000
00000100
00000001
00001000
,
00000001
00000000
00000100
00001000
00010000
00000000
00100000
10000000
,
02000000
10000000
00100000
03010000
,
00001000
00000000
00000100
00000001
00001000
00000000
00000010
00000100
,
00001000
00000000
00010000
00100000
10000000
00000000
00010000
01000000
,
00010000
00000000
00001000
00000100
00000010
00000000
00000001
00001000
,
00000010
00000000
00000100
00000000
00001000
00000000
00010000
01000000
,
10000000
00000000
01000000
00010000
00000000
00001000
00000100
00000001
,
00001000
00000100
00010000
00001000
00100000
00000000
01000000
10000000
,
01000000
00000000
00010000
00001000
00000010
00000000
00000001
00000100
,
00001000
00010000
01000000
00000000
10000000
00000000
00100000
01000000
,
00010000
00000000
00001000
00000010
00000100
00000000
00000001
00000100
,
00002000
00000000
00023000
00000000
02030000
00000000
13000000
00010000
,
00100000
00000000
01000000
00010000
00000000
00001000
00000100
00000001
,
00001000
00000000
00000100
00010000
00000000
00001000
00100000
01000000
,
20000000
00000000
32000000
00000000
03020000
00000000
00031000
00000100
,
00000000
00000000
00000001
00001000
00000001
00000000
00000000
00000000
00000100
00000000
00000000
00001000
00010000
00000000
00000000
01000000
,
10000000
00000000
01000000
00020000
00000000
00031000
00000100
00000002
,
00000000
00000000
00000103
00000010
00001000
00010000
00100000
01000000
,
10000000
00000000
00010000
10000000
00000000
01000000
00010000
00002000
,
00000000
00000000
00003000
00000100
00000001
00001000
00000010
00000100
,
00002000
00010000
00100000
00013000
,
01000000
00000000
10000000
00010000
00100000
00000000
00001000
00010000
,
00000010
00001000
00000001
00000100
00001000
00000000
00010000
00100000
,
10000000
00000000
01000000
00020000
00001000
00000000
00030010
00000000
,
00001000
00000000
00000001
00000100
00001000
00010000
01000000
00000000
,
10000000
00000000
00010000
10000000
01000000
00010000
00001000
00000100
,
00000001
00000000
00000010
00000100
00000000
00001000
00010000
00100000
,
01000000
00000000
10000000
02000000
00000000
03010000
00001000
00000100
,
00000002
00000000
00000103
00001000
00010000
00000000
01000000
00000000
,
10000000
00000000
00010000
00000000
01000000
00010000
00001000
00000000
,
00000010
00000000
00000100
00000002
00000000
00000000
00000103
00001000
,
00010000
00000000
01000000
10000000
01000000
00000000
00010000
00000000
00000000
00000000
00001000
00000000
00000100
00000000
00000001
00000000
,
00001000
00000000
00000100
00001000
00010000
01000000
00100000
20000000
,
00000000
00000000
31000000
00000000
00010000
00001000
00000100
00000001
,
00001000
00000000
00000100
00001000
00010000
00000000
01000000
00020000
,
00000000
00000000
10030000
00000000
01000000
00010000
00001000
00000100
,
00000001
00000000
00001000
00000000
00000100
00000010
00001000
00020000
,
00000000
00000000
00130000
00000000
10000000
00010000
01000000
00001000
,
00000100
00000000
00000001
00001000
00000100
00000000
00010000
00002000
,
00000000
00000000
00000000
00000000
00103000
00010000
00000000
00000000
10000000
00000000
00000000
00000000
01000000
00000000
00010000
00000000
,
00000000
00000000
00000000
00000000
;
