#TITLE:THREE WORMS;
#ARTIST:Jimmy Weckl;
#BANNER:THREE WORMS-bn.png;
#BACKGROUND:THREE WORMS-bg.png;
#JACKET:THREE WORMS-jacket.png;
#MUSIC:THREE WORMS.ogg;
#OFFSET:0.429;
#SAMPLESTART:30;
#SAMPLELENGTH:20;
#DISPLAYBPM:140;
#BPMS:0=140;
#STOPS:35.5=0.429;
#BGCHANGES:;

//---------------dance-single - ----------------
#NOTES:
     dance-single:
     :
     Beginner:
     5:
     :
0000
0000
0000
0000
,
0000
0000
0000
0000
,
0000
0010
0010
0000
,
0100
0000
0001
0001
,
0000
1000
1000
0000
,
0010
0000
0100
0100
,
0000
0001
0001
0000
,
0010
0000
1000
1000
,
0000
0100
0100
0000
,
0010
0010
0000
0001
,
0000
1000
0000
0010
,
0010
0010
0000
1000
,
0000
0000
0001
0001
,
0000
0000
0000
0100
,
0000
0010
0000
1000
,
1000
1000
0000
0100
,
0000
0000
0001
0001
,
0000
0000
1000
1000
,
1000
0000
0010
0010
,
0000
0100
0000
0000
,
0001
0001
0000
0010
,
0000
1000
1000
0000
,
0100
0100
0100
0000
,
1000
1000
1000
0000
,
0001
0001
0000
0010
,
0000
0100
0100
0100
,
0000
0000
1000
1000
,
0000
0000
0001
0000
,
0000
0000
0100
0000
,
0000
0110
0000
1001
,
0000
0010
0010
0010
,
0000
0001
0000
0010
,
0000
0100
0000
1000
,
0000
0001
0001
0001
,
0000
0100
0000
0010
,
0000
1000
1000
0000
,
0100
0100
0000
0010
,
0010
0010
0000
1001
,
0000
0000
0110
0000
,
0000
1001
0000
0000
,
0110
0000
0000
0000
,
0000
0000
0000
0010
,
0000
1000
0000
0001
,
0001
0001
0000
0010
,
0000
0000
0100
0100
,
0000
0000
0000
1000
,
0000
0010
0000
0100
,
0100
0100
0000
0001
,
0000
0000
1000
1000
,
0000
0000
0000
0000
,
0010
0010
0010
0010
,
0000
1000
1000
1000
;

//---------------dance-single - ----------------
#NOTES:
     dance-single:
     :
     Easy:
     7:
     :
0000
0000
0000
0000
,
0000
0000
0000
0000
,
0000
1000
0001
0100
,
0010
1000
0001
0001
,
0010
0001
1000
0010
,
0100
0110
1000
1000
,
1000
0100
1000
0001
,
0010
0001
0100
0100
,
0100
0010
1000
0001
,
0110
1000
0100
1000
,
0000
0001
0001
0010
,
0001
0100
1000
0010
,
1001
1000
0001
0100
,
1010
0010
1000
0001
,
0000
0100
0100
0001
,
0010
0001
0100
1000
,
1001
0010
1000
0100
,
0011
0001
0100
2000
,
0002
3003
0010
0001
,
0100
1000
0000
0000
,
1010
0100
1000
0001
,
0001
1000
0010
0000
,
0101
1000
0001
0000
,
0010
0001
0100
0000
,
1000
1100
0001
0101
,
0010
1000
0100
0010
,
0000
0000
0002
2000
,
0000
0003
3020
0000
,
0000
0000
0230
0000
,
0000
0001
0000
0301
0000
0000
0000
0011
,
0000
0002
2003
3200
,
0000
0320
0000
0000
0000
0000
0032
0000
,
0000
0203
0000
0000
0000
0000
0320
0000
,
0000
2030
0000
3001
0000
0000
0000
1001
,
0000
0002
0203
0320
,
0000
2030
3002
0013
,
0011
0100
1000
0010
,
0010
1000
0001
0020
,
0000
0032
0000
0000
2003
0000
0000
3020
,
0000
0000
0230
0000
0000
0301
0000
0000
,
0220
0000
0000
0000
,
0000
0000
0300
0130
,
0000
0010
0010
1000
,
0100
1000
0001
0010
,
1001
0100
0010
1000
,
0110
0010
1000
0001
,
0000
1000
1000
0100
,
0010
0100
1000
0010
,
0101
0001
0001
1000
,
0110
0001
0100
0000
,
0110
1000
0001
0010
,
0001
0100
1000
1001
;

//---------------dance-single - ----------------
#NOTES:
     dance-single:
     :
     Medium:
     10:
     :
0000
0000
0000
0000
,
0000
0000
0000
0000
,
0000
0000
0000
0000
1000
0000
0000
0001
0000
0000
0000
0000
0000
0000
0101
0000
,
0000
0000
0000
0000
1000
0100
1000
0100
,
0000
0000
0000
0000
0010
0000
0000
0100
0000
0000
0000
0000
1000
0000
0001
0000
,
0000
1010
0000
0000
0001
0100
0001
0100
,
0001
0000
0000
0000
0010
0000
0000
0001
0000
0000
0000
0000
0000
0000
1100
0000
,
0000
0000
0000
0000
1000
0010
1000
0010
,
0000
0000
0000
0000
1000
0000
0000
0100
0000
0000
1000
0000
0001
0000
0010
0000
,
0011
0000
1000
0001
1000
0100
0010
0000
,
0000
0001
0100
0010
1000
0100
1000
0001
,
0010
0000
0001
0000
0100
0000
0010
0000
0100
0000
0000
0002
0000
0000
1003
0000
,
0000
0000
0000
0000
0000
0000
0000
0000
0020
0000
0000
0230
0000
0000
0301
0000
,
0000
0000
1000
0100
1000
0001
0100
0000
,
0000
0001
1000
0001
0010
0100
1000
0010
,
1000
0000
0100
0000
0010
0000
0001
0000
0100
0000
0000
0002
0000
0000
0013
0000
,
0000
0000
0000
0000
0000
0000
0000
0000
2000
0000
0000
3002
0000
0000
0103
0000
,
0000
0000
0000
0000
0000
0000
0000
0000
0010
0000
0100
0000
0002
0000
0000
0013
,
0000
0000
0000
0100
1000
0001
1000
0010
,
0100
0001
0010
0100
0000
0000
0000
1000
,
0010
1000
0001
0010
0100
0010
0001
0100
,
0001
1000
0010
0100
0001
0000
0000
0010
,
0001
0100
1000
0010
1000
0001
0100
0001
,
0010
0001
0100
0010
1000
0000
0000
0000
,
0001
0000
1000
0000
0002
0000
0000
0203
0000
0000
0000
0320
0000
0000
1030
0000
,
0010
1000
0100
0010
0001
0100
1000
0000
,
0000
0000
0000
0000
0000
0000
0020
0000
0000
0230
0000
0000
0302
0000
0000
0000
,
0000
0000
0000
0000
2003
3020
0000
0000
,
0000
0000
0000
0000
0032
0203
0000
0000
,
0300
0110
0000
1001
0000
0000
1100
2200
,
0300
0000
3001
0000
2000
0000
0000
3020
0000
0000
1030
0000
0002
0000
0000
0000
,
0000
0000
0203
0000
0000
0010
0000
0000
0000
0000
0302
0000
2003
0000
0000
0000
,
0000
0000
3002
0000
0000
0100
0000
0000
0000
0000
0023
0000
0230
0000
0000
0000
,
0000
2300
0000
3002
0000
0003
0000
0021
,
0000
0000
0031
0000
0100
0000
0010
0000
1000
0000
0000
1002
0000
0000
0000
0000
,
0000
0013
0001
0100
1000
0001
0100
0010
,
2000
0000
0000
3002
0000
0000
0103
0000
0001
0000
0010
0000
0100
0000
1000
0000
,
0010
1000
0100
0010
0001
1000
0020
0000
,
0030
2020
0000
3030
0202
0000
0303
0022
,
0000
0033
2200
0000
3300
2002
0000
3003
,
0210
1000
0001
0010
,
1300
0100
1000
0001
0100
0001
0010
0000
,
0000
0001
0100
0001
0010
0100
1000
0010
,
0100
0000
1000
0000
0100
0000
0001
0000
0010
0000
0000
0002
0000
0000
1003
0000
,
0000
0000
0000
0000
0000
0000
0000
0000
0020
0000
0000
2030
0000
0000
3100
0000
,
0000
0000
1000
0010
1000
0001
0100
0000
,
0000
0010
1000
0100
0010
1000
0010
0100
,
0010
0000
0001
0000
0100
0000
0010
0000
1000
0000
0000
0002
0000
0000
0013
0000
,
0000
0000
0000
0000
0000
0000
0000
0000
0002
0000
0000
0023
0000
0000
0130
0000
,
0000
0000
0001
0010
0001
1000
0000
0100
,
1000
0010
0100
1000
0100
0001
0010
0100
,
0001
0000
0100
0000
1000
0000
0010
0000
0110
0000
0000
2002
0000
0000
0000
0000
,
0000
0000
3003
0000
;

//---------------dance-single - ----------------
#NOTES:
     dance-single:
     :
     Hard:
     14:
     :
0000
0000
0000
0000
,
0000
0000
0000
0000
,
0010
0000
0000
0000
1000
0001
0000
0001
0000
0000
0100
0010
0000
0000
0101
0000
,
0000
0000
1000
0000
1000
0000
0000
0000
0001
0000
0000
0100
0001
0000
0000
0100
,
0001
0000
0000
0000
0010
0100
0000
0100
0000
0000
1000
0001
0000
0000
1000
0000
,
0000
0000
1010
0000
0000
0000
0000
0000
1000
0000
0000
0010
1000
0000
0000
0010
,
1000
0000
0000
0000
0100
0010
0000
0010
0000
0000
0001
1000
0000
0000
0011
0000
,
0000
0000
1000
0000
1000
0000
0000
0000
0100
0000
0000
0010
0100
0000
0000
0010
,
0100
0000
0000
0000
1000
0001
0000
0001
0000
0000
0100
0010
0100
0000
0010
0000
,
0110
0000
0000
0000
1000
0010
0000
1000
0000
0001
0000
0000
0100
0000
0010
0000
,
0000
0000
1000
0100
1000
0000
0001
0100
0000
0000
0010
1000
0010
0000
0000
1000
,
0001
0000
0100
0000
0010
0000
0010
0000
0010
1000
0000
0002
0000
0000
0103
0000
,
0110
0000
0000
0000
1000
0002
0000
0000
0013
0000
0001
0100
0000
0100
0010
0000
,
1000
0002
0000
0000
0013
0000
0010
0000
0010
0001
0000
1000
0100
0000
0010
0000
,
0000
0000
0001
1000
0001
0000
0100
0010
0000
0000
1000
0100
1000
0000
0000
0001
,
0010
0000
0000
0001
0100
0000
0100
0000
0100
0010
0000
2000
0000
0000
3001
0000
,
1001
0000
0000
0000
1000
0020
0000
0000
0130
0000
0001
1000
0000
1000
0200
0000
,
0000
0320
0000
0000
0032
0000
0000
0000
1003
0010
1000
0000
0002
0000
0000
0013
,
0000
0000
0000
0000
0000
0001
1000
0000
0100
0000
0010
0000
1000
0000
0010
0000
,
0001
1000
0000
1100
0000
1100
0000
0010
0000
0100
0000
0000
0000
0000
1010
0000
,
0001
1000
0000
0010
0000
0010
0000
1000
0000
0001
0000
0100
0000
0100
0000
0100
,
0010
0000
0100
0000
0001
1000
0000
0202
0000
0000
0300
0000
0003
1000
0001
1000
,
0001
0000
0100
0000
0110
0000
1001
0000
1000
0100
1000
0100
0000
0010
0001
0000
,
0001
0000
1000
0000
1000
0000
0001
0200
0020
0000
0000
0000
0330
0000
0000
0000
,
0100
0001
0100
0000
1010
0000
0000
0011
0000
1000
0001
2000
0000
0000
0010
0000
,
3010
0000
0200
0000
0001
0000
0301
0000
1000
0100
1000
0100
0010
0000
0000
0000
,
0000
0000
0011
0000
0000
0000
0020
0000
0000
0230
0000
0000
2300
0000
0000
0000
,
0001
0000
0001
0000
0000
0100
0000
0000
3020
0000
0230
0000
1000
0000
1000
0000
,
0001
0000
0010
0000
0000
0010
0000
0000
0302
0000
0023
0000
1030
0000
0010
0100
,
0010
0011
0000
1100
0000
0000
0101
1010
,
0000
0000
1000
0000
2000
0000
0000
3002
0000
0000
0013
0001
0200
0000
0000
0000
,
0310
0000
2010
0000
0000
0001
0000
3001
1000
0000
0200
0000
0320
0000
0000
0000
,
0031
0000
1200
0000
0000
0010
0000
0310
0100
0000
2000
0000
3002
0000
0013
0100
,
0010
0011
0000
1001
0000
0100
0010
0220
,
0000
0300
0031
1000
0001
0000
0100
0000
0010
0000
1000
0200
0000
0000
0000
0000
,
0000
0000
1300
0001
1000
0000
0010
0000
0100
0000
0001
0010
0000
0001
0010
0000
,
0100
1000
0000
0002
0000
0103
0010
0000
1000
0000
0001
0100
0001
0000
0010
0001
,
0000
0010
0100
0000
1000
0100
0000
1000
0010
0000
0100
0001
1000
0000
0000
0100
,
0010
0000
0011
0000
0000
0001
0100
0000
0101
0000
0000
1000
0010
0000
1010
0000
,
0000
0100
1000
0000
1100
0000
0000
1000
0001
0000
1001
0000
0000
0001
0010
0000
,
0110
0000
0000
0000
1000
0000
0100
0000
0010
0001
0000
0001
0000
0000
0000
0000
,
0100
0000
0010
0000
1000
0001
0100
0000
0000
0001
1000
0000
0010
0000
0000
0000
,
1000
0000
0100
0010
0001
0000
1000
0001
0000
0010
0100
0000
1000
0000
0000
0001
,
0100
0000
0000
0010
1000
0000
1000
0000
1000
0100
0000
2000
0000
0000
3001
0000
,
1001
0000
0000
0000
1000
0020
0000
0000
0130
0001
0100
0002
0000
0000
1003
0000
,
0000
1100
0000
0000
2000
0001
0000
0010
0000
3010
0000
0000
0001
0000
0100
0000
,
0000
0000
0010
1000
0001
0000
1000
0100
0000
0010
0001
0000
0100
0000
0000
0001
,
1000
0000
0000
0010
0100
0000
0100
0000
0100
0001
0000
0020
0000
0000
0130
0000
,
0110
0000
0000
0000
0001
2000
0000
0000
3100
0010
0100
0010
0000
0001
2000
0000
,
0000
3020
0000
0000
0130
0001
0000
0011
0000
0011
0000
0000
0000
0001
1000
0001
,
0100
0000
0010
0000
1000
0100
1000
0000
0001
0100
0001
0000
0010
0000
0100
0000
,
1000
0010
0000
0110
0000
0001
1000
0000
1010
0000
0000
0022
0000
0000
0000
0000
,
0000
0000
0033
0000
;

//---------------dance-single - ----------------
#NOTES:
     dance-single:
     :
     Challenge:
     16:
     :
0000
0000
0000
0000
,
0000
0000
0000
0000
,
0010
0000
0000
0000
1000
0001
0000
0001
0000
0000
0100
0010
0100
0000
0101
0000
,
0000
0000
1000
0000
1000
0000
0000
0000
0001
0100
0001
0100
0001
0100
0001
0100
,
0001
0000
0000
0000
0010
0100
0000
0100
0000
0000
1000
0001
1000
0000
0010
0000
,
0100
0000
1010
0000
0000
0000
0001
0000
1000
0010
1000
0010
1000
0010
1000
0010
,
1000
0000
0000
0000
0001
0010
0000
0010
0000
0000
0100
1000
0100
0000
0110
0000
,
0000
0000
0001
0000
0001
0000
0000
0000
0100
0010
0100
0010
0100
0010
0100
0010
,
0100
0000
0000
0000
0001
1000
0000
1000
0000
0000
0001
0010
0001
0000
0100
0000
,
0011
0000
0000
0000
1000
0100
1000
0100
1000
0100
1000
0100
1000
0000
0010
0000
,
0000
0100
0001
0100
0010
0000
1000
0001
0000
1000
0001
0010
0001
0000
0100
0010
,
1000
0000
0100
0010
0001
1000
0001
1000
0001
1000
0000
0020
0000
0000
0130
0000
,
0110
0000
0000
1000
0001
0010
0001
0010
0100
0000
1000
0020
0000
0000
0130
0000
,
0002
1003
0100
1000
0001
0000
0001
0000
0001
0010
0000
0010
0100
0000
1000
0000
,
0000
0010
1000
0001
1000
0000
0100
0010
0000
0010
0001
1000
0100
0000
1000
0010
,
1000
0000
0100
0010
0001
1000
0001
1000
0001
1000
0000
0200
0000
0000
0310
0000
,
0110
0000
0000
0010
0001
1000
0001
1000
0010
0000
0100
0002
0000
0000
1003
0000
,
1000
0100
0000
0100
0010
0000
0010
0001
0100
0010
1000
0000
2100
0000
0000
3001
,
0100
0010
0000
0010
0000
1000
0100
0010
0001
0010
0100
1000
0020
0000
0230
0000
,
0301
1000
0000
1100
0000
0001
0100
0010
0000
0010
0100
0000
0001
0000
0011
0000
,
1000
0001
0000
1010
0000
1001
0000
1100
0000
1010
0000
1001
0000
0101
0000
0001
,
0100
0000
0110
0000
0010
1000
0000
0002
2003
3010
0000
0000
0100
0001
0010
0100
,
0010
0100
1000
0000
1001
0000
1001
0000
0010
0100
0010
1000
0000
0001
1000
0000
,
0100
0000
0100
0000
0100
0000
1000
0010
0200
0001
0000
0301
1000
0000
0000
0000
,
0100
1000
0001
0000
0021
0000
0000
0031
0000
0100
0001
2000
0000
0000
3010
0000
,
1001
0000
0200
0000
0301
0010
0001
0000
1000
0100
0010
0001
0100
0000
0000
0010
,
1000
0000
0101
0000
0000
0000
0002
0000
0000
2003
0000
0000
3010
0000
0000
0100
,
0001
0000
1010
0000
0000
0110
0000
0100
0002
0000
0023
0000
0130
0000
0000
0010
,
0001
0000
1100
0000
0000
0101
0000
1000
0200
0000
0320
0000
0031
0000
0100
0010
,
1000
0010
0100
0000
0000
0000
0110
0000
0001
0100
1000
0000
1100
0000
0202
0000
,
0300
0000
0010
0000
0023
0000
0000
0032
0000
0000
1003
0100
0001
0000
0010
0100
,
0010
0000
0011
0000
0000
1100
0000
0001
0100
0010
2000
0000
3002
0000
0100
0000
,
0103
0000
1010
0000
0000
1000
0100
0010
0001
0000
0200
0000
0320
0000
1030
0001
,
1000
0000
0011
0000
0000
0100
0001
0010
0001
1000
0100
0000
0010
0000
2200
0000
,
0000
0300
3001
0100
0010
1000
0010
0100
1000
0100
0001
2000
0000
0000
0010
0000
,
3100
0000
1000
0100
0010
0001
0010
1000
0010
0100
0010
0001
0000
0001
0200
0000
,
0320
1030
0000
0200
0000
1300
0002
0000
0013
0001
0100
0010
1000
0100
1000
0001
,
0100
0001
1000
0100
1000
0001
0100
0001
1000
0100
0010
0001
0200
0000
0310
1000
,
0010
0000
0101
0000
1000
0100
1000
0000
0011
0000
0001
0100
0001
0000
1010
0000
,
0100
0010
0100
0000
1100
0000
1000
0001
1000
0000
1001
0000
0001
0100
0001
0000
,
0220
0000
0300
0000
1030
0010
1000
0010
0100
0001
0000
1001
0000
0000
0010
0000
,
1000
0100
1000
0100
0010
0001
0100
0000
0000
0010
1000
0000
0100
0000
0010
0000
,
0001
1000
0010
1000
0100
0010
0100
0010
0000
0001
1000
0001
0100
0000
0010
1000
,
0001
0000
0010
0001
1000
0100
1000
0100
1000
0100
0000
0002
0000
0000
1003
0000
,
1010
0000
0000
0100
0001
0010
0001
0010
0100
1000
0001
2000
0000
3001
0010
0000
,
0010
0100
0000
0100
2000
0001
0000
3010
0000
0101
0000
1000
0002
0000
0000
0000
,
0013
0001
0100
0010
1000
0100
1000
0001
0000
0010
0001
0010
0100
0000
1000
0010
,
0001
0000
0100
0010
1000
0001
1000
0001
1000
0001
0000
0200
0000
0000
0310
0000
,
0100
0010
0000
0010
0001
0100
0001
0100
0010
1000
0001
2000
0000
3100
1000
0000
,
1000
0001
0000
0001
0200
0310
0000
0110
0000
1001
0000
0010
1000
0100
0010
0100
,
1000
0001
0010
0001
0100
0010
1000
0001
0010
0100
1000
0001
0100
0010
0100
0010
,
0100
0001
0000
1000
0000
1000
0100
0000
1100
0000
0000
0022
0000
0000
0000
0000
,
0000
0000
0033
0000
;
