#TITLE:THIS IS MY LAST RESORT;
#ARTIST:Numb'n'dub;
#BANNER:THIS IS MY LAST RESORT.png;
#BACKGROUND:THIS IS MY LAST RESORT-bg.png;
#JACKET:THIS IS MY LAST RESORT-jacket.png;
#MUSIC:THIS IS MY LAST RESORT.ogg;
#SAMPLESTART:2.175;
#SAMPLELENGTH:20;
#DISPLAYBPM:110:220;
#BPMS:0=220,78=110,79=220,85=110,86=220,92=110,93=220,99=110,100=220,106=110,107=220,113=110,114=220,120=110,121=220,127=110,128=220,284=110,285=220,299=110,300=220,314=110,315=220,329=110,330=220;
#STOPS:166=0.273,172=0.545,179=0.273,218=0.273,281=0.273;
#BGCHANGES:;

//---------------dance-single - ----------------
#NOTES:
     dance-single:
     :
     Beginner:
     5:
     :
0000
0000
0000
0000
,
0000
0000
0000
0000
,
0000
0000
0000
0000
,
0000
0000
0000
0000
,
0000
0000
0000
0000
,
0000
0000
0000
0000
,
0001
0000
0001
0000
,
0100
0000
0000
0000
,
0010
0000
0010
0000
,
0010
0000
0000
0000
,
1000
0000
0100
0000
,
1000
0000
0000
0000
,
0010
0000
0100
0000
,
0010
0000
0000
0000
,
0100
0000
0001
0000
,
0010
0000
0000
0000
,
0100
0000
1000
0000
,
0100
0000
0000
0000
,
0001
0000
0000
0000
,
0002
0000
0003
0010
,
0000
0000
0000
0020
,
0000
0030
0100
0000
,
0000
0000
0200
0000
,
0300
1000
0000
0000
,
0000
2000
0000
3000
,
1000
0000
0000
0000
,
2002
0000
3003
0001
,
0000
0000
0000
2002
,
0000
3003
0100
0000
,
0000
0000
2002
0000
,
3003
0010
0000
0000
,
0000
2002
0000
3003
,
0001
0000
0100
0000
,
0010
0000
0010
0000
,
1000
0000
0100
0000
,
0010
0000
0010
0000
,
0001
0000
0100
0000
,
1000
0000
0100
0000
,
0001
0000
1000
0000
,
1001
0000
0000
0000
,
1000
0000
1000
0000
,
1000
0000
0000
0010
,
0000
0010
0000
0010
,
0000
0001
0000
0001
,
0000
0001
0000
0000
,
0100
0000
0100
0000
,
0100
0000
0000
0000
,
1000
0000
0010
0000
,
0100
0000
0010
0000
,
1000
0000
0001
0000
,
0010
0000
0000
0000
,
0001
0000
0100
0000
,
0001
0000
0010
0000
,
0001
0000
1000
0000
,
0100
0000
0000
1000
,
0000
1000
0000
2000
,
0000
3000
0000
0010
,
0000
0010
0000
0020
,
0000
0030
0000
0100
,
0000
0100
0000
0200
,
0000
0300
0000
0001
,
0000
0001
0000
0001
,
0000
0000
0000
0010
,
0000
0001
0000
0100
,
0000
0001
0000
0010
,
0000
0010
0000
0110
,
0000
0000
0000
0010
,
0000
1000
0000
0100
,
0000
1000
0000
0010
,
0000
0010
0000
0001
,
0000
0000
0200
0000
,
0000
0300
0000
1001
,
0000
0020
0000
0000
,
0000
0030
0000
1001
,
0000
0200
0000
0000
,
0300
0000
1001
0000
,
0020
0000
0000
0000
,
0030
0000
1001
0000
,
0010
0000
0000
0100
,
0000
0000
0000
1000
,
0000
0100
0000
0001
,
0000
0000
0000
0010
,
0000
0000
0100
0000
,
0000
0000
0001
0000
,
0100
0000
1000
0000
,
0000
0000
1001
0000
,
0000
0000
0010
0000
,
0010
0000
1001
0000
,
0000
0000
0100
0000
,
0100
0000
1001
0000
,
0000
0000
1000
0000
,
0001
0000
0110
0000
,
0000
0000
0001
0000
,
1000
0000
0110
0000
,
0000
0000
0000
0000
;

//---------------dance-single - ----------------
#NOTES:
     dance-single:
     :
     Easy:
     9:
     :
0000
0000
0000
0000
,
0000
0000
0000
0000
,
0000
0000
0000
0000
,
0000
0000
0000
0000
,
0000
0000
0000
0000
,
0000
0000
0000
0000
,
0001
0000
1000
0000
,
0010
0100
0010
0000
,
1000
0000
0001
0000
,
2002
0000
0000
3003
,
0010
1000
0010
0000
,
1000
0010
1000
0000
,
0001
0100
0001
0000
,
0100
0001
0100
0000
,
0001
0010
0001
0000
,
0010
0001
0010
0000
,
0100
1000
0100
0000
,
2002
0000
0000
3003
,
0010
0000
0100
0000
,
2002
0000
3003
0010
,
0000
0100
0000
2002
,
0000
3003
0001
0000
,
1000
0000
0220
0000
,
0330
0001
0000
1000
,
0000
0220
0000
0330
,
1000
0000
0100
0000
,
0022
0000
0033
0001
,
0000
0100
0000
2020
,
0000
3030
0001
0000
,
0010
0000
2200
0000
,
3300
1000
0000
0010
,
0000
0202
0000
0303
,
0001
1000
0001
0000
,
0001
1000
0001
0000
,
0001
1000
0001
0000
,
0001
1000
0001
0000
,
1000
0100
1000
0100
,
1000
0010
1000
0010
,
0100
0010
1000
0001
,
2002
0000
0000
3003
,
0001
0001
0010
0010
,
0100
0100
0000
1000
,
1000
0010
0010
0100
,
0100
0001
0100
0001
,
0100
0010
1000
0000
,
1000
0100
1000
0100
,
0010
0001
0010
0010
,
0001
1000
0100
0010
,
0001
0100
0001
1000
,
0100
0010
0100
1000
,
0010
0100
0001
0001
,
1000
0010
0100
0001
,
1000
0100
0010
0001
,
0100
0001
0010
0100
,
2002
0000
3003
1000
,
0100
1000
0100
0001
,
0100
1000
0000
0001
,
0100
0001
0100
1000
,
0100
0001
0000
1000
,
0010
1000
0010
0001
,
0010
1000
0000
0001
,
0001
0001
0000
1000
,
1000
1000
0000
0010
,
1000
0001
0100
0010
,
0010
0010
0000
1000
,
0100
0010
0001
1000
,
1000
1000
0000
0001
,
1000
0100
0010
0001
,
0001
0001
0000
0100
,
0100
0100
0000
2002
,
0000
3003
0010
0100
,
0010
1000
0001
1000
,
0000
0001
1000
0001
,
0000
0010
0100
0010
,
0000
0100
1000
0001
,
0100
0001
1000
0000
,
0010
1000
0001
0000
,
0010
0001
1000
0000
,
0001
0100
1000
1000
,
0100
0001
0000
0010
,
0100
1000
0000
1000
,
0100
0010
0000
1000
,
0100
0001
0001
0100
,
1000
0000
0001
0100
,
0010
0000
0010
0100
,
0001
0000
1000
1000
,
1000
0000
0010
0010
,
0010
0000
0001
0001
,
0001
0000
0100
0100
,
0100
0000
0001
0001
,
0001
0000
0010
0010
,
0010
0000
1000
1000
,
1000
0000
0100
0100
,
0100
0000
1001
0000
,
0000
0000
0000
0000
;

//---------------dance-single - ----------------
#NOTES:
     dance-single:
     :
     Medium:
     12:
     :
0000
0000
0000
0000
,
0000
0000
0000
0000
,
0000
0000
0000
0000
,
0000
0000
0000
0000
,
0000
0000
0000
0000
,
0000
0000
0000
0000
,
1000
0001
1000
0000
0100
0000
0100
0000
,
0010
1001
0100
0100
,
0001
0001
1000
1000
,
0010
0010
0010
0000
,
1000
0100
1000
0000
0001
0000
0100
0000
,
0010
1000
0100
0000
0010
0001
0100
0000
,
0010
0000
1000
0100
0000
0001
0100
0000
,
1000
0001
0010
0001
0100
0000
0100
0000
,
0001
1000
0001
1000
0001
0000
0100
0000
,
0010
1001
0100
0100
,
1000
1000
0001
0001
,
2002
0000
0000
3003
,
1000
0000
1000
0000
0010
0000
0010
0100
,
0001
0000
0001
0000
2002
3003
0001
0000
,
0001
0000
0010
0000
0010
0100
1000
0000
,
1000
0000
2002
3003
0100
0000
0100
0000
,
0010
0000
0010
0001
1000
0000
1000
0000
,
2002
3003
0100
0000
0100
0000
0010
0000
,
0010
1000
0001
0000
0001
0000
2002
3003
,
0001
0000
0001
0000
0010
0000
1000
0010
,
0001
0000
0001
0000
2002
3003
1000
0000
,
1000
0000
0010
0000
0001
0010
1000
0000
,
1000
0000
2002
3003
1000
0000
1000
0000
,
0100
0000
0001
0100
1000
0000
1000
0000
,
2002
3003
0001
0000
0001
0000
0100
0000
,
1000
0100
0001
0000
0001
0000
2002
3003
,
1000
0010
1000
1000
,
0100
1000
0100
0100
,
0010
0001
0010
0010
,
0001
0100
0001
0001
,
1001
0000
0110
0000
,
1001
0000
0110
0000
,
1000
0010
1000
0000
0001
0010
0001
0000
,
1000
2002
0000
3003
,
0010
0000
1000
0000
0001
0100
0001
0000
,
0010
0010
0110
1000
,
0001
0000
0100
0010
0100
0000
0001
0000
,
1001
0000
0010
0000
0010
0000
1000
0001
,
0100
0001
0010
0110
,
1000
0001
0010
0100
,
1000
0010
0100
0000
0001
0010
0100
0000
,
1000
0100
0001
0000
0100
1000
0001
0010
,
0001
0100
0010
0000
1000
0001
0100
0000
,
0001
0100
1000
0000
0100
0001
1000
0010
,
0100
0010
1000
0000
0100
0010
0001
0000
,
1000
0001
0100
0000
0010
1000
0100
1000
,
0010
0100
0001
0000
1000
0001
0100
0000
,
0001
1000
0001
1000
0100
0010
0100
0000
,
0220
0000
0000
0000
0330
0000
0001
0010
,
0001
0000
0100
0010
0100
0000
0010
1000
,
0010
0000
0100
0001
0100
0000
0010
0000
,
1000
0100
0000
0010
0001
0000
1000
0001
,
1000
0000
1001
0000
0110
0000
0001
1000
,
0001
1000
0001
0000
0100
0000
0010
0000
,
1010
0100
0101
0010
,
0010
0100
0100
0001
,
0001
0000
1000
0001
1000
0000
0010
0100
,
0001
0000
0010
0100
1000
0000
0001
1000
,
0001
0000
0100
0010
0100
0000
0001
0000
,
1000
0010
0000
0001
0010
0000
1000
0010
,
0100
0000
0101
0000
1010
0000
0100
0010
,
0001
1000
0100
0000
0010
0000
0001
0000
,
1010
0100
0011
1000
,
1000
0001
0001
2002
,
0000
0000
3003
0000
1000
0010
0100
0000
,
0001
1000
0100
0000
0010
0000
0000
0000
0001
0000
0100
0000
0000
0000
0010
0000
,
0100
0000
0001
1000
0100
0000
0010
0001
,
0100
0000
1000
0100
0001
0000
1000
0010
,
0100
0000
0000
0000
0001
0000
1000
0000
0010
0000
0000
0000
0100
0010
0100
0000
,
0001
1000
0100
0000
1100
0000
0101
0000
,
0001
1000
0010
0000
1000
0100
0010
0000
,
0001
0000
1000
0010
0000
0001
0010
0000
,
1000
0100
0010
0000
0011
0101
1000
0010
,
0100
0000
0010
1000
0100
0000
0001
0100
,
1000
0000
0001
0010
0100
0000
1000
0010
,
0100
0001
0100
0000
0100
0000
0001
1000
,
0001
0000
0220
0330
1000
0001
1000
0000
,
0100
0000
0100
0000
0010
0001
0100
0000
,
0010
1000
0100
0000
1000
0001
0010
0001
,
0100
0010
1000
0000
0001
0000
1001
0000
,
0010
1000
0010
0000
0100
0001
0100
0000
,
0020
0030
1000
1001
,
0010
0001
0010
0000
0100
1000
0100
0000
,
0020
0030
0100
1001
,
0010
0001
0100
0000
1000
0100
0001
0000
,
0010
0100
1000
0000
0010
0000
1001
0000
,
0100
1000
0010
0000
0001
0000
0010
1000
,
0000
0001
0100
0000
2002
0000
0000
0000
,
3003
0000
0000
0000
,
0000
0000
0000
0000
;

//---------------dance-single - ----------------
#NOTES:
     dance-single:
     :
     Hard:
     15:
     :
0000
0000
0000
0000
,
0000
0000
0000
0000
,
0000
0000
0000
0000
,
0000
0000
0000
0000
,
0000
0000
0000
0000
,
0000
0000
0000
0000
,
1000
0001
1000
0001
1000
0000
1000
0000
,
0001
0000
0110
0000
1001
0000
1000
0100
,
0010
0000
0000
0000
0010
0000
0000
0000
0100
0000
0000
0100
1000
0000
0001
0000
,
0100
0000
0100
0000
0010
1000
1001
0000
,
0010
0000
0100
0000
0010
0000
1000
0000
0001
1000
0001
1000
0001
0000
0000
0000
,
1000
0100
0010
0000
0001
0100
0010
0000
,
1000
0010
1000
0001
0010
0100
0001
0100
,
1000
0010
0001
0010
2000
0000
3100
0000
,
0010
0001
0010
0001
0100
0010
1000
0001
,
0100
0000
0110
0000
1000
0100
0010
0000
,
0100
0000
0000
0000
0100
0000
0000
0000
0010
0000
0000
0010
0001
0000
1000
0000
,
0020
0000
0000
0030
,
1000
0000
0000
0010
0000
0000
1000
0000
0010
0000
0000
0000
0100
0001
0100
0000
,
0001
0000
0000
0010
0000
0000
0001
0000
0010
0000
0010
0000
0100
0000
0000
1000
,
0000
0000
0100
0000
1000
0000
0000
0000
0001
0100
0001
0000
0100
0000
0000
0001
,
0000
0000
0100
0000
0010
0000
0010
0000
1000
0000
0000
0001
0000
0000
1000
0000
,
0001
0000
0000
0000
0100
0010
0100
0000
0010
0000
0000
0100
0000
0000
0010
0000
,
1000
1000
0001
0001
1000
0000
0000
0100
0000
0000
0010
0000
0001
0000
0000
0000
,
1000
0001
1000
0000
0001
0000
0000
0010
0000
0000
0100
0000
1000
1000
1000
0000
,
0010
0000
0000
0100
0000
0000
0001
0000
1000
0000
0000
0000
0010
0100
0010
0000
,
1000
0000
0000
0001
0000
0000
0100
0000
0010
0000
0010
0000
1000
0000
0000
0001
,
0000
0000
0010
0000
0100
0000
0000
0000
1000
0010
1000
0000
0010
0000
0000
0100
,
0000
0000
0001
0000
0010
0000
0010
0000
0001
0000
0000
0100
0000
0000
0010
0000
,
1000
0000
0000
0000
0100
0010
0100
0000
0010
0000
0000
0001
0000
0000
0100
0000
,
0010
0010
0100
0100
0001
0000
0000
1000
0000
0000
0001
0000
0100
0000
0000
0000
,
0010
1000
0001
0000
0010
0000
0000
0100
0000
0000
0010
0000
0002
0000
0003
0000
,
1001
0001
0001
0001
,
0100
0100
0100
0100
,
1001
1000
1000
1000
,
0100
0100
0100
0100
,
1001
0001
0110
0010
,
1001
1000
0110
0100
,
0001
0100
0001
0100
0010
1000
0010
1000
,
0020
0000
0000
0030
,
0001
0100
0010
0000
1000
0100
0001
0000
,
0100
0010
0001
0000
1001
0000
0010
0100
,
1000
0000
0010
0100
0001
0000
1000
0010
,
0110
0000
0010
1000
0010
0000
0100
0001
,
0010
0000
0100
0001
0100
0000
0110
0000
,
0001
0100
1000
0000
0100
0001
1000
0000
,
0010
1000
0010
1000
0100
0010
0001
0010
,
0001
0100
0010
0100
0001
1000
0001
0000
,
1000
0100
0010
0001
0100
0001
1000
0100
,
0010
0100
1000
0001
0100
0010
0100
0000
,
0010
1000
0001
0100
1000
0100
0001
1000
,
0100
0010
0100
1000
0001
0100
0010
0000
,
0100
0001
0100
0010
1000
0100
1000
0001
,
0010
0010
0010
0000
0100
0100
0100
0000
,
2002
0000
0000
0000
3003
0000
0010
1000
,
0010
0000
0100
0000
0001
1000
0001
1000
0001
0000
0000
0000
1000
0000
0001
1000
,
0010
0000
0100
0000
0100
0000
0001
0100
,
0010
1000
0100
0010
0001
0100
0010
1000
,
0010
0001
0010
0000
0010
0000
1000
0010
,
0100
0000
0001
0000
0100
0001
1000
0000
0100
0000
0000
0000
0010
0000
0000
0000
,
1001
0000
0100
0010
0001
0000
1000
0000
,
1000
0000
0000
0000
0001
0000
0000
0001
0100
0000
0010
0000
1000
0000
0000
0000
,
1000
0000
0100
1000
0010
0100
0001
0001
,
0001
0000
0000
0000
1000
0100
1000
0100
1000
0000
0000
0000
0100
0010
0100
0010
,
0100
0000
0110
0000
0110
0000
0100
0010
,
0001
0100
0010
1000
0100
0010
0001
0010
,
1000
0010
0001
0000
0001
0000
1000
1000
,
1000
0000
0001
0100
0010
0100
0010
0000
,
1001
0000
1000
0001
1000
0000
0001
0000
,
0001
0000
0000
0000
1000
0000
0000
1000
0010
0000
0100
0000
0220
0000
0000
0000
,
0000
0000
0330
0000
1000
0100
1000
0100
,
0001
0100
1000
0001
0100
0000
0010
0000
1000
0000
0001
0000
0100
0000
0010
0000
,
1000
0100
1000
0010
1000
0010
0001
0010
,
1000
0010
0100
0001
0001
1000
0010
0010
,
0100
0000
0000
0000
0001
0000
0100
0000
0001
0000
0100
0000
1000
0100
0001
1000
,
0010
0100
0001
0010
0110
0000
1100
0000
,
0001
0010
0001
0010
1000
0010
0001
1000
,
0100
1000
0010
0100
1000
0100
0001
0000
,
1000
0100
0010
0001
0101
1001
0010
0010
,
1000
0020
0000
0100
0130
0001
1000
0100
,
0001
0100
0010
0001
1000
0010
0100
0100
,
0100
0100
0100
0000
1001
0000
0001
0010
,
0100
1000
2020
3030
1000
0010
0100
0001
,
0011
0000
1001
0000
1000
0010
0001
1000
,
0100
0001
1000
0100
0020
0000
0000
0000
,
0000
0000
0000
0000
0030
0000
0000
0000
0001
0000
0000
0100
0000
0000
0001
0000
,
1000
0010
1000
0000
0100
0000
1000
0000
0001
0010
0001
0000
0100
0000
0001
0000
,
1000
0000
0010
0000
1000
0000
0000
0000
0100
0000
0000
0010
0000
0000
0001
0000
,
1000
0100
1000
0000
0010
0000
0100
0000
0001
0010
0001
0000
1000
0000
0100
0000
,
0110
0000
0000
0000
0000
0000
0000
0000
1000
0000
0000
0001
0000
0000
0100
0000
,
0001
0010
0001
0000
1000
0000
0001
0000
0100
0010
0100
0000
0010
0000
1000
0000
,
0100
0000
0010
0000
0001
0000
0000
0000
0100
0000
0000
0010
0000
0000
1000
0000
,
0001
0100
0010
0000
1000
0000
0100
0000
0010
0000
0001
0100
0010
0000
1000
0000
,
0001
0010
0100
0000
1000
0000
0001
0000
2002
0000
0000
0000
0000
0000
0000
0000
,
3003
0000
0000
0000
;

//---------------dance-single - ----------------
#NOTES:
     dance-single:
     :
     Challenge:
     19:
     :
0000
0000
0000
0000
,
0000
0000
0000
0000
,
0000
0000
0000
0000
,
0000
0000
0000
0000
,
0000
0000
0000
0000
,
0000
0000
0000
0000
,
0001
0000
0001
0000
0001
0000
0100
0000
1000
0010
1000
0000
0100
0000
0001
0010
,
0001
0000
0100
0000
0110
0000
0000
0000
1000
0010
1000
0010
1000
0000
0001
0000
,
0011
0000
0000
0000
1100
0000
0000
0000
0011
0000
0000
0100
0010
0000
1000
0000
,
0001
0000
0000
0000
0100
0000
0000
0000
0010
0000
0000
0000
1000
0000
0000
0000
0100
0000
0000
0000
0010
0000
0000
0000
0001
0000
0000
0000
0000
0000
1000
0000
0000
0010
0000
0000
1000
0000
0000
0100
0000
0000
0010
0000
0000
0001
0000
0000
,
0100
0000
0100
0000
0100
0000
0010
0000
1000
0100
0010
0001
0100
0000
0100
0000
,
1010
0000
0001
0010
1000
0000
0000
0000
1100
0000
1000
0100
1000
0000
0001
0000
,
0010
0001
1000
0000
1000
0000
0010
0001
1000
0000
1000
0000
0010
0001
1000
0001
,
0100
0000
0010
0000
1000
0000
0001
0000
0010
0001
0100
0000
0010
1000
0100
0010
,
0001
0000
0011
0000
0101
0000
1001
0000
1000
0010
0100
0000
0001
0000
1000
0010
,
0100
0001
0000
0000
1010
0000
0000
0000
0100
1000
0001
0000
0010
0100
1000
0000
,
1100
0000
0000
0000
0011
0000
0000
0000
1100
0000
0000
0001
0100
0000
0010
0000
,
1000
0010
0100
0001
0010
0100
2000
0000
0000
0000
0000
0000
,
3010
1000
0100
1000
0010
0000
0100
1000
0010
1000
0100
0010
0001
0100
0001
0000
,
0010
0000
0100
0000
0010
0000
0100
0000
1000
0000
0001
0000
1000
0000
0001
0000
0100
0000
0010
1000
0001
0000
0001
0000
0010
0000
0001
0000
0100
0000
0001
0000
,
0010
0000
0100
0001
0010
0001
0100
0010
1000
0001
1000
0000
0100
0010
0100
0010
,
0001
1000
0001
1000
0010
1000
0100
0001
0010
0100
1000
0100
0010
0000
0100
0010
,
0001
0010
0100
0000
1000
0001
0100
0010
1000
0100
0010
0001
1000
0010
0100
0001
,
1000
1000
1000
1000
1000
0010
0100
0010
1000
0000
0001
0010
0100
0010
0001
0100
,
0010
1000
0001
1000
0100
0010
0001
0010
0100
1000
0001
0000
0011
0110
1100
0000
,
0010
1000
0100
0010
0001
0000
0100
0001
0010
0001
0010
0100
1000
0010
1000
0000
,
0001
0000
0100
0000
0010
0000
0100
0000
0001
0000
0010
0000
0100
0000
0010
0000
0001
0000
1000
0100
0010
0000
0010
0100
1000
0000
0001
0000
0010
0000
0001
0000
,
0100
0000
0010
1000
0010
1000
0100
0010
0001
1000
0001
0000
0010
0100
0010
0100
,
1000
0001
1000
0001
0200
0320
0230
0320
1030
0100
0010
0001
0100
0000
0010
1000
,
0001
0010
0001
0010
0100
1000
0001
0000
1000
0100
0010
0001
0100
0010
1000
0001
,
0010
0000
0001
0100
1000
0000
1000
0100
0001
0000
0010
0000
0001
0000
0010
0000
0100
0000
1000
0000
0100
0000
1000
0000
0010
0000
0100
0000
0010
0000
0100
0000
,
0001
0000
1000
0000
0001
0000
1000
0000
0001
0000
0100
0000
0001
0000
0100
0000
0010
0000
1000
0000
0010
0000
1000
0000
0001
0010
0100
1000
0100
0010
0001
0000
,
1001
0000
0100
0000
1001
0000
0000
0000
1001
0000
0001
0100
0010
0000
1000
0000
,
1001
0000
0100
0000
1001
0000
0000
0000
1001
0000
0001
0010
0100
0000
1000
0010
,
0100
0000
0001
0000
0110
0000
0000
0000
0110
0000
0001
0010
0100
0000
1000
0001
,
0100
0000
0010
0000
0110
0000
0000
0000
0110
0000
0001
0010
1000
0000
0100
0000
,
2100
0001
3100
0000
0012
1000
0013
0000
,
0201
0010
0301
0000
1020
0100
1030
0000
,
1001
0000
0010
1000
0100
0000
0010
0001
0100
0000
0001
0010
1000
0000
0001
0100
,
2000
0000
0000
0000
3010
0100
0010
0100
0010
0100
0010
0100
0010
0000
0000
0000
,
0110
0000
0001
0010
0001
0000
1000
0100
1000
0000
0001
0000
1000
0000
0010
0000
,
0100
0000
0001
0010
0001
0000
0100
0000
1010
0000
0000
0000
1100
0000
0001
0010
,
0001
0000
0100
0010
1000
0000
0100
0000
1000
0000
0001
0000
0010
0000
0001
0000
,
1010
0000
0000
0000
0101
0000
0001
0010
0001
0000
0010
0100
1000
0000
0010
0000
,
1000
0001
1000
0010
0001
0100
1010
0000
,
1000
0100
0010
0001
0100
0000
0010
1000
0001
0000
1000
0100
0010
0000
0001
0000
,
0100
0001
0100
0000
0010
1000
0010
0000
0100
0000
0001
0010
0100
0000
0001
0010
,
0100
0000
1000
0010
0100
0000
0001
0010
2000
0000
3200
0000
0302
0000
0013
0100
,
1000
0000
0001
0000
0010
0000
0100
0000
2000
0000
3020
0000
0032
0000
0103
0001
,
1000
0000
0010
0100
0001
0000
0010
0100
2000
0000
3020
0000
0230
0000
0301
0010
,
0100
0000
0010
0100
1000
0000
0010
0000
0200
0000
0302
0000
0023
0000
0031
1000
,
0100
0100
1000
1000
1010
0110
0101
0110
,
1010
0000
0001
0010
0100
0000
1000
0000
1001
0000
0101
0000
0011
0000
0100
0000
,
1100
0000
1010
0000
0101
0000
0011
0000
1001
0000
0110
0000
1000
0010
0001
0000
,
1000
0000
0100
0000
0010
0000
0001
0000
0010
0000
0100
0000
1000
0000
0000
0000
0000
0000
1100
0000
0000
0001
0000
0000
,
0100
0000
0010
0000
1000
0100
0001
0100
1000
0000
0110
0000
1001
0000
0001
0010
,
1000
0000
0000
0000
1000
0000
0100
0010
0001
0000
1000
0100
0010
0000
0001
0000
,
1010
0000
0100
0000
0001
0000
0011
0000
1100
0000
0001
0100
0001
0000
0010
0100
,
1000
0001
0101
0010
0101
0010
1001
0011
,
0110
0000
1100
0000
0010
1000
0001
0010
0001
0100
0010
1000
0100
0000
0010
0000
,
1100
0000
0001
0100
1000
0010
1100
0000
,
0011
0000
0000
0000
1100
0000
0000
0010
1000
0000
0001
0000
0101
0000
0010
0000
,
0101
0000
0010
0000
1000
0000
0100
0010
0001
0000
1000
0100
0010
0000
0010
0000
,
0010
0000
0000
0000
0001
0100
1000
0100
0001
0000
1000
0000
0110
0000
0001
0100
,
1000
0000
0000
0000
0010
0000
1000
0001
0100
0000
0001
1000
0100
0000
0010
0000
,
0011
0101
0010
1100
1010
0001
1100
0010
,
0101
0010
1001
0100
1001
0100
0101
1100
,
0101
0000
1100
0000
0010
1000
0100
0010
0001
0100
0001
1000
0010
0100
0001
0000
,
1010
0000
0000
0000
0001
0010
0100
1000
0010
0100
0001
0000
1100
0000
0000
0000
,
0011
0000
0000
0000
0000
0000
0000
0000
0000
0000
0000
0000
1100
0000
0000
0000
0000
0000
0000
0000
0000
0010
0000
0000
0100
0000
0000
0000
0000
0000
0001
0000
0000
0000
0000
0000
1000
0000
0000
0000
0100
0000
0000
0000
0010
0000
0000
0000
,
0001
0000
0000
0000
0010
0000
0000
0000
0100
0000
0000
0000
1000
0000
0000
0000
0000
0000
0000
0000
0000
0000
0000
0000
0010
0000
0000
1000
0000
0000
0010
0000
0000
0100
0000
0000
0001
0000
0000
0000
0000
0000
1000
0000
0000
0001
0000
0000
,
0200
0320
2030
3002
0013
0000
0001
0100
0001
0000
1000
0000
0010
0000
1010
0000
,
1001
0000
0000
0000
0010
0000
0001
1000
0001
0000
1000
0100
0010
0000
0001
0100
,
0001
0000
1000
0000
0010
0001
0100
0001
0010
0001
0100
0001
0010
0001
0100
0001
,
0010
0001
0100
0001
0010
0000
0100
1000
0001
0000
0100
0010
2000
3200
0320
0032
,
0103
0000
0010
1000
0001
0000
0010
0000
1001
0000
0000
0000
1001
0000
0000
0000
,
0010
0000
1000
0000
0100
0000
1000
0010
0001
0000
0100
0010
1000
0000
0001
0100
,
1000
0000
0010
0100
0001
0000
0010
0000
0001
0010
1000
0100
0001
0010
1000
0100
,
0001
1000
0010
0100
0001
1000
0010
0100
0002
2003
3020
0230
0301
0010
0100
1000
,
0100
0010
0001
0000
0100
0000
1010
0000
0101
0000
0000
0000
0010
0000
1000
0100
,
1000
0000
0001
0100
0001
0000
0010
0100
0010
0000
0001
0000
1000
0100
0010
0100
,
0010
0100
0001
0010
1000
0001
1000
0001
0010
0001
1000
0100
0010
0000
0001
0100
,
0001
0000
1000
0100
2000
3002
2003
3002
0013
0001
0100
0001
0010
1000
0100
1000
,
1001
0000
0000
0000
1001
0000
0000
0000
0010
0000
1000
0100
0010
0000
0001
0000
,
0100
0010
0100
0001
0010
0100
1000
0010
1000
0000
0001
0100
0001
0000
0010
0100
,
1000
0000
0010
1000
0100
1000
0010
0100
0001
0010
0100
1000
0001
0010
0100
1000
,
0001
0000
0100
0010
1000
0000
0100
1000
0010
0000
0100
0010
1000
0000
0100
1000
,
0010
0000
0110
0000
0110
0000
0100
0001
0010
0001
0000
0001
0100
0000
0010
1000
,
0001
0000
0100
0010
1000
0000
0100
1000
0010
0000
0100
0010
1000
0000
0100
1000
,
0010
0000
0100
0010
1000
0000
0100
1000
0010
0000
0100
0001
0010
0000
0001
1000
,
0100
0010
0001
0010
0100
0000
1000
0010
0100
0010
1000
0010
0100
0000
0001
1000
,
0020
0000
0230
0000
0320
0000
0230
0000
0301
0010
0000
0001
0010
0000
0001
0010
,
0001
0100
0010
1000
0001
0100
0010
1000
1100
0000
0010
0000
0101
0000
1100
0000
,
0010
0000
0000
0000
0000
0000
0101
0000
0000
0000
0000
0000
1100
0000
0000
0000
0000
0000
0001
0000
0000
0100
0000
0000
0001
0000
0000
0000
0010
0000
0000
0000
0100
0000
0000
0000
1000
0000
0000
0000
0010
0000
0000
0000
0100
0000
0000
0000
,
0110
0000
0000
0000
;

//---------------dance-double - ----------------
#NOTES:
     dance-double:
     :
     Easy:
     9:
     :
00000000
00000000
00000000
00000000
,
00000000
00000000
00000000
00000000
,
00000000
00000000
00000000
00000000
,
00000000
00000000
00000000
00000000
,
00000000
00000000
00000000
00000000
,
00000000
00000000
00000000
00000000
,
00000001
00000000
00000010
00000000
,
00000100
00000100
00000100
00000000
,
00010000
00000000
00001000
00000000
,
00022000
00000000
00000000
00033000
,
00100000
00010000
00100000
00000000
,
00010000
01000000
00010000
00000000
,
10000000
00000000
10000000
00000000
,
01000000
00100000
01000000
00000000
,
00001000
00010000
00001000
00000000
,
00010000
00000010
00010000
00000000
,
00000100
00001000
00000100
00000000
,
00002002
00000000
00000000
00003003
,
00000001
00000000
00000001
00000000
,
00000220
00000000
00000330
00000100
,
00000000
00000100
00000000
00022000
,
00000000
00033000
00010000
00000000
,
00010000
00000000
02200000
00000000
,
03300000
01000000
00000000
01000000
,
00000000
20020000
00000000
30030000
,
10000000
00000000
01000000
00000000
,
00220000
00000000
00330000
01000000
,
00000000
00001000
00000000
00022000
,
00000000
00033000
00000100
00000000
,
00001000
00000000
00002020
00000000
,
00003030
00000100
00000000
00000010
,
00000000
00000022
00000000
00000033
,
00000001
00000001
00000001
00000000
,
00000100
00000000
00000010
00000000
,
00001000
00001000
00001000
00000000
,
00000100
00000000
00010000
00000000
,
00001000
01000000
00001000
01000000
,
00010000
00100000
00010000
00100000
,
01000000
10000000
00100000
00000000
,
20020000
00000000
00000000
30030000
,
00100000
00100000
00001000
00001000
,
00010000
00010000
00000000
00000010
,
00000010
00010000
00010000
00001000
,
00001000
01000000
00010000
01000000
,
00010000
00100000
00010000
00000000
,
00000100
00001000
00000100
00001000
,
00000010
00001000
00000010
00000000
,
00000100
00000001
00001000
00000100
,
00010000
00001000
00100000
00010000
,
01000000
00100000
10000000
01000000
,
00100000
00010000
01000000
01000000
,
00100000
10000000
00010000
01000000
,
00001000
00010000
00000010
00001000
,
00000100
00000010
00000001
00000100
,
00002002
00000000
00003003
00000100
,
00001000
00000100
00001000
00010000
,
00001000
00010000
00000000
01000000
,
00010000
01000000
00010000
00001000
,
00010000
00001000
00000000
00010000
,
00100000
00010000
00100000
00010000
,
00001000
00010000
00000000
00001000
,
00001000
00001000
00000000
00010000
,
00010000
00010000
00000000
00001000
,
00000010
00000001
00000010
00000011
,
00000000
00001100
00000000
00000010
,
00001000
00000100
00010000
00010100
,
00000000
00011000
00000000
00100000
,
00010000
01000000
00010000
00110000
,
00000000
11000000
00000000
00100000
,
00100000
00100000
00000000
20020000
,
00000000
30030000
00100000
01000000
,
10010000
00100000
00001000
00010000
,
00000000
00001000
00010000
00000100
,
00000000
00001000
00000100
00000010
,
00000000
00000001
00000100
00001001
,
00000100
00000010
00001000
00000000
,
00000100
00010000
00001000
00000000
,
00100000
00010000
01000000
00000000
,
00100000
10000000
01100000
10000000
,
01000000
00100000
00000000
00010000
,
00100000
00001000
00000000
00010000
,
00000010
00001000
00000000
00001000
,
00000001
00000110
00000010
00001000
,
00000001
00000000
00000100
00001000
,
00010000
00000000
00001000
00010000
,
00001000
00000000
00100000
00100000
,
00100000
00000000
01000000
01000000
,
01000000
00000000
00010000
00010000
,
00010000
00000000
00001000
00001000
,
00001000
00000000
00000100
00000100
,
00000100
00000000
00000010
00000010
,
00000010
00000000
00010000
00010000
,
00010000
00000000
00001000
00001000
,
00001000
00000000
00011000
00000000
,
00000000
00000000
00000000
00000000
;

//---------------dance-double - ----------------
#NOTES:
     dance-double:
     :
     Medium:
     12:
     :
00000000
00000000
00000000
00000000
,
00000000
00000000
00000000
00000000
,
00000000
00000000
00000000
00000000
,
00000000
00000000
00000000
00000000
,
00000000
00000000
00000000
00000000
,
00000000
00000000
00000000
00000000
,
10000000
01000000
10000000
00000000
00100000
00000000
00100000
00000000
,
01000000
00010000
00100000
00100000
,
00001000
00001000
00010000
00010000
,
00001000
00010000
00011000
00000000
,
00000100
00001000
00000100
00000000
00000010
00000000
00000001
00000000
,
00000100
00000010
00001000
00000000
00000100
00000010
00000001
00000000
,
00000100
00000000
00001000
00010000
00000000
00001000
00010000
00000000
,
00001000
00100000
00001000
00100000
00010000
00000000
00010000
00000000
,
01000000
00100000
01000000
00100000
01000000
00000000
00100000
00000000
,
10000000
00010000
00100000
00100000
,
00001000
00001000
00010000
00010000
,
00022000
00000000
00000000
00033000
,
00001000
00000000
00010000
00000000
00000100
00000000
00001000
00000010
,
00001000
00000000
00000001
00000000
00002002
00003003
00000001
00000000
,
00000010
00000000
00000100
00000000
00001000
00000100
00010000
00000000
,
00001000
00000000
00022000
00033000
00010000
00000000
00001000
00000000
,
01000000
00000000
00010000
00100000
00010000
00000000
01000000
00000000
,
02200000
03300000
01000000
00000000
00010000
00000000
10000000
00000000
,
01000000
00100000
00010000
00000000
10000000
00000000
20020000
30030000
,
01000000
00000000
00010000
00000000
00100000
00000000
00001000
00010000
,
00000100
00000000
00010000
00000000
00022000
00033000
00001000
00000000
,
00010000
00000000
00000010
00000000
00001000
00000100
00000010
00000000
,
00000100
00000000
00000220
00000330
00000001
00000000
00001000
00000000
,
00000010
00000000
00000100
00000010
00001000
00000000
00000100
00000000
,
00020200
00030300
00001000
00000000
00100000
00000000
00010000
00000000
,
01000000
00010000
00100000
00000000
01000000
00000000
22000000
33000000
,
10000000
10000000
01000000
01000000
,
00100000
00100000
00010000
00010000
,
00001000
00001000
00000100
00000100
,
00000010
00000010
00000001
00000001
,
00000011
00000000
00000101
00000000
,
00001010
00000000
00001100
00000000
,
00010000
00001000
00100000
00000000
00010000
01000000
00100000
00000000
,
10000000
20020000
00000000
30030000
,
00100000
00000000
10000000
00000000
01000000
00100000
00010000
00000000
,
00100000
00100000
00110000
00001000
,
00010000
00000000
00000100
00001000
00000100
00000000
00000010
00000000
,
00000011
00000000
00000100
00000000
00000001
00000000
00001000
00000100
,
00001000
00000100
00010000
00011000
,
00100000
00010000
01000000
01000000
,
00100000
10000000
00100000
00000000
01000000
00010000
01000000
00000000
,
00010000
00000000
00100000
00000000
00001000
00010000
00000100
00001000
,
00000100
00000000
00000010
00000001
00000000
00000001
00000010
00000000
,
00000001
00000000
00000100
00000000
00000010
00001000
00000100
00010000
,
00000100
00000000
00010000
00001000
00000000
00001000
00010000
00000000
,
00100000
00000000
01000000
00000000
00010000
10000000
01000000
00100000
,
01000000
00000000
10000000
00100000
00000000
00100000
10000000
00000000
,
00010000
01000000
00010000
01000000
00001000
00010000
00001000
00000000
,
00022000
00000000
00033000
00000010
,
00000110
00000000
00000001
00000100
00000001
00000000
00001000
00000100
,
00001000
00000010
00000010
00001000
,
00000100
00010000
00000000
00001000
00010000
00000000
00001000
01000000
,
00001000
00000000
00100000
00000000
00110000
00000000
10000000
00010000
,
10000000
00010000
10000000
00000000
01000000
00000000
00100000
00000000
,
00101000
00001000
00011000
00000010
,
00000010
00000100
00000100
00000001
,
00000010
00000000
00001000
00000000
00010000
00000000
00000100
00001000
,
00000010
00000000
00000100
00000001
00000010
00000000
00000100
00010000
,
00001000
00010000
00011000
01000000
,
00100000
10000000
00000000
00100000
01000000
00000000
00010000
10000000
,
00010000
00000000
10010000
00000000
01100000
00000000
01000000
00001000
,
01000000
00000000
00010000
00100000
00010000
00000000
00001000
00000000
,
00001100
00000010
00000011
00001000
,
00001000
00000001
00000001
00002002
,
00000000
00000000
00003003
00000000
00000100
00000010
00001000
00000000
,
00000100
00010000
00000100
00000000
00010000
00000000
00000000
00000000
00001000
00000000
01000000
00000000
00000000
00000000
00010000
00000000
,
00100000
00000000
01000000
10000000
00100000
00000000
01000000
00010000
,
00100000
00000000
01000000
00010000
00001000
00010000
00001000
00000000
,
00011000
00000000
00000000
00000000
01000000
00000000
00010000
00000000
00100000
00000000
00000000
00000000
01000000
10000000
01000000
00000000
,
00010000
00000000
00001000
00010000
00000010
00000000
00001010
00000000
,
00000100
00000001
00000010
00000000
00000100
00001000
00000010
00000000
,
00000001
00000000
00000010
00001000
00000000
00000001
00000100
00000000
,
00001000
00010000
00001000
00000000
00011000
01010000
10000000
00010000
,
01000000
00000000
00100000
10000000
01000000
00000000
00010000
00001000
,
00000010
00000000
00000100
00001000
00000001
00000000
00000100
00000010
,
00000100
00000010
00000100
00000000
00000100
00000000
00001000
00010000
,
00001000
00000000
00022000
00033000
00100000
01000000
10000000
00000000
,
00010000
00000000
00010000
00000000
01000000
00100000
00010000
00000000
,
00100000
01000000
00010000
00000000
00100000
00001000
00010000
00001000
,
00010000
00000010
00001000
00000000
00000001
00000000
00001001
00000000
,
00000100
00001000
00010000
00000000
00001000
00010000
00100000
00000000
,
00200000
00300000
10000000
10010000
,
01000000
00010000
00001000
00000000
00010000
00001000
00000010
00000000
,
00000020
00000030
00000100
00001001
,
00000010
00000100
00001000
00000000
00001000
00010000
00100000
00000000
,
02000000
03000000
00100000
10010000
,
00100000
01000000
00010000
00000000
00010000
00000000
00001000
00000010
,
00000000
00000001
00000010
00000000
00002002
00000000
00000000
00000000
,
00003003
00000000
00000000
00000000
,
00000000
00000000
00000000
00000000
;

//---------------dance-double - ----------------
#NOTES:
     dance-double:
     :
     Hard:
     15:
     :
00000000
00000000
00000000
00000000
,
00000000
00000000
00000000
00000000
,
00000000
00000000
00000000
00000000
,
00000000
00000000
00000000
00000000
,
00000000
00000000
00000000
00000000
,
00000000
00000000
00000000
00000000
,
00000001
00001000
00000001
00001000
00000001
00000010
00000100
00000000
,
00001000
00000100
00010000
00000000
00001000
00010000
00001000
00000000
,
00100000
00000000
00000000
00000000
00100000
00000000
00000000
00000000
01000000
00000000
00000000
01000000
10000000
00000000
00010000
00000000
,
10000000
00000000
10000000
00000000
01000000
00100000
00010000
00000000
,
01000000
00000000
00010000
00000000
01000000
00000000
00001000
00000000
00010000
00001000
00010000
00001000
00010000
00000000
00000000
00000000
,
00000100
00001000
00000010
00000000
00000100
00000001
00000010
00000000
,
00000001
00000100
00000001
00001000
00000100
00001000
00000010
00010000
,
00001000
00100000
00010000
00100000
02000000
00000000
13000000
00000000
,
00100000
01000000
00100000
01000000
00010000
10000000
01000000
00100000
,
00010000
00000000
00110000
00000000
00001000
00010000
00001000
00000000
,
00000100
00000000
00000000
00000000
00000100
00000000
00000000
00000000
00000010
00000000
00000000
00000010
00001000
00000000
00000001
00000000
,
00000020
00000000
00000000
00000030
,
00000001
00000000
00000000
00001000
00000000
00000000
00000001
00000000
00000010
00000000
00000100
00000000
00001000
00000000
00000010
00000000
,
00000100
00000000
00000000
00001000
00000000
00000000
00010000
00000000
00001000
00000000
00001000
00000000
00010000
00000000
00000000
00001000
,
00000000
00000000
00100000
00000000
00010000
00000000
01000000
00000000
00100000
00000000
10000000
00000000
00010000
00000000
00000000
00100000
,
00000000
00000000
00010000
00000000
01000000
00000000
01000000
00000000
10000000
00000000
00000000
00010000
00000000
00000000
01000000
00000000
,
00100000
00000000
10000000
00000000
00010000
00000000
00100000
00000000
01000000
00000000
00000000
00010000
00000000
00000000
00001000
00000000
,
00010000
00010000
00001000
00001000
00010000
00000000
00000000
00000100
00000000
00000000
00001000
00000000
00000010
00000000
00001000
00000000
,
00000100
00000000
00000010
00000000
00000001
00000000
00000000
00000100
00000000
00000000
00000010
00000000
00000100
00000100
00000100
00000000
,
00000001
00000000
00000000
00001000
00000000
00000000
00000100
00000000
00000010
00000000
00000100
00000000
00010000
00000000
00001000
00000000
,
00010000
00000000
00000000
00100000
00000000
00000000
01000000
00000000
00100000
00000000
00100000
00000000
10000000
00000000
00000000
00010000
,
00000000
00000000
00100000
00000000
01000000
00000000
00100000
00000000
00001000
00000000
00010000
00000000
00000100
00000000
00000000
00001000
,
00000000
00000000
00000010
00000000
00000100
00000000
00000100
00000000
00001000
00000000
00000000
00000001
00000000
00000000
00000100
00000000
,
00000010
00000000
00001000
00000000
00000100
00000000
00010000
00000000
00001000
00000000
00000000
00100000
00000000
00000000
00010000
00000000
,
01000000
01000000
00100000
00100000
10000000
00000000
00000000
01000000
00000000
00000000
00100000
00000000
00010000
00000000
00100000
00000000
,
00001000
00000000
00010000
00000000
00000100
00000000
00000000
00001000
00000000
00000000
00000010
00000000
00000200
00000000
00000300
00000000
,
00001001
00000000
00000001
00000000
00000001
00000100
00000001
00000000
,
00000100
00000000
00000100
00000000
00000100
00001000
00000100
00000000
,
00011000
00000000
00010000
00000000
00010000
00001000
00010000
00000000
,
00100000
00000000
00100000
00000000
00100000
01000000
00100000
00000000
,
10000000
01000000
10000000
00000000
00100000
10000000
00100000
00000000
,
01000000
00010000
01000000
00000000
00001000
00010000
00001000
00000000
,
00010000
00000100
00010000
00000100
00001000
00000010
00001000
00000010
,
00002000
00000000
00000000
00003000
,
00000001
00000100
00000010
00000000
00001000
00000010
00000100
00000000
,
00001000
00010000
00001000
00000000
00011000
00000000
00100000
00010000
,
01000000
00000000
00010000
10000000
01000000
00000000
00100000
01000000
,
01100000
00000000
10000000
01000000
00100000
00000000
00010000
01000000
,
00001000
00000000
00010000
00000100
00001000
00000000
00001010
00000000
,
00000001
00000100
00001000
00000000
00000100
00000010
00001000
00000000
,
00000100
00010000
00000100
00010000
00001000
00010000
00001000
00000000
,
00100000
00010000
01000000
00010000
00100000
01000000
10000000
00000000
,
00100000
01000000
00010000
00100000
00001000
00010000
00001000
00010000
,
01000000
00100000
00001000
00010000
00000100
00001000
00000010
00000000
,
00000100
00000001
00001000
00000100
00000001
00000100
00001000
00000001
,
00000100
00000010
00001000
00000010
00010000
00001000
01000000
00000000
,
00100000
10000000
00100000
10000000
01000000
00010000
01000000
00010000
,
00001000
00001000
00001000
00000000
00010000
00010000
00010000
00000000
,
00022000
00000000
00000000
00000000
00033000
00000000
00000010
00010000
,
00000100
00000000
00001000
00000000
00000010
00000100
00000010
00000100
00000010
00000000
00000000
00000000
00000100
00000000
00001000
00000000
,
00010000
00000000
00100000
00000000
00100000
00000000
10000000
01000000
,
00010000
01000000
10000000
00010000
00100000
00001000
00010000
00000100
,
00001000
00000010
00000100
00000001
00000010
00000000
00000010
00001000
,
00010000
01000000
10000000
00010000
10000000
00000000
00100000
00000000
,
10010000
00000000
00100000
00010000
00001000
00000000
00010000
00000000
,
00010000
00000000
00000000
00000000
00001000
00000000
00000000
00001000
00000010
00000000
00000001
00000000
00001000
00000000
00000000
00000000
,
00001000
00000000
00000001
00000100
00000010
00001000
00000100
00000100
,
00000100
00000000
00000000
00000000
00010000
00001000
00010000
00001000
00010000
00000000
00000000
00000000
00100000
00000000
01000000
00100000
,
01000000
00000000
01100000
00000000
01100000
00000000
00001000
00010000
,
00100000
01000000
00100000
00010000
00001000
00010000
01000000
00010000
,
00001000
00000010
00000001
00000000
00001001
00000000
00000010
00000010
,
00000010
00000000
00000001
00001000
00000100
00010000
00001000
00000000
,
00011000
00000000
00010000
00100000
10000000
00000000
01000000
00000000
,
01000000
00000000
00000000
00000000
00010000
00000000
00000000
00010000
00001000
00000000
00010000
00000000
00022000
00000000
00000000
00000000
,
00000000
00000000
00033000
00000000
00010000
00000100
00001000
00000100
,
00000010
00000001
00000100
00001000
00000100
00000000
00000001
00000000
00001000
00000000
00000010
00000000
00001000
00000000
00000100
00000000
,
00010000
00001000
00100000
00001000
00010000
00100000
01000000
00100000
,
10000000
00010000
00100000
01000000
01000000
10000000
01000000
01000000
,
00100000
00000000
00000000
00000000
00001000
00000000
01000000
00000000
00010000
00000000
01000000
00000000
00100000
10000000
01000000
00010000
,
01000000
10000000
00010000
00100000
01000000
00000000
10010000
00000000
,
00100000
01000000
00001000
00010000
00001000
00100000
00001000
00010000
,
00000100
00001000
00000100
00000001
00000100
00001000
00000010
00000000
,
00000100
00000010
00010000
00001000
00011000
01100000
10000000
10000000
,
01000000
00200000
00000000
01000000
01300000
00000000
00100000
00001000
,
01000000
00010000
00100000
00001000
00010000
00000100
00001000
00001000
,
00000010
00000010
00000100
00000000
00001001
00000000
00000001
00000010
,
00000100
00001000
00020000
00030000
10000000
00100000
01000000
00010000
,
00001000
00000000
00001000
00000000
00000001
00000010
00001000
00000001
,
00000100
00001000
00000100
00010000
00002000
00000000
00000000
00000000
,
00000000
00000000
00000000
00000000
00003000
00000000
00000000
00000000
00001000
00000000
00000000
00010000
00000000
00000000
00100000
00000000
,
10000000
00010000
10000000
00000000
01000000
00000000
00010000
00000000
00001000
00000000
00010000
00000000
00100000
00000000
10000000
00000000
,
01000000
00000000
00010000
00000000
00001000
00000000
00000000
00000000
00010000
00000000
00000000
00001000
00000000
00000000
00000010
00000000
,
00000001
00001000
00000001
00000000
00000100
00000000
00001000
00000000
00010000
00000000
00001000
00000000
00000010
00000000
00000001
00000000
,
00000100
00000000
00000000
00000000
00000000
00000000
00000000
00000000
00001000
00000000
00000000
00010000
00000000
00000000
01000000
00000000
,
10000000
00100000
10000000
00000000
00100000
00000000
00010000
00000000
00001000
00000000
00010000
00000000
01000000
00000000
10000000
00000000
,
00100000
00000000
00010000
00000000
00001000
00000000
00000000
00000000
00010000
00000000
00000000
00001000
00000000
00000000
00000100
00000000
,
00000001
00000010
00000001
00000000
00000010
00000000
00001000
00000000
00010000
00000000
00100000
00000000
00100000
00000000
00010000
00000000
,
00001000
00000010
00001000
00000000
00022000
00000000
00000000
00000000
,
00033000
00000000
00000000
00000000
,
00000000
00000000
00000000
00000000
;
