#TITLE:THE LYCANTHROPE;
#SUBTITLE:;
#ARTIST:L.E.D.;
#TITLETRANSLIT:;
#SUBTITLETRANSLIT:;
#ARTISTTRANSLIT:;
#GENRE:;
#CREDIT:;
#BANNER:THE LYCANTHROPE-bn.png;
#BACKGROUND:THE LYCANTHROPE-bg.png;
#LYRICSPATH:;
#CDTITLE:;
#MUSIC:THE LYCANTHROPE.ogg;
#OFFSET:0.000000;
#SAMPLESTART:75.871002;
#SAMPLELENGTH:20.000000;
#SELECTABLE:YES;
#DISPLAYBPM:155.000000;
#BPMS:0.000000=155.000000
;
#STOPS:
;
#BGCHANGES:;
#KEYSOUNDS:;
#ATTACKS:;

//---------------dance-single - ----------------
#NOTES:
     dance-single:
     :
     Hard:
     15:
     0.771980,0.817727,0.362163,0.171551,0.771980,567.000000,529.000000,38.000000,18.000000,0.000000,0.000000,0.771980,0.817727,0.362163,0.171551,0.771980,567.000000,529.000000,38.000000,18.000000,0.000000,0.000000:
0000
0000
0000
0000
,
0000
0000
0000
0000
,
0000
0000
0000
0000
,
1000
1000
0000
0000
0000
0000
0000
0000
,
0000
0000
0000
0000
1000
1000
1000
1000
,
0010
1000
0100
0001
0100
1000
0001
0010
,
0100
1000
0010
0001
1000
0010
0001
0100
,
1000
0000
1000
0000
0001
0000
0001
0000
0011
0000
0000
0011
0000
0000
0011
0000
,
1100
0000
0000
1100
0000
0000
1100
0000
1000
0010
1000
0010
0100
0001
0100
0001
,
0010
1000
0100
0010
0001
0100
0001
1000
,
0100
0000
0010
0001
0000
0001
1000
0000
0010
0000
0010
0000
0100
0000
0001
0000
,
0100
0000
0010
1000
0000
1000
0001
0000
0020
0000
0000
0230
0000
0000
1300
0000
,
1010
0000
0000
1010
0000
0000
1010
0000
0001
0000
1000
0100
0000
1000
0100
0000
,
0010
0000
0001
0000
0100
0000
0001
0000
1000
0000
0100
0010
0000
0010
0001
0000
,
0100
0000
0010
1000
0000
1000
0010
0000
0100
0000
0001
0000
1000
0000
0001
0000
,
0010
0000
0100
1000
0000
1000
0010
0000
0200
0000
0000
0302
0000
0000
0013
0000
,
1001
0000
0000
1001
0000
0000
1001
0000
0110
0000
0000
0110
0000
0000
0110
0000
,
1000
0000
0000
0010
0100
0000
0001
0000
0001
0000
0000
1000
0100
0000
0010
0000
,
0010
0000
0001
1000
0000
0010
0100
0000
0001
0000
0001
0000
1000
0100
0000
1000
,
0010
0000
1000
0100
0000
0100
0010
0000
0001
0000
1000
0001
0000
0001
1000
0000
,
0101
0000
0000
0101
0000
0000
0101
0000
0001
0010
0001
0000
1000
0010
1000
0000
,
0001
0000
0000
0010
0100
0000
1000
0000
1000
0000
0000
0010
0001
0000
0100
0000
,
0100
0000
0010
1000
0000
1000
0010
0000
0100
0000
0001
0000
0010
0001
0000
0100
,
0001
0000
0000
1000
0001
0000
0100
0000
0010
0000
1000
0100
0000
1000
0010
0000
,
0110
0000
0000
0110
0000
0000
0110
0000
1000
0100
1000
0000
0001
0100
0001
0000
,
0010
0000
0001
1000
0000
1000
0100
0000
0002
0000
0000
2003
0000
0000
3010
0100
,
0010
0000
2000
0000
0000
3001
0000
0000
0011
0000
0000
0110
0000
0000
1000
0001
,
0100
0000
0010
1000
0000
1000
0001
0000
0020
0000
0000
0032
0000
0000
0103
0000
,
1000
0000
2100
0000
0000
0001
0000
0000
0010
0000
0000
0001
0000
0000
3100
0010
,
0001
0000
1000
0010
0000
1000
0001
0000
0020
0000
0000
0230
0000
0000
1300
0000
,
0001
0000
0101
0000
0000
1100
0000
0000
0101
0000
0000
1100
0000
0000
1000
0100
,
0010
0000
0001
1000
0000
0100
0010
0000
0002
0000
0000
0203
0000
0000
0310
0000
,
1000
0000
1000
0000
0001
0000
0001
0000
0100
0010
0100
0010
0100
0010
0000
0000
,
1000
0000
0100
0010
0000
0010
0001
0000
1001
0000
0000
1001
0000
0000
1000
0001
,
0000
0000
0010
0000
0010
0001
0000
0001
1000
0000
1000
0100
0000
0000
1000
0001
,
0100
0000
0010
1000
0000
1000
0001
0000
0101
0000
0000
0101
0000
0000
0100
0010
,
0000
0000
1000
0100
0000
0010
0001
0000
0100
0001
0100
0000
0010
1000
0010
0000
,
0100
0000
0001
0010
0000
0010
0100
0000
1100
0000
0000
1100
0000
0000
1000
0001
,
0000
0000
0100
0000
0100
0001
0000
0001
0010
0000
0010
0100
0000
0000
1000
0001
,
0100
0100
0010
0010
1000
1000
0001
0001
,
0010
0001
0010
0000
0001
0100
0001
0000
1000
0010
1000
0000
0100
1000
0100
0000
,
0210
1000
0010
1000
,
0001
0010
0001
1300
,
1020
0100
0001
0100
,
1000
0001
1000
0130
,
0010
1000
0100
0001
1000
0010
0001
0100
,
0010
0100
1000
0001
0010
1000
0100
0001
,
0010
0100
1000
0100
0001
1000
0001
0010
,
1000
0100
0010
0001
0010
1000
0100
0001
,
1000
0000
0010
0100
0001
0100
0000
0010
0000
0010
0000
0010
0000
0000
1000
0001
,
1000
0000
0001
0010
0100
0000
1000
0000
0001
0000
0100
0010
0000
0010
1000
0000
,
0100
0000
0010
0001
0100
0000
1000
0010
0000
1000
0001
0000
0001
0000
0100
0000
,
0010
0000
1000
0000
0010
0000
0100
0000
0001
0010
0001
0010
0100
1000
0001
1000
,
0010
0000
0100
0000
0001
0000
0010
0000
0100
1000
0000
1000
0000
0000
0001
1000
,
0000
0010
0000
1001
0000
0000
0100
0001
0010
0001
1000
0000
0100
1000
0010
0000
,
0100
0000
0001
0000
0010
0000
0001
0000
1000
0000
0100
0000
1000
0001
0010
0100
,
0010
0000
0001
0000
0100
0000
0010
0000
1000
0000
0100
0000
1000
0001
1000
0001
,
0010
0000
0001
0100
0010
1000
0000
0100
0000
0100
0000
0100
0000
0000
1000
0001
,
0010
0000
0001
1000
0000
1000
0001
0000
0100
0000
0010
1000
0000
0001
0000
0011
,
0000
1000
0000
1000
0000
0001
0100
0010
0000
1000
0000
0010
0000
0000
0100
0001
,
0000
0000
0010
0001
0000
0001
1000
0000
0010
0100
0010
0100
0001
1000
0100
1000
,
0001
0001
0100
0100
0010
0010
1000
1000
,
0100
0100
0010
0010
0001
0001
1000
1000
,
0001
0010
0001
0000
1000
0010
1000
0000
0001
0100
0001
0000
1000
0100
1000
0000
,
0010
0100
0001
0000
0010
0100
1000
0000
0001
1000
0100
0000
1000
0010
0100
0002
,
0020
0000
0000
0000
,
0033
0000
0000
0000
;

//---------------dance-single - ----------------
#NOTES:
     dance-single:
     :
     Medium:
     12:
     0.536438,0.566119,0.028592,0.228735,0.343102,394.000000,391.000000,3.000000,24.000000,0.000000,0.000000,0.536438,0.566119,0.028592,0.228735,0.343102,394.000000,391.000000,3.000000,24.000000,0.000000,0.000000:
0000
0000
0000
0000
,
0000
0000
0000
0000
,
0000
0000
0000
0000
,
1000
0001
0000
0000
0000
0000
0000
0000
,
0000
0000
0000
0000
1000
0001
1000
0001
,
0010
0001
0100
0000
0010
1000
0100
0000
,
1000
0001
0010
0000
0001
1000
0100
0000
,
1000
0000
0010
0000
1000
0000
0010
0000
0100
0000
0000
0100
0000
0000
0100
0000
,
0001
0000
0000
0001
0000
0000
0001
0000
0010
0000
0100
0000
1000
0000
0001
0000
,
0100
0000
0000
0010
0000
0000
1000
0000
0001
0000
0000
1000
0000
0000
0100
0000
,
0010
0000
0000
0010
0000
0000
0010
0000
0001
0000
1000
0000
0000
0001
0000
0000
,
1000
0000
0000
0010
0000
0000
0100
0000
0001
0000
0000
0010
0000
0000
0001
0000
,
0100
0000
0000
0010
0000
0000
1000
0000
0001
0000
0000
0100
0000
0000
0010
0000
,
1000
0000
0000
0000
0001
0000
0010
0000
0001
0000
0000
0100
0000
0000
0010
0000
,
1000
0000
0000
0001
0000
0000
1000
0000
0100
0000
0010
0000
0000
0001
0000
0000
,
0100
0000
0010
1000
0100
0000
1000
0001
,
0010
0000
0000
0010
0000
0000
0010
0000
0100
0000
0000
0100
0000
0000
0100
0000
,
1000
0000
0000
0001
0000
0000
1000
0000
0010
0000
0000
0100
0000
0000
0001
0000
,
0100
0000
0000
0010
0000
0000
0100
0000
0001
0000
1000
0000
0000
1000
0000
0010
,
0100
0000
0000
0001
0000
0000
1000
0000
0001
0000
0000
0010
0000
0000
0100
0000
,
1000
0000
0000
1000
0000
0000
1000
0000
0010
0000
0001
0000
0010
0000
0100
0000
,
0001
0000
0000
1000
0000
0000
0100
0000
1000
0000
0000
0001
0000
0000
0010
0000
,
0100
0000
0000
0100
0000
0000
0100
0000
1000
0000
0001
0000
0000
1000
0000
0010
,
0100
0000
0000
0001
0000
0000
0010
0000
0001
0000
0000
1000
0000
0000
0010
0000
,
1000
0100
0010
0001
1000
0010
0100
0001
,
0100
0000
0010
0000
0000
1000
0000
0001
0000
0000
0010
0000
0000
0100
0000
1000
,
0010
0000
0200
0000
0000
0302
0000
0000
2003
0000
0000
3002
0000
0000
0103
0000
,
0010
0000
1000
0000
0000
0100
0000
0010
0000
0000
0001
0000
0000
1000
0000
0001
,
0010
0000
0200
0000
0000
0320
0000
0000
0032
0000
0000
2003
0000
0000
3100
0000
,
1000
0000
0001
0000
0010
0100
0000
0200
0000
0000
2300
0000
0000
3010
0000
0100
,
0001
0000
0020
0000
0000
0032
0000
0000
0203
0000
0000
0320
0000
0000
1030
0001
,
1000
0000
0001
0000
1000
0100
0000
0200
0000
0000
0320
0000
0000
0031
0000
0010
,
0100
0010
0001
0100
0010
1000
0001
1000
,
0010
0000
0100
0000
0010
0000
1000
0000
0001
0000
0000
0001
0000
0000
1000
0100
,
0000
0000
1000
0000
0001
0000
0100
0000
0010
0000
0000
0010
0000
0000
1000
0001
,
1000
0000
0100
0000
0010
0000
0001
0000
0100
0000
0000
0010
0000
0000
1000
0001
,
0000
0010
0001
0100
0001
0010
0100
1000
,
0001
0000
0100
0000
0000
0010
0000
0000
0100
0000
0000
0010
0000
0000
1000
0001
,
0000
0000
0010
0000
0000
0001
0000
1000
0001
0000
0100
0000
0010
0000
1000
0000
,
0100
1000
0001
0000
0100
0010
1000
0000
,
0001
0010
0001
0100
0010
1000
0100
1000
,
2002
0000
0000
0003
,
0020
0000
0000
3000
,
0200
0000
0000
0030
,
0002
0000
0000
0303
,
0110
0001
1000
0100
0000
1000
0010
0100
,
0000
0001
0010
1000
0000
0100
0010
0001
,
0000
1000
0001
0010
0000
0001
0100
0010
,
1000
0001
1000
0001
0100
0010
0100
0010
,
1000
0100
0001
0000
0010
0100
1000
0001
,
0000
0100
0010
0000
1000
0001
1000
0100
,
0010
0001
0100
0010
1000
0100
1000
0000
,
0001
0100
0010
1000
0100
0001
0010
0100
,
2000
0000
0000
0010
0000
0000
3010
0000
0100
0000
0001
0000
1000
0000
0100
0000
,
0000
1000
0001
0000
0010
0001
0100
0010
,
0100
0000
0000
0001
0000
0000
0010
0000
0001
0000
0000
0100
0000
0000
1000
0000
,
0001
0000
0000
1000
0000
0000
0010
0000
1000
0000
0100
0000
0010
0000
0001
0000
,
0100
0000
0000
0010
0000
0000
1000
0000
0001
0000
0010
0000
1000
0000
0100
0000
,
0010
0100
1000
0000
0001
0010
0001
1000
,
0100
0001
0010
0000
0001
1000
0001
0100
,
0010
1000
0001
0000
0010
0001
0100
1000
,
0001
0000
0000
0001
0000
0000
0001
0000
1000
0000
0010
0000
1000
0000
0100
0000
,
1000
0000
0000
1000
0000
0000
1000
0000
0010
0000
0000
0010
0000
0000
0010
0000
,
0100
0001
0010
0100
1000
0010
1000
0001
,
0010
1000
0010
0100
0010
0001
0100
0010
,
2020
0000
0000
0000
,
3030
0000
0000
0000
;

//---------------dance-single - ----------------
#NOTES:
     dance-single:
     :
     Easy:
     8:
     0.393478,0.440314,0.228735,0.057184,0.019061,289.000000,265.000000,24.000000,6.000000,0.000000,0.000000,0.393478,0.440314,0.228735,0.057184,0.019061,289.000000,265.000000,24.000000,6.000000,0.000000,0.000000:
0000
0000
0000
0000
,
0000
0000
0000
0000
,
0000
0000
0000
0000
,
1000
0001
0000
0000
0000
0000
0000
0000
,
0000
0000
1000
0001
,
0010
0001
0100
0010
,
1000
0001
0010
0100
,
1000
0010
0110
0001
,
1001
0100
1001
0110
,
1000
0100
0001
0010
,
0001
1000
0010
0010
,
0010
1000
0100
0001
,
0010
0001
0100
0100
,
0110
0001
0100
1000
,
0010
1000
0100
0001
,
1001
0001
0010
1000
,
1100
1100
0101
0101
,
0010
1000
0100
0001
,
0010
0000
0100
0000
1000
0001
0000
1000
,
0001
0100
0010
1000
,
0100
0000
0001
0000
0010
0100
0010
0100
,
1000
0010
0001
0100
,
0001
0000
0010
0000
1000
0100
0000
1000
,
0100
0010
0001
0100
,
1010
0100
0011
0100
,
1001
0000
0010
0000
0001
0000
0100
1000
,
0010
0000
0100
0000
0001
0000
1000
0010
,
1000
0000
0100
0000
0001
0000
0010
0100
,
0010
0000
0001
0000
0100
0000
1000
0001
,
1000
0000
0100
0000
0010
0000
0001
0100
,
0010
0000
1000
0000
0001
0000
1000
0001
,
0010
0000
0001
0000
0010
0000
1000
0100
,
0010
0000
0001
0000
1000
0001
0100
0000
,
0010
0000
0000
0000
0101
0000
0000
0000
1000
0000
0000
1000
0000
0000
1000
0000
,
0000
0000
0000
0000
0010
0000
0000
0000
0100
0000
0000
0100
0000
0000
0100
0000
,
0000
0000
0000
0000
0001
0000
0000
0000
0010
0000
0000
0010
0000
0000
0010
0000
,
0000
0000
0000
0000
1000
0000
0000
0000
0001
0000
0000
0001
0000
0000
0001
0000
,
1000
0001
0010
0100
,
0010
0001
0100
1000
,
0010
1000
0100
0001
,
1000
1000
0001
0001
,
2002
0000
0000
0000
,
0000
0000
0000
3003
,
0220
0000
0000
0000
,
0000
0000
0000
0330
,
0001
0011
1000
1010
,
0001
0101
1000
1100
,
0010
0010
1000
1000
,
0100
0100
0001
0001
,
1000
0000
0010
0000
0100
0001
0010
0001
,
0100
0000
0010
0000
1000
0001
0010
0001
,
1000
0000
0100
0000
1000
0010
0001
0000
,
0100
0010
1000
0000
0100
0010
0001
0000
,
1001
0000
0010
0000
1000
0100
1000
0000
,
0001
0000
0010
0000
0001
1000
0010
0100
,
0010
1000
0100
0010
,
0001
0000
0100
0000
0001
0010
0100
1000
,
0001
0000
0100
0000
0010
1000
0100
1000
,
0010
0000
0100
0000
0001
0010
0100
0010
,
0001
0000
0100
0000
0010
0100
0001
0000
,
1000
0100
0001
0000
0010
0100
1000
0000
,
1100
0000
0001
0000
1000
0010
0100
0000
,
0101
0000
0010
0000
1000
0100
0001
0000
,
0010
0001
0100
1000
,
0010
0100
0001
1000
,
0202
0000
0000
0000
,
0303
0000
0000
0000
;

//---------------dance-single - ----------------
#NOTES:
     dance-single:
     :
     Beginner:
     5:
     0.205589,0.247796,0.028592,0.000000,0.000000,151.000000,148.000000,3.000000,0.000000,0.000000,0.000000,0.205589,0.247796,0.028592,0.000000,0.000000,151.000000,148.000000,3.000000,0.000000,0.000000,0.000000:
0000
0000
0000
0000
,
0000
0000
0000
0000
,
0000
0000
0000
0000
,
1000
0000
0000
0000
,
0000
0000
1000
1000
,
1000
0000
0010
0000
,
0100
0000
0001
0000
,
0010
0010
0010
0000
,
0001
0000
0100
0000
,
1000
0000
0001
0000
,
1000
0000
0010
0000
,
0100
0000
0001
0000
,
0010
0000
0100
0000
,
1000
0000
1000
0000
,
0010
0000
1000
0000
,
0100
0000
0010
0000
,
0001
0001
0001
0001
,
0001
0000
1000
0000
,
0100
0100
0100
0000
,
0010
0000
0001
0000
,
1000
1000
1000
1000
,
1000
0000
0001
0000
,
0010
0010
0010
0000
,
0001
0001
0001
0000
,
0100
0100
0100
0100
,
0000
1000
1000
1000
,
0000
0010
0010
0010
,
0000
0100
0100
0100
,
0000
0001
0001
0001
,
0000
0010
0010
0000
,
0001
0000
1000
0000
,
0001
0000
0100
0000
,
0010
0010
0010
0010
,
0010
0000
1000
1000
,
1000
0000
0100
0100
,
0100
0000
0010
0010
,
0010
0000
0001
0001
,
0001
0000
0001
0000
,
1000
0000
1000
0000
,
0010
0010
0010
0000
,
1000
1000
1000
0000
,
1001
0000
0000
0000
,
0000
0000
0000
0000
,
0010
0000
0000
0000
,
0000
0000
0000
0000
,
1001
0000
1000
0000
,
0001
0000
1000
0000
,
0100
0000
0100
0000
,
0001
0001
0001
0000
,
1000
1000
1000
1000
,
0000
0010
0010
0010
,
0000
0100
0000
0010
,
0000
1000
0000
0001
,
0001
0000
0100
0100
,
0000
0010
0010
0000
,
1000
0000
0100
0000
,
0001
0000
0010
0000
,
0100
0100
0100
0100
,
0000
1000
1000
1000
,
0000
0001
0000
0100
,
0000
0010
0000
1000
,
1000
0000
0001
0000
,
1000
0000
0010
0000
,
0100
0000
0001
0000
,
0010
0000
0100
0000
,
0110
0000
0000
0000
;

//---------------dance-single - ----------------
#NOTES:
     dance-single:
     :
     Challenge:
     17:
     1.089213,1.037884,0.295449,0.076245,1.639266,800.000000,769.000000,31.000000,8.000000,0.000000,0.000000,1.089213,1.037884,0.295449,0.076245,1.639266,800.000000,769.000000,31.000000,8.000000,0.000000,0.000000:
// measure 0
0000
0000
0000
0000
,  // measure 1
0000
0000
0000
0000
,  // measure 2
0000
0000
0000
0000
,  // measure 3
1000
1000
0010
0000
0100
0001
0000
0001
,  // measure 4
0010
0000
0000
0000
0010
0000
0100
0000
1000
0000
1000
0000
1000
0001
1000
0001
,  // measure 5
0100
0000
0010
0000
1000
0000
0100
0000
0001
0000
0010
0000
1000
0100
1000
0000
,  // measure 6
0010
0000
0100
0000
0001
0000
0010
0000
1000
0100
0010
0001
1000
0010
0100
0001
,  // measure 7
0010
0000
0010
0000
0100
0000
0100
0000
1100
0000
0000
0101
0000
0000
1000
0001
,  // measure 8
0100
0000
0000
0110
0000
0000
1001
0000
0001
1000
0100
0010
1000
0100
0001
0010
,  // measure 9
0100
0000
1000
0010
0100
0001
0010
0000
0100
0000
1000
0001
0000
0100
0010
0000
,  // measure 10
1000
0000
0001
0010
0000
0010
0100
0000
2100
0000
3002
0000
0103
0010
0000
1000
,  // measure 11
0100
0000
0010
0001
0000
0100
0010
0000
1000
0000
0100
1000
0000
1000
0001
0000
,  // measure 12
0010
0001
1000
0010
0000
0010
0100
0000
0001
1000
0100
0010
0000
0001
0100
1000
,  // measure 13
0010
0100
0010
1000
0000
0001
0010
0000
0100
0000
1000
0010
0000
1000
0001
0000
,  // measure 14
0010
0001
1000
0010
0000
1000
0100
0000
0011
0000
0001
0100
0010
1000
0100
0010
,  // measure 15
0001
0100
0010
1000
0100
1000
0001
0000
0010
0001
0100
0001
0010
0100
1000
0001
,  // measure 16
1000
0000
0000
1010
0000
0000
0101
0000
0010
0100
0000
1001
0000
0001
0010
0100
,  // measure 17
1000
0000
0001
0010
0000
0010
0001
0000
0100
0000
0010
1000
0000
0010
1000
0001
,  // measure 18
0100
0000
0010
1000
0000
1000
0001
0000
0110
0000
1000
0100
0010
0001
0010
0100
,  // measure 19
1000
0010
1000
0001
0010
0100
1000
0000
0010
0100
0001
1000
0000
0001
0010
0000
,  // measure 20
0101
0000
1000
0010
0000
0100
0001
0000
0010
1000
0100
0001
1000
0001
0100
0010
,  // measure 21
0100
0001
0010
0001
0000
0100
1000
0000
0010
1000
0100
0010
0000
0001
1000
0000
,  // measure 22
0010
1000
0100
0001
0000
1000
0010
0000
1100
0000
1000
0001
0010
0100
1000
0010
,  // measure 23
0100
0001
0010
0100
0000
0100
1000
0000
0001
1000
0010
1000
0000
0001
0010
0000
,  // measure 24
0100
1000
0100
1000
0000
0010
0100
0001
0010
1000
0001
1000
0100
0001
0010
0100
,  // measure 25
0010
0001
0100
0001
1000
0100
0000
0020
0000
0000
0031
1000
0000
0010
0100
0010
,  // measure 26
1000
0000
0100
0010
0001
0010
0100
0000
1000
0001
1000
0010
0000
0010
0100
0001
,  // measure 27
0010
0100
0010
0001
0100
0010
0000
2000
0000
0000
3100
1000
0000
1000
0001
1000
,  // measure 28
0010
0000
0100
0001
0010
0100
1000
0000
0010
0100
0010
1000
0000
0100
0010
0001
,  // measure 29
1000
0100
0010
0001
0100
0010
0100
0002
0000
0000
1003
0001
0000
1000
0100
0010
,  // measure 30
0001
0100
0010
1000
0100
0010
0000
0010
0001
0000
0100
0010
1000
0100
1000
0001
,  // measure 31
0010
0100
1000
0010
1000
0100
0001
0020
0000
0000
0130
1000
0000
1000
0001
0100
,  // measure 32
0010
0000
1001
0000
0010
0000
1001
0000
1000
0100
0010
0001
1000
0010
0100
0001
,  // measure 33
1000
0000
0010
0100
0001
0010
0100
1000
0010
0100
0010
1000
0000
0001
0010
0001
,  // measure 34
0100
0000
0010
1000
0100
0010
0000
0001
1000
0001
1000
0100
0010
0001
0100
1000
,  // measure 35
0001
0000
1000
0100
0010
0001
0100
0010
1000
0000
0100
1000
0000
1000
0010
0100
,  // measure 36
0001
0010
0100
1000
0010
0100
0000
0001
1000
0001
0010
0100
0001
0010
1000
0100
,  // measure 37
0001
0000
0010
0001
0100
0010
1000
0100
0010
0000
0001
1000
0000
0010
1000
0001
,  // measure 38
0100
0000
0010
1000
0100
0010
0001
0100
0010
0100
0010
1000
0100
0010
0001
1000
,  // measure 39
0100
1100
0001
0011
1000
1010
0010
0101
,  // measure 40
0001
0100
0010
1000
0100
0010
0001
0100
0001
1000
0010
1000
0010
1000
0100
0001
,  // measure 41
0010
0100
0010
0100
0010
0100
0010
0100
,  // measure 42
1000
0001
1000
0001
1000
0001
1000
0001
,  // measure 43
0100
0010
0100
0010
0100
0010
0100
0010
,  // measure 44
0001
1000
0001
1000
0001
1000
0001
1000
,  // measure 45
0010
0001
0010
0100
0010
1000
0010
0000
0100
0001
0100
0010
0100
1000
0100
0000
,  // measure 46
0010
1000
0010
0100
0010
0001
0010
0000
0100
1000
0100
0010
0100
0001
0100
0000
,  // measure 47
0010
0100
1000
0100
0001
0100
1000
0100
0010
0001
0010
1000
0001
1000
0001
0010
,  // measure 48
1000
0001
0100
1000
0001
0100
0010
0100
0010
1000
0001
1000
0010
0001
0100
0010
,  // measure 49
1000
0100
0010
0001
1000
0001
0000
0011
0000
0110
0000
1100
0000
1000
0010
0100
,  // measure 50
0001
0000
0010
0100
0000
0100
1000
0001
0100
0010
1000
0001
0000
1000
0100
0010
,  // measure 51
0100
1000
0100
0010
0001
0000
0100
0001
0010
0100
1000
0010
0100
0000
0001
1000
,  // measure 52
0010
1000
0100
0010
0001
0000
1000
0001
0100
1000
0100
0010
1000
0100
0010
0001
,  // measure 53
0100
0000
0010
1000
0100
1000
0001
0000
0010
0100
0000
1001
0000
0010
1000
0001
,  // measure 54
0010
0001
0000
1000
0100
0001
0010
0100
1000
0001
0010
0001
0100
0010
1000
0100
,  // measure 55
0001
0010
0100
1000
0000
0001
1000
0001
0000
0100
0000
0010
1000
0100
0001
0100
,  // measure 56
1000
0010
0000
0100
0000
0001
0010
0100
1000
0001
0010
0100
0010
0001
0100
1000
,  // measure 57
0010
0100
0010
1000
0100
0010
0001
1000
0000
1010
0000
0101
0000
0010
0100
1000
,  // measure 58
0001
0100
0010
1000
0000
0100
1000
0001
0010
0100
0010
0001
0000
1001
0000
1000
,  // measure 59
0100
0010
0001
1000
0010
0000
0100
0001
0000
1000
0001
0010
0100
0000
1000
0010
,  // measure 60
0100
0001
0010
0100
0000
1000
0010
0001
0100
0001
1000
0010
1000
0001
0010
0100
,  // measure 61
1000
0000
1010
0000
1010
0000
1010
0000
0010
0100
0010
0100
0001
0010
0100
1000
,  // measure 62
0001
0000
0011
0000
0011
0000
0011
0000
1000
0010
0001
0100
0010
1000
0001
1000
,  // measure 63
0100
0010
1000
0001
0010
1000
0010
0100
0010
0100
0001
1000
0001
1000
0100
0001
,  // measure 64
0010
1000
0010
0001
0010
0100
1000
0001
1000
0001
0100
1000
0001
0100
0010
0200
,  // measure 65
0002
0000
0000
0000
,  // measure 66
0303
0000
0000
0000
;
