#TITLE:THE EARTH LIGHT;
#ARTIST:L.E.D. LIGHT;
#BANNER:THE EARTH LIGHT.png;
#BACKGROUND:THE EARTH LIGHT-bg.png;
#JACKET:THE EARTH LIGHT-jacket.png;
#MUSIC:THE EARTH LIGHT.ogg;
#SAMPLESTART:3.31;
#SAMPLELENGTH:20;
#DISPLAYBPM:145;
#BPMS:0=145.5,4=145.04;
#BGCHANGES:;

//---------------dance-single - ----------------
#NOTES:
     dance-single:
     :
     Beginner:
     3:
     :
0000
0000
0000
0000
,
0000
0000
0000
0000
,
0000
0000
0000
0000
,
0000
0000
0000
0000
,
0000
0000
0000
0000
,
0000
0000
0000
0000
,
1001
0000
0000
0000
,
0010
0000
0000
0000
,
0100
0000
0000
0000
,
0110
0000
0000
0000
,
1001
0000
0001
0000
,
1000
0000
0010
0000
,
0000
0010
0000
0010
,
0000
0100
0000
0100
,
0100
0000
0001
0000
,
0010
0000
0001
0000
,
0000
1000
1000
0000
,
0110
0000
0001
0001
,
0001
0000
0000
0000
,
0000
0000
0000
0000
,
1000
0000
0000
0000
,
0010
0000
0000
0000
,
1000
0000
0000
0000
,
0001
0000
0000
0000
,
0100
0000
0000
0000
,
0010
0000
0000
0000
,
1000
0000
1000
0000
,
0001
0000
0001
0000
,
1000
0000
0010
0000
,
0100
0000
0100
0000
,
0000
0001
0001
0001
,
0000
0010
0010
0010
,
0000
0100
0100
0100
,
0000
1000
1000
1000
,
1000
0000
0010
0000
,
0000
0100
0100
0100
,
0000
0010
0010
0010
,
0000
0100
0100
0000
,
1001
0000
0000
0000
,
0000
0010
0000
0000
,
0110
0000
0000
0000
,
0001
0001
0000
1000
,
2000
0000
3000
0000
,
0002
0000
0003
0000
,
0100
0100
0000
0000
,
0010
0010
0000
0000
,
1001
0000
0000
0000
,
0000
0000
0000
0000
,
0110
0000
0001
0001
,
0000
0100
0100
0100
,
0000
1000
1000
1000
,
0000
0010
0010
0010
,
0010
0000
1000
0000
,
0001
0000
1000
0000
,
0010
0000
1000
0000
,
0100
0100
0100
0000
,
0010
0000
0000
0000
;

//---------------dance-single - ----------------
#NOTES:
     dance-single:
     :
     Easy:
     7:
     :
0000
0000
0000
0000
,
0000
0000
0000
0000
,
0000
0000
0000
0000
,
0000
0000
0000
0000
,
0000
0000
0000
0000
,
0000
0000
0000
0000
,
0000
0001
0000
0001
,
0000
1000
0000
1000
,
0000
0010
0010
0010
,
0100
0100
0100
0100
,
0000
0010
0000
0010
,
0000
0001
0000
0001
,
0000
1000
0000
1000
,
0000
0100
0000
0100
,
0000
0010
0010
0010
,
0001
0001
1001
0001
,
0000
0100
0100
0100
,
1000
1000
1001
1000
,
1001
0000
0000
0000
,
0000
0000
0000
0000
0000
0000
0000
0010
,
0100
0000
0000
0000
,
1000
1000
1000
1000
,
0001
0100
1000
0100
,
1001
0010
0001
1000
,
1001
0010
0100
0010
,
0001
1000
0010
0001
,
1001
0110
0001
0010
,
1001
1000
0100
1000
,
0010
1000
0100
1000
,
0110
1000
0100
0001
,
0010
0100
1100
0001
,
0010
0100
0101
1000
,
0001
1001
1000
1000
,
0100
0110
0010
0010
,
0010
1000
0100
0010
,
0010
0010
1010
0001
,
1001
0100
0101
1000
,
0100
0001
0100
0010
,
0010
0000
0000
0010
0000
0000
0010
0000
0000
0000
0000
0000
0000
0000
0000
0000
,
1000
0100
1000
0000
0001
0100
0001
0000
,
0001
0000
0000
0001
0000
0000
0001
0000
0000
0000
0000
0000
0000
0000
0000
0000
,
1000
0100
1000
0000
0001
0100
0001
0000
,
1000
0000
0000
1000
0000
0000
1000
0000
0000
0000
0000
0000
0000
0000
0000
0000
,
0010
0000
0000
0010
0000
0000
0010
0000
0000
0000
0000
0000
0000
0000
0000
0000
,
0001
0000
0000
0001
0000
0000
0001
0000
0000
0000
0000
0000
0000
0000
0000
0000
,
1000
0100
1000
0000
0001
0100
0001
0000
,
0100
0000
0000
0100
0000
0000
0100
0000
0000
0000
0000
0000
0000
0000
0000
0000
,
0000
0000
0000
0000
,
0001
0000
0100
0000
0001
0100
1000
0000
,
0010
1000
0100
0000
1000
0000
0100
0000
,
1000
0000
0100
0000
1000
0100
0001
0000
,
1000
0100
0001
0000
0100
0000
0001
0000
,
0100
0000
1000
0000
0001
0100
1000
0000
,
0010
1000
0100
0000
0010
0000
1000
0000
,
0100
0000
0001
0000
1000
0100
0001
0000
,
1000
1001
1000
1000
,
1000
0000
0000
0000
;

//---------------dance-single - ----------------
#NOTES:
     dance-single:
     :
     Medium:
     9:
     :
0000
0000
0000
0000
,
0000
0000
0000
0000
,
0000
0000
0000
0000
,
0000
0000
0000
0000
,
0000
0000
0000
0000
,
0000
0000
0000
0000
,
0000
0001
0000
0001
,
0000
1000
0000
1000
,
0000
0010
0010
0010
,
0100
0100
0100
0100
,
0000
0010
0000
0010
,
1001
0010
1001
0010
,
0000
1000
0000
1000
,
0101
1000
0101
1000
,
0010
0010
0010
0010
,
1001
0100
0100
0100
,
0101
0101
1100
0101
,
0100
0100
1010
0100
,
1001
0000
0000
0000
,
0000
0000
0000
0000
0000
0000
0000
0010
,
0100
0000
0000
0000
,
1000
1000
1000
1000
,
0001
0000
0100
0000
0010
1000
0100
0000
,
1001
0000
0010
0000
0001
0100
1000
0000
,
0101
0000
0010
0000
0100
1000
0010
0000
,
0001
0000
1000
0000
0010
0100
0001
0000
,
1001
0000
0110
0000
0001
1000
0010
0000
,
0001
0000
1000
0000
0001
1000
0100
0000
,
0101
0000
1000
0000
0001
0010
1000
0000
,
0011
0000
1000
0000
0010
0100
0001
0000
,
0010
0001
0100
0000
0100
0000
0100
0000
,
0010
1000
0100
0000
0100
0000
0100
0000
,
0001
0100
1000
0000
1000
0000
1000
0000
,
0100
0001
0010
0000
0010
0000
0010
0000
,
0010
0001
1000
0000
0100
0000
1100
0000
,
0010
0100
0010
0000
1010
0000
0001
0000
,
0100
1000
0010
0000
1000
0000
0110
0000
,
0010
0100
0001
0000
0110
0000
0001
0000
,
0010
0000
0000
0010
0000
0000
0010
0000
0000
0000
0000
0000
0000
0000
0000
0000
,
1000
0100
1000
0001
0100
0001
1000
0000
,
0001
0000
0000
0001
0000
0000
0001
0000
0000
0000
0000
0000
0000
0000
0000
0000
,
1000
0100
1000
0001
0100
0001
1000
0000
,
1000
0000
0000
1000
0000
0000
1000
0000
0000
0000
0000
0000
0000
0000
0000
0000
,
0010
0000
0000
0010
0000
0000
0010
0000
0000
0000
0000
0000
0000
0000
0000
0000
,
0001
0000
0000
0001
0000
0000
0001
0000
0000
0000
0000
0000
0000
0000
0000
0000
,
1000
0100
1000
0001
0100
0001
1000
0000
,
0100
0000
0000
0100
0000
0000
0100
0000
0000
0000
0000
0000
0000
0000
0000
0000
,
0000
0000
0000
0000
,
0001
0000
0110
0000
0001
0100
1000
0000
,
0010
1000
0100
0000
0100
0000
0001
0000
,
0010
0000
0101
0000
1000
0100
0001
0000
,
1000
0100
0001
0000
1000
0000
1000
0000
,
0001
0000
0110
0000
0001
0100
1000
0000
,
0010
1000
0100
0000
0100
0000
0001
0000
,
0010
0000
0101
0000
1000
0100
0001
0000
,
1000
0101
1000
1000
,
1000
0000
0000
0000
;

//---------------dance-single - ----------------
#NOTES:
     dance-single:
     :
     Hard:
     11:
     :
0000
0000
0000
0000
,
0000
0000
0000
0000
,
0000
0000
0000
0000
,
0000
0000
0000
0000
,
0000
0000
0000
0000
,
0000
0000
0000
0000
,
1000
0100
1000
0100
,
1000
0101
1000
0101
,
0110
1001
0110
0010
,
0100
0100
0100
0100
,
0010
0001
1000
0000
0001
1000
0100
0100
,
0010
0001
1000
0000
0010
0001
0100
0001
,
0010
0001
1000
0000
0100
1000
0100
0001
,
0010
0001
1000
0000
1000
0001
1000
0100
,
0010
0001
1000
0000
0010
0100
0010
0100
,
0010
0001
1000
0000
0010
0001
0010
0100
,
0010
0001
1000
0000
1000
0100
1000
0001
,
0010
0001
1000
0100
0010
0001
0100
1000
,
1000
0000
1000
1000
,
0100
0000
0100
0100
,
0010
0000
0010
0010
,
0001
0000
0001
0001
,
1000
0100
0001
0000
0010
0001
1000
0100
,
1000
0100
0001
0000
1000
0001
0100
0010
,
1000
0100
0001
0000
1000
0100
0010
0001
,
1000
0100
0001
0000
1000
0100
0001
0100
,
1000
0100
0001
0000
0010
0001
0010
0100
,
1000
0100
0001
0000
0010
0001
0100
0010
,
1000
0100
0001
0000
1000
0001
1000
0100
,
1000
0100
0001
0000
0010
1000
0100
0010
,
0100
0100
1100
0101
,
0010
0100
0011
0101
,
1000
1000
0110
1001
,
0010
0001
1100
1001
,
0100
1000
0110
0011
,
0100
0100
1010
0101
,
0010
1000
1100
0110
,
0001
1000
1001
0110
,
0010
0000
0000
0010
0000
0000
0010
0000
0000
0000
0000
0000
0000
0000
0000
0000
,
0000
0000
0000
0000
,
0100
0000
0000
0100
0000
0000
0100
0000
0000
0000
0000
0000
0000
0000
0000
0000
,
0000
0000
0000
0000
,
1000
0000
0000
1000
0000
0000
1000
0000
0000
0000
0000
0000
0000
0000
0000
0000
,
0010
0000
0000
0010
0000
0000
0010
0000
0000
0000
0000
0000
0000
0000
0000
0000
,
0001
0000
0000
0001
0000
0000
0001
0000
0000
0000
0000
0000
0000
0000
0000
0000
,
0000
0000
0000
0000
,
0100
0000
0000
0100
0000
0000
0100
0000
0000
0000
0000
0000
0000
0000
0000
0000
,
0000
0000
0000
0000
,
1000
0010
1000
0100
0010
0001
0100
0001
,
0010
1000
0010
0001
0100
1000
0100
0001
,
1000
0100
1000
0001
0100
0001
1000
0100
,
0010
0001
1000
0010
1000
0001
0010
0001
,
0100
1000
0100
0001
0010
0100
0001
0100
,
1000
0010
0100
1000
0100
0001
0100
0010
,
1000
0001
0100
0010
1000
0001
1000
0100
,
0010
0001
0100
0001
1000
0100
1000
0001
,
0100
0000
0000
0000
;

//---------------dance-single - ----------------
#NOTES:
     dance-single:
     :
     Challenge:
     14:
     :
0000
0000
0000
0000
,
0000
0000
0000
0000
,
0000
0000
0000
0000
,
0000
0000
0000
0000
,
0000
0000
0000
0000
,
0000
0000
0000
0000
,
1001
0000
0010
0001
0100
0010
1000
0100
,
0010
0000
0001
1000
0010
1000
0100
0010
,
0010
0000
0001
0100
0001
1000
0100
0010
,
0001
0000
0000
0000
1000
0000
0000
0000
0001
0000
0000
0000
1000
0000
0000
0000
0001
0000
0000
0000
1000
0000
0000
0000
0000
0000
0000
0010
0000
0000
0000
0000
0000
0010
0000
0000
1000
0000
0000
0000
0000
0000
0100
0000
0000
0010
0000
0000
,
0001
0000
0000
0000
0100
0010
0000
0010
0000
1000
0001
0000
0010
0000
0010
0100
,
1000
0000
1100
0000
1100
0000
0000
0001
0000
1000
0000
0000
0010
0000
0010
0100
,
0001
0000
0000
0000
0010
0001
0000
1000
0000
1000
0010
0000
0100
0000
0100
0001
,
1000
0000
0000
0000
0001
0100
0001
0000
0000
0011
0000
0000
1100
0000
0001
1000
,
0100
0000
0000
1000
0001
1000
0000
0010
0000
0100
0001
0000
0010
0000
0010
0100
,
1000
0000
1001
0000
1001
0000
0000
0010
0000
0100
0000
0000
0001
0000
0001
1000
,
0010
0000
0000
0000
1000
0100
0000
1000
0000
0001
0010
0000
0001
0000
0100
0010
,
1000
0000
0000
1010
0000
0000
1010
0000
0000
0000
0000
0000
0001
0000
0100
0000
0001
0000
1000
0000
0100
0000
1000
0000
,
0010
0000
0100
0001
0000
0100
0001
0000
0000
0000
1000
0000
1000
0000
0000
0000
,
0100
0000
1000
0001
0000
1000
0001
0000
0000
0000
0010
0000
0010
0000
0000
0000
,
0110
0000
0100
1000
0000
0100
1000
0000
0000
0000
0001
0000
0001
0000
0000
0000
,
1000
0000
0010
0100
0000
0010
0100
0000
0000
0000
0001
0000
0001
0000
1000
0000
,
0001
0000
1000
0010
0000
1000
0010
0000
0100
0000
1000
0000
0100
0000
0001
0000
,
0010
0000
0100
1000
0000
0100
1000
0000
0010
0000
0001
0000
0010
0000
1000
0000
,
0100
0000
0010
0001
0000
0010
0001
0000
0100
0000
1000
0000
0100
0000
0010
0000
,
1000
0000
0001
0010
0000
0001
0010
0000
0100
0000
1000
0000
0001
0000
0100
0000
,
0010
0000
1000
0100
0000
0001
0100
0000
1000
0001
1000
0000
0010
0000
0100
0000
,
0001
0000
0010
1000
0000
0010
0001
0000
0100
0010
0100
0000
0001
0000
1000
0000
,
0010
0000
1000
0001
0000
0100
0010
0000
0001
0010
1000
0000
0001
0000
0100
0000
,
0010
0000
1000
0100
0000
0010
0001
0000
1000
0010
0100
0000
0001
1000
0000
0001
,
0100
0000
0010
0000
1000
0100
1000
0000
0001
0010
0001
0010
0000
0001
0100
0000
,
0000
0000
0010
0000
1000
0001
1000
0000
0010
0100
0010
0100
0001
1000
0100
0000
,
0000
0000
1000
0000
0001
0010
0001
0000
0100
0010
0100
0010
0000
1000
0001
0000
,
0000
0000
0010
0000
0001
0100
0001
0000
1000
0010
1000
0010
0000
1000
0100
1000
,
0001
0000
0010
0000
0001
1000
0001
0000
0100
0010
0100
0010
0000
1000
0100
0000
,
0000
0000
0010
0000
0001
0100
0001
0000
1000
0100
1000
0010
1000
0001
0100
0000
,
0000
0000
0001
0000
0010
0100
0010
0000
0100
1000
0100
1000
0000
0001
1000
0000
,
0000
0000
0010
0000
1000
0100
1000
0000
0001
1000
0001
1000
0000
0001
0010
0100
,
1000
0000
0000
1100
0000
0000
0101
0000
0000
0000
0000
0000
0000
0000
0000
0000
,
0010
0000
0000
1000
0001
0000
0011
0000
0000
1000
0010
0000
0010
0100
0000
0100
,
0001
0000
0000
0011
0000
0000
1010
0000
0000
0000
0000
0000
0000
0000
0000
0000
,
1001
0000
0000
0000
1001
0000
0000
0000
0000
0010
1000
0000
1000
0001
0000
0001
,
0100
0000
0000
0101
0000
0000
1010
0000
0000
0000
0000
0000
0000
0000
0000
0000
,
1100
0000
0000
0110
0000
0000
0011
0000
0000
1000
0010
0000
0010
0100
0000
0100
,
0001
0000
0000
1001
0000
0000
0110
0000
0000
0000
0000
0000
0000
0000
0000
0000
,
1001
0000
0000
0000
1001
0000
0000
0000
0000
0000
1000
0000
1000
0001
0000
0001
,
0100
0000
0000
0101
0000
0000
1100
0000
0000
0000
0000
0000
0000
0000
0000
0000
,
0000
0000
0000
0000
,
0001
0000
1000
0000
0010
1000
0100
0000
1000
0010
1000
0010
0000
0100
0001
0000
,
0010
0000
0100
0000
1000
0001
0100
0000
0001
0010
0001
1000
0000
0010
1000
0001
,
0100
0000
0010
0000
1000
0001
0010
0000
0001
0100
0010
0100
0000
0001
1000
0000
,
0100
0000
0010
0000
0100
1000
0001
0000
1000
0010
0100
0001
0000
0001
0010
0100
,
1000
0000
0010
0000
1000
0100
0010
0000
0001
0100
0001
1000
0000
0010
0100
0000
,
0001
0000
1000
0000
0100
0010
0001
0000
0100
0010
1000
0001
0000
1000
0010
1000
,
0100
0000
0010
0000
0001
1000
0010
0000
1000
0100
1000
0001
0000
0010
0100
0000
,
1000
0000
0010
0000
0001
0010
1000
0000
0100
0010
0100
1000
0000
0001
1000
0010
,
0100
0000
0000
0000
;

//---------------dance-double - ----------------
#NOTES:
     dance-double:
     :
     Easy:
     8:
     :
00000000
00000000
00000000
00000000
,
00000000
00000000
00000000
00000000
,
00000000
00000000
00000000
00000000
,
00000000
00000000
00000000
00000000
,
00000000
00000000
00000000
00000000
,
00000000
00000000
00000000
00000000
,
00000000
01000000
00000000
01000000
,
00000000
00010000
00000000
00010000
,
00000000
00001000
00001000
00001000
,
00000100
00000100
00000100
00000100
,
00000001
00000100
00001000
00010000
,
00100000
00010000
00001000
00000100
,
00001000
00010000
00100000
00001000
,
00010010
00001000
00000100
00000001
,
00000110
00001000
00010000
01100000
,
00100000
00100000
10000000
00100000
,
00010000
00001000
00000100
00001100
,
00000110
00001000
00000110
00001000
,
00000101
00000000
00000000
00000000
,
00000000
00000000
00000000
00000000
00000000
00000000
00000000
00000010
,
00000100
00000000
00000000
00000000
,
00000010
00001000
00000100
00000010
,
00001100
00000000
00000011
00000000
00001000
00010000
01000000
00000000
,
11000000
00000000
10000000
00000000
10000000
01000000
00010000
00000000
,
00010000
00000000
01010000
00000000
00010000
01000000
10000000
00000000
,
10000000
00000000
01100000
00000000
00010000
00001000
00010000
00000000
,
00010100
00000000
00001000
00000000
00000010
00001000
00010000
00000000
,
10010000
00000000
01100000
00000000
00010000
00001000
00000100
00000000
,
00000011
00000000
00000101
00000000
00000010
00000001
00000100
00000000
,
00001100
00000000
00000110
00000000
00000010
00001000
00000100
00000000
,
00000001
00000000
00000001
00000000
00000001
00000100
00001000
00000000
,
01000000
00000000
10000000
00000000
10000000
01000000
00010000
00000000
,
00100000
00000000
10000000
00000000
01000000
10000000
00010000
00000000
,
00100000
00000000
00100000
00000000
00100000
10000000
01000000
00000000
,
01010000
00000000
00001000
00000000
01000000
00010000
00001000
00000000
,
00000110
00000000
00000010
00000000
00001000
00000010
00000001
00000000
,
00000100
00000000
00000010
00000000
00000001
00001000
00010000
00000000
,
00010100
00000000
00011000
00000000
01000000
10000000
00010000
00000000
,
00100000
00000000
00000000
00100000
00000000
00000000
00100000
00000000
00000000
00000000
00000000
00000000
00000000
00000000
00000000
00000000
,
00100000
00010000
00100000
00010000
00100000
00010000
00001000
00000000
,
00000100
00000000
00000000
00000100
00000000
00000000
00000100
00000000
00000000
00000000
00000000
00000000
00000000
00000000
00000000
00000000
,
00001000
00000100
00001000
00000100
00001000
00000100
00000001
00000000
,
00000001
00000000
00000000
00000001
00000000
00000000
00000001
00000000
00000000
00000000
00000000
00000000
00000000
00000000
00000000
00000000
,
00000010
00000000
00000000
00000010
00000000
00000000
00000010
00000000
00000000
00000000
00000000
00000000
00000000
00000000
00000000
00000000
,
00001000
00000000
00000000
00001000
00000000
00000000
00001000
00000000
00000000
00000000
00000000
00000000
00000000
00000000
00000000
00000000
,
00000001
00000100
00001000
00000100
00000001
00000100
00001000
00000000
,
00001000
00000000
00000000
00001000
00000000
00000000
00001000
00000000
00000000
00000000
00000000
00000000
00000000
00000000
00000000
00000000
,
00000000
00000000
00000000
00000000
,
00000110
00000000
00000001
00000000
00000100
00001000
00010000
00000000
,
00010010
00000000
00001000
00000000
00100000
00010000
00001000
00000000
,
01010000
00000000
00100000
00000000
10000000
01000000
00010000
00000000
,
01100000
00000000
00100000
00000000
01000000
10000000
00100000
00000000
,
01100000
00000000
10000000
00000000
01000000
00010000
00001000
00000000
,
00101000
00000000
00010000
00000000
00000010
00001000
00010000
00000000
,
00001100
00000000
00000010
00000000
00000001
00000100
00001000
00000000
,
00000110
00000010
00000001
00000010
,
00000100
00000000
00000000
00000000
;

//---------------dance-double - ----------------
#NOTES:
     dance-double:
     :
     Medium:
     10:
     :
00000000
00000000
00000000
00000000
,
00000000
00000000
00000000
00000000
,
00000000
00000000
00000000
00000000
,
00000000
00000000
00000000
00000000
,
00000000
00000000
00000000
00000000
,
00000000
00000000
00000000
00000000
,
01000000
10000000
01000000
10000000
,
00100000
00010000
00001000
00000101
,
00001100
00000101
00001000
00000100
,
00001000
00001000
00001000
00001000
,
00000010
00000001
00000100
00000000
00000010
00000001
00000100
00001000
,
00010000
01000000
10000000
00000000
00010000
01000000
10000000
01000000
,
00010000
00001000
00010000
00000000
00010000
00001000
00010000
01000000
,
00010000
00001000
00000010
00000000
00010000
00001000
00000010
00000001
,
00000010
00001000
00000010
00000000
00000010
00001000
00000010
00001000
,
00010000
00001000
00000100
00000000
00010000
00001000
00000100
00000001
,
00001000
00000001
00000010
00000000
00001000
00000001
00000010
00000100
,
00001000
00000010
00000100
00000000
00001000
00000010
00000100
00001000
,
00010000
00000000
01001000
00011000
,
00001000
00000000
00010100
00011000
,
00010000
00000000
00101000
00011000
,
00001000
00000000
00010010
00011000
,
01000000
10000000
00010000
00000000
00010000
10000000
01000000
00010000
,
00001000
00000010
00000001
00000000
00000001
00000010
00001000
00010000
,
00001000
00000100
00000001
00000000
00000001
00000100
00001000
00000100
,
00000001
00000010
00000001
00000000
00000001
00000010
00000001
00000100
,
00000001
00001000
00000100
00000000
00000100
00001000
00000001
00000100
,
00001000
00010000
00100000
00000000
00100000
00010000
00001000
00010000
,
01000000
00010000
00001000
00000000
00001000
00010000
01000000
10000000
,
01000000
00010000
00100000
00000000
00100000
00010000
01000000
10000000
,
10000000
01000000
01000000
00010000
,
10010000
00100000
00100000
01000000
,
00010000
00001000
00001000
00000100
,
00000010
00000101
00000101
00000010
,
00001000
00010000
00010000
01000000
,
00010000
10000000
10000000
00010000
,
00001000
00000001
00000001
00000110
,
00001000
00000001
00000001
00000100
,
00000010
00000000
00000000
00000010
00000000
00000000
00000010
00000000
00000000
00000000
00000000
00000000
00000000
00000000
00000000
00000000
,
00000000
00000000
00000000
00000000
,
00000100
00000000
00000000
00000100
00000000
00000000
00000100
00000000
00000000
00000000
00000000
00000000
00000000
00000000
00000000
00000000
,
00000000
00000000
00000000
00000000
,
00001000
00000000
00000000
00001000
00000000
00000000
00001000
00000000
00000000
00000000
00000000
00000000
00000000
00000000
00000000
00000000
,
00010000
00000000
00000000
00010000
00000000
00000000
00010000
00000000
00000000
00000000
00000000
00000000
00000000
00000000
00000000
00000000
,
01000000
00000000
00000000
01000000
00000000
00000000
01000000
00000000
00000000
00000000
00000000
00000000
00000000
00000000
00000000
00000000
,
00000000
00000000
00000000
00000000
,
10000000
00000000
00000000
10000000
00000000
00000000
10000000
00000000
00000000
00000000
00000000
00000000
00000000
00000000
00000000
00000000
,
00000000
00000000
00000000
00000000
,
00010000
00001000
00000010
00000001
00000010
00001000
00010000
00000000
,
00001000
00010000
00100000
10000000
00100000
00010000
00001000
00000000
,
00010000
00001000
00000100
00000001
00000100
00001000
00010000
00000000
,
00001000
00010000
01000000
10000000
01000000
00010000
00001000
00000000
,
00001000
00010000
00001000
00000100
00001000
00000100
00000001
00000000
,
00000001
00000100
00001000
00000100
00001000
00010000
00001000
00000000
,
01000000
10000000
00100000
10000000
01000000
10000000
00010000
00000000
,
01000000
00010000
00001000
00010000
01000000
00010000
00001000
00000100
,
00000001
00000000
00000000
00000000
;

//---------------dance-double - ----------------
#NOTES:
     dance-double:
     :
     Hard:
     10:
     :
00000000
00000000
00000000
00000000
,
00000000
00000000
00000000
00000000
,
00000000
00000000
00000000
00000000
,
00000000
00000000
00000000
00000000
,
00000000
00000000
00000000
00000000
,
00000000
00000000
00000000
00000000
,
00010000
10000000
01000000
10000000
,
01010000
00001000
00010000
00001100
,
00000101
00001000
00000001
00000100
,
00001000
00001000
00001000
00000001
,
00000010
00000001
00000100
00000000
00000010
00010000
00001000
01000000
,
00100000
10000000
00010000
00000000
00100000
01000000
10000000
00010000
,
00100000
00010000
00100000
00000000
01000000
10000000
01000000
10000000
,
00010000
01000000
00001000
00000000
00010000
00000100
00000010
00000001
,
00001000
00000010
00000100
00000000
00000010
00001000
00000010
00001000
,
00000010
00001000
00000001
00000000
00000010
00000001
00000010
00000001
,
00000100
00000010
00001000
00000000
00001000
00000001
00000010
00000100
,
00010000
00001000
00100000
00000000
01000000
10000000
00010000
01000000
,
00100000
00000000
10010000
01000000
,
01100000
00000000
00000000
00000000
00010000
00000000
10000000
00010000
,
00010000
00000000
10000000
01000000
,
00100000
00000000
00010000
10010000
,
01000000
00001000
00010000
00000100
00000010
00000001
00000100
00000001
,
00001000
00000010
00000100
00000000
00000001
00000010
00000100
00001000
,
00000010
00000100
00000001
00000000
00001001
00000000
00000101
00000000
,
00001000
00000010
00000100
00000000
00000001
00000010
00000100
00001000
,
00000001
00001000
00000100
00000000
00010000
00001000
00100000
01000000
,
10000000
00100000
01000000
00000000
00010000
01000000
00010000
10000000
,
01000000
00100000
00010000
00000000
01000000
00100000
10000000
01000000
,
10000000
00010000
00100000
00000000
01000000
10000000
00010000
01000000
,
00100000
10010000
01000000
00001000
,
00011000
00000100
00000010
00001001
,
00000100
00000010
00001000
00000001
,
00001000
00000101
00001100
00000010
,
00010000
00011000
00100000
01000000
,
10010000
01000000
01100000
00001000
,
00011000
00000010
00000100
00000110
,
00001000
00000001
00000001
00000100
,
00000010
00000000
00000000
00000010
00000000
00000000
00000010
00000000
00000000
00000000
00000000
00000000
00000000
00000000
00000000
00000000
,
00000000
00000000
00000000
00000000
,
00001000
00000000
00000000
00001000
00000000
00000000
00001000
00000000
00000000
00000000
00000000
00000000
00000000
00000000
00000000
00000000
,
00000000
00000000
00000000
00000000
,
00000100
00000000
00000000
00000100
00000000
00000000
00000100
00000000
00000000
00000000
00000000
00000000
00000000
00000000
00000000
00000000
,
00010000
00000000
00000000
00010000
00000000
00000000
00010000
00000000
00000000
00000000
00000000
00000000
00001000
00000000
00000000
00000000
,
01000000
00000000
00000000
01000000
00000000
00000000
01000000
00000000
00000000
00000000
00000000
00000000
00000000
00000000
00000000
00000000
,
00000000
00000000
00000000
00000000
,
00100000
00000000
00000000
00100000
00000000
00000000
00100000
00000000
00000000
00000000
00000000
00000000
00000000
00000000
00000000
00000000
,
00000000
00000000
00000000
00000000
,
10000000
00010000
01000000
00001000
00010000
00000010
00000100
00000000
,
00000001
00000100
00000010
00001000
00000001
00000100
00000010
00000000
,
00001000
00000001
00000100
00000001
00000100
00000001
00001000
00000000
,
00000001
00001000
00000001
00001000
00000001
00000100
00000010
00000000
,
00001000
00000001
00001000
00000100
00010000
00001000
01000000
00000000
,
00010000
01000000
00010000
01000000
00010000
10000000
01000000
00000000
,
10000000
00010000
10000000
00010000
10000000
00100000
01000000
00000000
,
00010000
10000000
00100000
01000000
00010000
01000000
00010000
10000000
,
10010000
00000000
00000000
00000000
;
