#TITLE:THE DEEP STRIKER;
#ARTIST:L.E.D.-G;
#BANNER:THE DEEP STRIKER-bn.png;
#BACKGROUND:THE DEEP STRIKER-bg.png;
#JACKET:THE DEEP STRIKER-jacket.png;
#MUSIC:THE DEEP STRIKER.ogg;
#SAMPLESTART:18.035;
#SAMPLELENGTH:20;
#DISPLAYBPM:173;
#BPMS:0=173;
#BGCHANGES:;

//---------------dance-single - ----------------
#NOTES:
     dance-single:
     :
     Beginner:
     4:
     :
0000
0000
0000
0000
,
0000
0000
0000
0000
,
0000
0000
0000
0000
,
0000
0000
0000
0000
,
1000
0000
1000
0000
,
0001
0000
0001
0000
,
0100
0000
0100
0000
,
0010
0000
0010
0000
,
1001
0000
0000
0000
,
0110
0000
0000
0000
,
1000
0000
0010
0000
,
0100
0000
0001
0000
,
0100
0000
0000
0000
,
0110
0000
1001
0000
,
0001
0000
0001
0000
,
1000
0000
1000
0000
,
0010
0000
0010
0000
,
0100
0000
0100
0000
,
0001
0000
0010
0000
,
0100
0000
1000
0000
,
0010
0000
1000
0000
,
0100
0000
0001
0000
,
0010
0000
0100
0000
,
1000
0000
0001
0000
,
1000
0000
0001
0000
,
0100
0000
0010
0000
,
1000
0000
1000
0000
,
0100
0000
0100
0000
,
0010
0000
0010
0000
,
0110
0000
1001
0000
,
0000
0000
0001
0000
,
0100
0000
0010
0010
,
0000
0000
1000
0000
,
0100
0000
0010
0010
,
0000
0000
0001
0000
,
1000
0000
0100
0100
,
0000
0000
1000
0000
,
1001
0000
0000
0000
,
0010
0000
1000
0000
,
0001
0000
0100
0000
,
0010
0000
0100
0000
,
0110
0000
0000
0000
,
0001
0000
0000
0000
,
0010
0000
0000
0000
,
0100
0000
0000
0000
,
1000
0000
0000
0000
,
1001
0000
0000
0000
,
0000
0000
0000
0000
,
0000
0000
0000
0000
,
0000
0000
0000
0000
,
0001
0000
0000
0000
,
1000
0000
0000
0000
,
0010
0000
0000
0000
,
0100
0000
0000
0000
,
0110
0000
0001
0000
,
0100
0000
0100
0000
,
0010
0000
1000
0000
,
0001
0000
0001
0000
,
1001
0000
0000
0000
,
0110
0000
0000
0000
,
1001
0000
0110
0000
,
1000
0000
0001
0000
,
0100
0000
0000
0000
,
0110
0000
1001
0000
,
0001
0000
0100
0000
,
1000
1000
1000
0000
,
0010
0000
0100
0000
,
0001
0001
0001
0000
,
0010
0000
0001
0000
,
0100
0100
0100
0000
,
0001
0000
1000
0000
,
0010
0000
0110
0000
,
0010
0010
0010
0000
,
0100
0100
0100
0000
,
0001
0001
0001
0000
,
1000
1000
1000
0000
,
0001
0001
0001
0000
,
0100
0100
0100
0000
,
0010
0000
0010
0000
,
1000
0000
0001
0000
,
0010
0000
0010
0000
,
0100
0000
0100
0000
,
1000
0000
0001
0000
,
1000
0000
0001
0000
,
1001
0000
0000
0000
;

//---------------dance-single - ----------------
#NOTES:
     dance-single:
     :
     Easy:
     7:
     :
0000
0000
0000
0000
,
0000
0000
0000
0000
,
0000
0000
0000
0000
,
0000
0000
0000
0000
,
1000
0001
0010
0010
,
0001
0100
1000
0000
,
0010
1000
0100
0100
,
0010
0001
1000
0000
,
1001
0000
0110
0000
,
1001
0000
0110
0000
,
0010
0010
0100
0100
,
1000
0001
1000
0001
,
0200
0000
0000
0000
,
0020
0330
1001
0110
,
1001
0001
0010
0010
,
0001
0100
1000
0000
,
0010
1000
0100
0100
,
1000
0010
0100
0001
,
0010
0010
0001
0100
,
0001
1000
0110
0000
,
0010
1000
0100
0100
,
1000
0010
1000
0001
,
0010
0001
1000
0001
,
0010
0100
0110
0000
,
1000
0010
0100
0100
,
0001
1000
1001
0000
,
0010
0010
1000
0001
,
0010
0100
1000
0000
,
0001
0100
0010
1000
,
0020
0030
1001
0110
,
1001
0000
0001
0000
,
0100
0100
0010
1000
,
0001
0000
0010
0000
,
0100
0100
1000
0001
,
0100
0000
0001
0000
,
1000
1000
0010
0100
,
0010
0000
1000
0000
,
0120
0000
0001
1030
,
0010
0000
1000
0001
,
0100
0100
0010
1000
,
0100
0000
1000
0001
,
1001
0110
1001
0000
,
0001
0000
0100
0010
,
0100
0100
0001
1000
,
0010
0000
1000
0001
,
0010
0010
0010
0010
,
0110
0000
0000
0000
,
0000
0000
0000
0000
,
0000
0000
0000
0000
,
0000
0000
0000
0000
,
0002
0003
2000
3000
,
0020
0030
0200
0300
,
0002
0003
0020
0030
,
0200
0300
2000
3000
,
1001
0000
0100
0000
,
1000
1000
1000
0001
,
0010
0010
0010
0000
,
0001
0100
0010
0000
,
0110
0000
1000
0000
,
0110
0000
0001
0000
,
1001
0000
1001
0000
,
0010
0100
0001
1000
,
0210
0000
0000
0000
,
0020
0330
1001
0110
,
1000
1000
0001
0001
,
0010
0001
0100
0100
,
0010
1000
0001
0001
,
0010
0001
0100
1000
,
0010
0010
0100
0100
,
0001
0010
0001
0100
,
1000
1000
0001
0001
,
0100
0010
0110
1001
,
1000
0100
0010
0010
,
0001
0100
0001
1000
,
0010
0010
1000
0100
,
1000
0010
0100
0001
,
1000
1000
0010
0010
,
1000
0001
0010
0100
,
0010
0010
0001
0001
,
0100
0010
1000
1000
,
1001
0000
0110
0000
,
1001
0000
0110
0000
,
1000
1000
0001
0001
,
0100
0010
0110
1000
,
1001
0000
0000
0000
;

//---------------dance-single - ----------------
#NOTES:
     dance-single:
     :
     Medium:
     10:
     :
0000
0000
0000
0000
,
0000
0000
0000
0000
,
0000
0000
0000
0000
,
0000
0000
0000
0000
,
1000
1000
0010
0100
,
0001
0010
0100
0100
,
1000
0010
1000
1000
,
0001
0010
0001
0001
,
1001
0100
0010
0010
,
0110
1000
0001
0001
,
0011
1100
0101
1010
,
1000
0000
1000
0000
1000
0000
0001
0000
0001
0000
0001
0000
,
0200
0000
0000
0000
,
0020
0330
1001
0110
,
1000
1000
0001
0100
,
0010
0000
0000
0010
0000
0000
1000
0000
1000
0100
0000
0100
,
0010
0001
0100
0100
,
0001
0000
0000
1000
0000
0000
0001
0000
0001
0100
0000
0100
,
0010
1000
0100
0010
,
0001
0000
0000
0100
0000
0000
0001
0000
0001
2000
0000
0000
,
3010
1000
0001
0100
,
0001
0000
0001
1000
0000
0000
1100
0000
0000
0101
0000
0000
,
0010
0000
0010
0001
0000
0000
0100
0000
0000
0010
0000
0000
,
1000
0000
0000
0100
0000
0000
1000
0000
1000
0002
0000
0000
,
0013
0000
0010
0100
0000
0000
1000
0000
0000
1000
0000
0000
,
0010
0000
0000
1000
0000
0000
0002
0000
2000
0000
3003
0000
,
0010
0000
0010
1000
0000
0000
0100
0000
0000
0100
0000
0000
,
0010
0000
0010
0001
0000
0000
0001
0000
1000
0100
0000
0000
,
1000
0000
1000
0010
0000
0000
0100
0000
0000
0001
0000
0000
,
0010
0000
0010
0100
0000
0000
0011
0000
0000
1010
0000
0000
,
1001
0000
0000
0000
0000
1000
0010
0000
0100
0000
0000
0001
,
0000
0000
0001
0000
0000
1000
0010
0000
0010
0100
0000
0000
,
0000
0000
0000
0000
0000
0001
1000
0000
0100
0000
0000
0010
,
0000
0000
0010
0000
0000
0000
0011
0000
0000
0001
1000
0001
,
0000
0000
0000
0000
0000
0100
0010
0000
1000
0000
0000
0001
,
0000
0000
0001
0000
0000
1000
0020
0000
0000
0230
0000
0000
,
0301
0000
0000
0000
0000
0010
0100
0000
1000
0000
0000
0000
,
2020
0030
0001
3001
,
1001
0000
0000
0000
0000
0001
1000
0000
0100
0000
0000
0010
,
0000
0000
0010
0000
0000
0001
1000
0000
0001
1000
0000
0001
,
0100
0000
0000
0000
0000
0010
1000
0000
0001
0100
0000
0000
,
0010
0000
0010
0000
0010
0000
0010
0000
0000
0000
0000
0000
,
0101
0000
0000
0000
0000
1000
0100
0000
0010
0000
0000
0001
,
0000
0000
0001
0000
0000
0010
0001
0000
0001
1000
0000
1000
,
0010
0000
0000
0000
0000
1000
0001
0000
1000
0100
0000
0000
,
1100
0101
1010
0011
,
1001
0000
0000
0000
,
0000
0000
0000
0000
,
0000
0000
0000
0000
,
0000
0000
0000
0000
,
0002
0003
2000
3000
,
0010
0010
1000
0000
,
0001
0001
0001
0000
,
0200
0300
0020
0030
,
1001
1000
1000
1000
,
0001
0001
0100
0100
,
0010
0010
0010
0010
,
1000
0000
0000
1000
0000
0000
0100
0000
0000
0100
0000
1000
,
0001
0000
0000
0000
0000
0000
0000
0000
0000
0000
0000
1000
,
0001
0000
0000
0000
0000
0000
0000
0000
0000
0000
0000
1000
,
0001
0000
0000
0000
0000
1000
0001
0000
0000
0000
0000
1000
,
0001
0010
0100
1000
,
0020
0000
0000
0000
,
0200
0330
1001
0110
,
1001
0001
0100
0010
,
1000
0000
0000
0100
0000
0000
1000
0000
1000
0001
0000
0001
,
0010
0000
0000
0100
0000
0000
1000
0000
1000
0001
0000
0000
,
0010
0000
0000
0001
0000
0000
0100
0000
0100
0010
0000
0010
,
1000
1100
0001
0101
,
0010
0000
0000
0100
0000
0000
0001
0000
0001
1000
0000
1000
,
0100
0000
0000
0010
0000
0000
0100
0000
1000
0001
0000
0000
,
0010
0000
0010
0100
0000
0000
0011
0000
0000
1100
0000
0000
,
0001
0000
0001
0100
0000
0000
0010
0000
0010
1000
0000
0000
,
0001
0000
1000
0100
0000
0000
1010
0000
0000
0101
0000
0000
,
0010
0000
0000
0010
0000
0000
0001
0000
1000
0001
0000
0000
,
0100
0000
0100
0010
0000
0000
1000
0000
0100
1000
0000
0001
,
0010
0000
0000
0010
0000
0000
0001
0000
0100
0001
0000
0000
,
1000
0000
0000
0001
0000
0000
0010
0000
0010
0100
0000
0100
,
1000
0000
0000
0001
0000
0000
0100
0000
0100
0010
0000
0010
,
1000
0000
0000
0110
0000
0000
0001
0000
0001
0000
0001
0000
,
0010
0000
0001
0100
0000
0000
0101
0000
0000
1100
0000
0000
,
0001
0000
0001
1000
0000
0000
1010
0000
0000
0011
0000
0000
,
1100
0110
0011
1001
,
0101
0000
0000
1100
0000
0000
0001
0000
1000
0000
0001
0000
,
1001
0000
0000
0000
;

//---------------dance-single - ----------------
#NOTES:
     dance-single:
     :
     Hard:
     12:
     :
0000
0000
0000
0000
,
0000
0000
0000
0000
,
0000
0000
0000
0000
,
0000
0000
0000
0000
,
1000
0001
0100
0100
,
0010
0000
0000
0010
0000
0000
1000
0000
1000
0100
0000
0100
,
0010
0001
0100
0100
,
0010
0000
0000
0010
0000
0000
1000
0000
1000
0001
0000
0001
,
0100
0000
0100
0010
0000
0000
1000
0000
0000
1000
0000
0000
,
0100
0000
0100
0010
0000
0000
0001
0000
0000
0001
0000
0000
,
0011
1010
1100
0101
,
0001
0000
0001
0010
0000
0010
0100
0000
0100
1000
0000
2000
,
0002
0000
0000
3003
,
1000
0100
1000
0100
0000
0000
1001
0000
0000
0110
0000
0000
,
1000
0000
1000
0010
0000
0000
0100
0000
0100
0001
0000
0000
,
0010
0000
0010
0100
0000
0000
1000
0000
1000
0001
0000
0001
,
0100
0000
0100
0001
0000
0000
1000
0000
1000
0001
0000
0000
,
0010
0000
0010
0001
0000
0000
0100
0000
0001
1000
0000
0100
,
1000
0000
1000
0001
0000
0000
0010
0000
0010
0100
0000
0000
,
1000
0000
1000
0100
0000
0010
0001
0000
0001
0200
0000
0000
,
0301
0000
0001
0100
0000
0000
0010
0000
0010
1000
0000
0000
,
0100
0000
0100
1000
0000
0000
0001
0000
1000
0001
0000
0010
,
0100
0000
0100
1000
0000
1000
0001
0000
0001
0100
0000
0000
,
0010
0000
0010
1000
0000
1000
0001
0000
0001
0020
0000
0000
,
0031
0000
0001
0100
0000
0100
0010
0000
1000
0100
0000
0000
,
1000
0000
1000
0001
0000
0100
0010
0000
0010
0000
0000
0000
,
1000
0000
1000
0010
0000
0100
0010
0000
0100
0001
0000
0000
,
0001
0000
0001
0010
0000
0010
0100
0000
0100
2000
0000
0000
,
3010
0000
0010
0100
0000
0100
0001
0000
0001
1000
0000
0000
,
1000
0100
1000
0100
0000
0000
1001
0000
0000
0110
0000
0000
,
1001
0000
0000
0010
0000
0100
0010
0000
1000
0000
0000
1100
,
0000
0000
0011
0000
0000
0100
0010
0000
1000
0002
0000
0000
,
0013
0000
0000
0010
0000
0001
0100
0000
0010
0000
0000
1010
,
0000
0000
0101
0000
0000
1000
0100
0000
0100
0010
0001
0010
,
0001
0000
0000
0001
0000
1000
0001
0000
0100
0000
0000
0110
,
0000
0000
1001
0000
0000
1000
0020
0000
0000
0230
0000
0000
,
0301
0000
0000
0001
0000
1000
0010
0000
1000
0000
0000
0000
,
2200
0000
0000
0300
0000
0000
3001
0000
1000
0001
0000
0000
,
0010
0000
0000
0010
0000
0001
1000
0000
0001
1000
0000
0100
,
0000
0000
0110
0000
0000
0010
0001
0000
0001
1000
0000
1000
,
0010
0000
0000
0010
0000
1000
0001
0000
1000
0100
0000
0100
,
1000
0000
1000
0000
1000
0000
1001
0000
0000
0000
0000
0000
,
0101
0000
0000
0001
0000
0010
0100
0000
0010
0100
0000
0000
,
1100
0000
0000
1000
0000
0001
0100
0000
0100
0010
0000
0000
,
1000
0000
1000
0100
0000
0100
0010
0000
0010
0001
0000
0001
,
0100
0000
0100
0010
0000
0010
1000
0000
1000
0001
0000
0001
,
0020
0000
0000
0000
,
0000
0000
0000
0030
,
0000
0000
0000
0000
,
0000
0000
0000
0000
,
0002
0003
2000
3000
,
0010
1000
0001
0100
,
0001
0001
1000
1000
,
0010
1000
0200
0300
,
0110
0001
1000
0001
,
0010
0000
0000
0100
0000
0000
1000
0000
1000
0001
0000
0001
,
0100
0010
0100
0010
,
1000
0000
0000
0100
0000
0000
0010
0000
0010
0001
0000
0001
,
1000
0010
0100
0001
,
0011
0000
0000
0100
0000
0000
1000
0000
1000
0001
0000
0001
,
0100
0000
0000
0000
0000
0010
0100
0000
0000
0000
0000
0010
,
1000
0000
1000
0100
0000
0100
0010
0000
0010
0001
0000
0002
,
2000
0000
0000
3003
,
1000
0100
1000
0100
0000
0000
1001
0000
0000
0110
0000
0000
,
1001
0000
0001
0010
0000
0010
0100
0000
0100
1000
0000
1000
,
0010
0000
0010
0100
0000
0000
0001
0000
0001
1000
0000
1000
,
0100
0000
1000
0010
0000
0010
0100
0000
0100
0001
0000
0000
,
0010
0001
1000
0001
0000
0000
0100
0000
0100
0010
0000
0010
,
1000
0000
1000
0001
0000
0000
0100
0000
0100
0010
0000
0000
,
1000
0001
1000
0001
0000
0010
0100
0000
0010
0001
0000
0100
,
0010
0000
0010
1000
0000
0000
0101
0000
0000
1100
0000
0000
,
0001
0010
0001
0010
0000
0000
0001
0000
0001
0000
0001
0000
,
0010
0000
0001
0100
0000
0100
0010
0000
0010
1000
0000
0001
,
1000
0000
1000
0001
0000
0000
0100
0000
0100
0010
0000
0010
,
1000
0000
0001
1000
0000
1000
0100
0000
0100
0010
0000
0010
,
0001
0000
0001
0100
0000
0100
0010
0000
0010
1000
0100
1000
,
0001
0000
0001
0100
0000
0100
0010
0000
0010
1000
0000
1000
,
0100
0000
0100
0010
0000
0010
0001
0000
1000
0001
0000
1000
,
0010
0000
0010
1000
0000
1000
0001
0000
0001
0100
0000
0100
,
0001
0010
0001
0010
0000
0000
0001
0000
0001
0000
0001
0000
,
1000
0010
0100
0001
0000
0000
0011
0000
0000
1100
0000
0000
,
0001
0100
0010
1000
0000
0000
0100
0000
0100
0010
0000
0000
,
0101
1100
0011
1010
,
0001
0100
0010
1000
0000
0000
0100
0000
0100
0000
0100
0000
,
1001
0000
0000
0000
;
