#TITLE:TEARS;
#SUBTITLE:;
#ARTIST:NAOKI underground feat. EK;
#TITLETRANSLIT:;
#SUBTITLETRANSLIT:;
#ARTISTTRANSLIT:;
#GENRE:;
#CREDIT:;
#BANNER:TEARS.png;
#BACKGROUND:TEARS-bg.png;
#LYRICSPATH:;
#CDTITLE:;
#MUSIC:TEARS.ogg;
#OFFSET:0.000000;
#SAMPLESTART:40.279999;
#SAMPLELENGTH:20.000000;
#SELECTABLE:YES;
#DISPLAYBPM:143.000000;
#BPMS:0.000000=143.425995
,4.000000=143.001007
;
#STOPS:
;
#BGCHANGES:;
#KEYSOUNDS:;
#ATTACKS:;

//---------------dance-single - ----------------
#NOTES:
     dance-single:
     :
     Beginner:
     3:
     0.191503,0.226399,0.059579,0.000000,0.000000,135.000000,129.000000,6.000000,0.000000,0.000000,0.000000,0.191503,0.226399,0.059579,0.000000,0.000000,135.000000,129.000000,6.000000,0.000000,0.000000,0.000000:
0000
0000
0000
0000
,
0000
0000
0000
0000
,
0000
0000
0000
0000
,
0000
0000
0000
0000
,
0000
0000
0000
0000
,
0100
0000
0000
0000
,
0001
0000
0000
0000
,
1000
0000
0000
0000
,
0010
0000
0100
0100
,
0000
0001
0000
1000
,
0000
0100
0000
0010
,
0010
0010
0000
0100
,
0000
0001
0000
1000
,
1000
1000
0000
0010
,
0000
0100
0000
0001
,
0001
0001
0000
0100
,
0000
0010
0000
1000
,
1000
1000
1000
1000
,
0000
0100
0000
0010
,
0010
0010
0010
0010
,
0000
0001
0000
0001
,
0001
0001
0000
1000
,
1000
1000
0000
0100
,
0100
0100
0100
0000
,
0110
0000
0010
0010
,
0010
0000
0100
0100
,
0100
0000
1000
1000
,
1000
0000
0001
0001
,
0001
0000
0100
0000
,
0010
0010
0000
1000
,
0000
0001
0000
0100
,
0000
1000
0000
0100
,
0000
0001
0000
0110
,
0110
0000
1000
0000
,
1001
0000
0010
0000
,
0110
0000
0001
0000
,
1001
0000
0100
0000
,
0010
0010
0000
1000
,
1000
1000
0000
0100
,
0100
0100
0000
0001
,
0001
0000
1000
0000
,
0100
0000
0010
0000
,
0100
0000
0010
0000
,
1000
0000
0001
0000
,
1000
0000
0001
0000
,
0100
0100
0000
0001
,
0001
0001
0000
1000
,
1000
1000
0000
0010
,
0010
0010
0010
0010
,
0010
0000
0100
0000
,
0001
0000
0100
0000
,
1000
0000
0100
0000
,
0010
0000
1000
1000
,
1000
0000
0001
0001
,
0001
0000
0100
0100
,
0100
0000
0010
0000
,
1000
0000
0001
0000
,
0100
0000
0000
0000
,
0000
0000
0000
0000
;

//---------------dance-single - ----------------
#NOTES:
     dance-single:
     :
     Easy:
     6:
     0.269523,0.311299,0.129087,0.089368,0.000000,190.000000,177.000000,13.000000,9.000000,0.000000,0.000000,0.269523,0.311299,0.129087,0.089368,0.000000,190.000000,177.000000,13.000000,9.000000,0.000000,0.000000:
0000
0000
0000
0000
,
0000
0000
0000
0000
,
0000
0000
0000
0000
,
0000
0000
0000
0000
,
0000
0000
0000
0000
,
1000
0100
0010
0100
,
0001
0100
0010
0100
,
0010
1000
0001
1000
,
0001
0100
0010
1001
,
0100
0000
0010
0001
,
1000
0100
0010
0001
,
0100
0000
0010
1000
,
0001
0010
0100
1000
,
0010
0000
0100
0001
,
1000
0010
0100
0001
,
0010
0000
0100
1000
,
0001
0100
0010
1000
,
0001
1001
1000
0100
,
0010
0100
1000
0001
,
1000
1001
0001
0100
,
0010
0100
0001
1000
,
0100
0110
0010
0001
,
1000
0100
0010
0001
,
0100
0110
0010
1000
,
1001
0200
0000
0310
,
1000
1100
0010
0001
,
0100
0010
1000
0001
,
0010
0100
1000
0010
,
0100
0000
0001
0011
,
0001
0101
0010
1000
,
0100
0010
0001
1000
,
0010
0100
0001
0010
,
0110
0000
0100
0100
,
0020
0000
0000
0031
,
0002
0000
0000
1003
,
2000
0000
0000
3100
,
0200
0000
0000
0310
,
0020
0000
0100
0031
,
0002
0000
0100
1003
,
2000
0000
0001
3100
,
0200
0000
0010
1300
,
0001
0100
0000
0010
,
0000
1000
0000
0001
,
0000
0010
0000
0100
,
0000
1000
0000
0001
,
0100
0101
0000
0010
,
0100
1100
0000
0010
,
0001
1001
0000
1000
,
0010
0100
0001
1000
,
0100
0010
0000
0001
,
0010
1000
0000
0010
,
0001
0100
0000
1000
,
0100
0001
0010
0100
,
1000
0100
0010
0010
,
0001
0100
0010
0010
,
1000
0100
0001
0100
,
1000
1000
0001
0001
,
0100
0000
0000
0000
,
0000
0000
0000
0000
;

//---------------dance-single - ----------------
#NOTES:
     dance-single:
     :
     Medium:
     8:
     0.375914,0.424499,0.158877,0.049649,0.000000,265.000000,249.000000,16.000000,5.000000,0.000000,0.000000,0.375914,0.424499,0.158877,0.049649,0.000000,265.000000,249.000000,16.000000,5.000000,0.000000,0.000000:
0000
0000
0000
0000
,
0000
0000
0000
0000
,
0000
0000
0000
0000
,
0000
0000
0000
0000
,
0000
0000
0000
0000
,
1000
0001
1000
0000
0001
0100
0001
0000
,
1000
0010
1000
0000
0001
1000
0001
0000
,
0100
0010
0100
0010
1000
0001
1000
0001
,
1000
0100
0010
0001
,
1000
0100
0001
0000
0100
0000
1000
0000
,
0010
0100
0010
0001
,
0010
1000
0100
0010
,
0001
0100
0010
1000
,
0100
0010
1000
0000
0010
0000
0001
0000
,
0100
0010
1000
0100
,
0010
0001
0100
0010
,
1000
0100
1000
0001
0100
0000
0110
0000
,
0001
0100
1000
0000
0100
0000
0001
0000
,
0010
0100
0010
1000
,
0010
0001
0100
0010
,
1000
0100
0010
0001
,
0100
0010
0001
0000
0010
0000
1000
0000
,
0100
0010
0001
0000
0100
0000
0010
0000
,
1000
0100
0010
0000
0001
0100
0010
1000
,
1001
0010
0100
1000
,
0010
0100
0001
0000
0010
0100
1000
0000
,
0100
0010
0001
0100
,
0010
1000
0100
0000
0010
0001
0100
0000
,
0010
0000
0100
0000
0001
1000
0001
0000
,
0010
1010
0010
0011
,
0100
1100
0100
0101
,
0010
0000
1000
0001
0010
0000
0100
0000
,
1001
0100
0010
0100
,
2000
0000
0100
3001
,
0002
0000
1000
0103
,
0200
0000
0001
0310
,
0020
0000
0100
1030
,
0001
0100
0001
0000
1000
0000
1010
0000
,
1000
0100
1000
0000
0001
0000
0011
0000
,
0100
0010
0100
0000
1000
0000
1001
0000
,
0100
0010
0100
0000
0001
0000
1001
0000
,
0020
0000
0100
0100
,
0100
0000
0130
0000
0010
0000
0001
1000
,
0100
0000
0010
0100
0001
0000
0100
0010
,
1000
0000
0010
0100
0001
0100
0010
1000
,
0010
0011
0000
1000
,
0100
1100
0000
0001
,
0100
1001
0000
0010
,
0001
0100
0010
1000
,
0100
0010
0001
0000
0100
0000
0010
0000
,
0100
0010
1000
0000
0100
0000
0010
0000
,
0001
0100
0001
1000
0100
0000
0100
0000
,
1000
0010
1000
0001
0010
0100
0010
0000
,
0001
0100
0010
0100
0001
0000
1001
0000
,
1000
0100
0010
0100
1000
0000
1001
0000
,
0100
0000
0001
0001
0000
1000
0000
1000
,
0000
0100
0010
0100
1000
0001
1000
0000
,
0100
0000
0000
0000
,
0000
0000
0000
0000
;

//---------------dance-single - ----------------
#NOTES:
     dance-single:
     :
     Hard:
     12:
     0.531953,0.594298,0.148947,0.059579,0.278034,375.000000,360.000000,15.000000,6.000000,0.000000,0.000000,0.531953,0.594298,0.148947,0.059579,0.278034,375.000000,360.000000,15.000000,6.000000,0.000000,0.000000:
0000
0000
0000
0000
,
0000
0000
0000
0000
,
0000
0000
0000
0000
,
0000
0000
0000
0000
,
0000
0000
0000
0000
,
1000
0010
1000
0000
0001
1000
0001
0000
,
1000
0001
1000
0000
0001
0100
0001
0000
,
1000
0100
0001
0000
0001
0100
1000
0000
,
0010
0000
0100
0000
0001
0000
0000
0000
0001
0000
0000
1000
0000
0000
1000
0000
,
0010
0100
0001
0010
1000
0010
0001
0000
,
0100
0010
1000
0100
0001
0100
1000
0000
,
0001
0100
0010
0100
0001
1000
0100
0000
,
1000
0010
0100
0010
1000
0001
0010
0000
,
0100
0010
0100
0001
1000
0010
0100
0000
,
0010
0100
0010
1000
0001
0100
0010
0000
,
0001
0100
1000
0100
0010
1000
0010
0001
,
1000
0100
0010
1000
0100
0010
1001
0000
,
0001
0000
0100
0000
0001
1000
0000
0100
0000
0000
0010
0000
0000
0001
0000
0000
,
1000
0000
0100
0000
1000
0001
0000
0100
0000
0000
0010
0000
0000
1000
0000
0000
,
0010
0000
0100
0000
0010
1000
0000
0001
0000
0000
0100
0000
0000
0010
0000
0000
,
0100
0000
0010
0000
0100
0001
0000
1000
0000
0000
0100
0000
0000
0010
0000
0000
,
0100
0000
1000
0000
0100
0010
0000
0001
0100
0000
0001
0000
0100
0010
0000
1000
,
0001
0000
0100
0000
0001
0010
0000
0100
0001
0000
0100
0000
0000
0010
0100
0000
,
1000
0000
0100
0000
1000
0010
0000
0100
1000
0000
0100
0000
0010
0000
0100
0000
,
1001
0100
1000
0001
,
0100
1000
0100
0001
0010
0001
0100
0010
,
1000
0100
0001
0100
1000
0010
1010
0000
,
0100
0001
0100
1000
0010
1000
0100
0010
,
0001
0100
1000
0100
0001
0010
0011
0000
,
1000
0100
1000
0010
0000
0100
0001
1000
,
0001
0100
0001
0010
0000
0100
1000
0001
,
0100
0000
0010
1000
0000
0001
0010
0100
,
0010
0000
1000
0000
0010
0100
0000
0100
0010
0000
0001
0000
0010
0100
0000
0100
,
2000
0000
0000
0001
0000
0000
0010
0000
0000
0001
0000
0000
3010
0000
0100
0000
,
0002
0000
0000
1000
0000
0000
0010
0000
0000
1000
0000
0000
0013
0000
0100
0000
,
0020
0000
0000
1000
0000
0000
0100
0000
0000
0001
0000
0000
0130
0000
1000
0000
,
0001
0000
0000
0001
0000
0000
0001
0000
1000
0000
0000
1000
0000
0000
1000
0000
,
0100
0000
0010
0000
0100
1000
0000
0001
0000
0000
0100
0000
0010
0000
1000
0000
,
0010
0000
0100
0000
0010
1000
0000
0001
0000
0000
0010
0000
0100
0000
1000
0000
,
0100
0000
0010
0000
0100
0001
0000
1000
0000
0000
0010
0000
0100
0000
0010
0000
,
0001
0000
0000
0100
0000
0000
0101
0000
0010
0000
0000
1000
0000
0000
1010
0000
,
0200
0010
1000
0010
,
0001
0000
0000
0000
0310
0000
0001
1000
0001
0000
0000
0100
0000
0000
0100
0000
,
0010
0000
0000
0000
1000
0000
0001
0000
0100
0000
0000
1000
0000
0000
0100
0000
,
0010
0000
0000
0001
0000
0000
0010
0000
1000
0000
0000
0100
0000
0000
0010
0000
,
0210
0001
0000
1300
,
0120
0001
0000
1030
,
0110
1001
0000
0100
,
1010
0000
0000
0000
1001
0000
0000
0000
0001
0000
0100
0000
0010
1000
0001
0000
,
0100
1000
0100
0001
0010
0001
1100
0000
,
0100
0001
0100
1000
0010
1000
0101
0000
,
0010
0100
1000
0100
0001
0010
1000
0010
,
0100
1000
0100
0001
0100
0010
0110
0000
,
1000
0000
0100
0000
0010
0100
0000
0000
1000
0000
0100
0000
0010
0000
0001
0000
,
0001
0000
0100
0000
0010
0100
0000
0000
0001
0000
0100
0000
0010
0000
1000
0000
,
0100
0010
0100
0000
1000
0000
0001
0000
0100
0010
0100
0000
0001
0000
1000
0000
,
0100
0000
0010
0000
0100
1000
0000
0010
0100
0000
0010
0000
0100
0001
0000
0010
,
0100
0000
0000
0000
,
0000
0000
0000
0000
;

//---------------dance-double - ----------------
#NOTES:
     dance-double:
     :
     Easy:
     8:
     0.276616,0.367899,0.198596,0.099298,0.000000,195.000000,175.000000,20.000000,10.000000,0.000000,0.000000,0.276616,0.367899,0.198596,0.099298,0.000000,195.000000,175.000000,20.000000,10.000000,0.000000,0.000000:
00000000
00000000
00000000
00000000
,
00000000
00000000
00000000
00000000
,
00000000
00000000
00000000
00000000
,
00000000
00000000
00000000
00000000
,
00000000
00000000
00000000
00000000
,
00000010
00000001
00001000
00000100
,
00010000
00001000
00100000
00010000
,
10000000
01000000
00100000
00010000
,
00011000
00000100
00000010
00000001
,
00000100
00000010
00000000
00001000
,
00000100
00010000
00000000
00001000
,
00010000
01000000
00000000
00100000
,
01000000
10000000
00000000
00010000
,
01000000
00100000
00000000
10000000
,
01000000
00100000
00000000
00010000
,
01000000
00001000
00000000
00010000
,
00001000
00000010
00000100
00001000
,
00000010
00000100
00000000
00001000
,
00000010
00010000
00000000
00001000
,
00010000
00100000
00000000
01000000
,
00100000
10000000
00000000
00010000
,
00100000
01000000
00000000
10000000
,
00100000
01000000
00000000
00010000
,
00100000
00001000
00000000
00010000
,
00011000
00000200
00000000
00000310
,
00001000
00001100
00000001
00000100
,
00000010
00010000
00001000
00100000
,
01000000
11000000
00010000
00100000
,
00001000
00010000
00000100
00000010
,
00000001
00000101
00001000
00001010
,
00000100
00010100
00001000
00110000
,
01000000
10000000
00100000
00010000
,
00001000
00011000
00010000
00011000
,
00000020
00000000
00000000
00010030
,
00002000
00000000
00000000
01003000
,
00020000
00000000
00000000
00130000
,
02000000
00000000
00000000
13000000
,
00010000
10010000
00000000
01010000
,
00001000
00011000
00000000
00010100
,
00000010
00000110
00000000
00000011
,
00001000
00001000
00000001
00001001
,
00000200
00000000
00000001
00000010
,
00000001
00000301
00000100
00001000
,
00020000
00031000
00002000
01003000
,
00200000
10300000
20000000
30010000
,
01000000
01010000
00000000
01000000
,
00001000
00011000
00000000
00010000
,
00000100
00001100
00000000
00001000
,
00000001
00000100
00001000
00010000
,
00100000
10000000
00000000
00010000
,
10000000
01000000
00000000
00010000
,
00001000
00010000
00000000
00000100
,
00000010
00000001
00000000
00000100
,
00001000
00010000
01000000
00100000
,
00001000
00010000
00000100
00000010
,
00000001
00000100
00001000
00010000
,
01000000
10000000
00100000
10000000
,
01000000
00000000
00000000
00000000
,
00000000
00000000
00000000
00000000
;

//---------------dance-double - ----------------
#NOTES:
     dance-double:
     :
     Medium:
     8:
     0.375914,0.424499,0.129087,0.049649,0.000000,265.000000,252.000000,13.000000,5.000000,0.000000,0.000000,0.375914,0.424499,0.129087,0.049649,0.000000,265.000000,252.000000,13.000000,5.000000,0.000000,0.000000:
00000000
00000000
00000000
00000000
,
00000000
00000000
00000000
00000000
,
00000000
00000000
00000000
00000000
,
00000000
00000000
00000000
00000000
,
00000000
00000000
00000000
00000000
,
00000001
00000000
00000010
00000000
00000100
00010000
00001000
00000000
,
00100000
00000000
01000000
00000000
10000000
00010000
01000000
00000000
,
00100000
00000000
10000000
00000000
01000000
00100000
00001000
00000000
,
00010000
00001000
00000100
00000010
,
00001000
00000100
00001000
00000000
00000001
00000000
00000100
00000000
,
00001000
00010000
00001000
00000000
01000000
00000000
00100000
00000000
,
10000000
01000000
10000000
00000000
00100000
00000000
01000000
00000000
,
00001000
00010000
00001000
00000000
00000100
00000010
00001000
00000001
,
00000100
00000010
00010000
00000000
00001000
00000000
00100000
00000000
,
01000000
00100000
00001000
00000000
00010000
00000000
00000100
00000000
,
00000010
00000001
00001000
00000000
00000010
00000000
00000100
00000000
,
00001000
00010000
00001000
01000000
00100000
10000000
10010000
00000000
,
00010000
01000000
00010000
00000000
10000000
00000000
01000000
00000000
,
00010000
00001000
00010000
00000000
00000100
00000000
00000010
00000000
,
00000001
00000100
00000001
00000000
00000010
00000000
00000100
00000000
,
00010000
00001000
00010000
00000000
01000000
00000000
00100000
00000000
,
10000000
00100000
00010000
00000000
00001000
00000000
00000010
00000000
,
00000100
00010000
00001000
00000000
00010000
00000000
01000000
00000000
,
00100000
00010000
10000000
00000000
01000000
00010000
00001000
00010000
,
00011000
00000010
00000001
00001000
,
00000001
00000100
00001000
00000100
00000000
00000010
00010000
00000000
,
00001000
00100000
01000000
10000000
,
00100000
01000000
00010000
10000000
00000000
01000000
00010000
00000000
,
00001000
00000100
00000001
00001000
,
00000010
00000100
00001000
00010000
00000000
00000000
01000000
00000000
,
00100000
01000000
00010000
00001000
00000000
00000000
00000100
00000000
,
00000001
00000010
00000100
00010000
,
00001000
00100000
01000000
10010000
,
00200000
00000000
10000000
01300000
,
00002000
00000000
00100000
00013000
,
00000200
00000000
00000010
00001300
,
00000020
00000000
00000001
00001030
,
00000001
00000100
00000001
00000000
00000010
00000000
00010100
00000000
,
00001000
00010000
00001000
00000000
01000000
00000000
10100000
00000000
,
01000000
00100000
01000000
00000000
00001000
00000000
00011000
00000000
,
00000100
00000010
00000100
00001000
00000001
00000000
00000101
00000000
,
00000020
00001000
00000100
00000001
,
00000100
00000000
00001030
00000000
00000100
00000000
00010000
00001000
,
01000000
00000000
00100000
10000000
00010000
00000000
10000000
01000000
,
00100000
00000000
00001000
00000000
00010000
00000100
00000010
00000001
,
00000100
00000110
00001000
00001000
,
00010000
00011000
01000000
01000000
,
00010000
10000000
01000000
00100000
,
00001000
00000000
00010000
00000000
00000010
00000100
00000001
00001000
,
00000001
00000000
00000100
00000000
00001000
00010000
00001000
00000000
,
00100000
00000000
01000000
00000000
10000000
00010000
10000000
00000000
,
01000000
00000000
00100000
00000000
00001000
01000000
00001000
00010000
,
00001000
00000100
00000001
00000010
,
00000100
00010100
00001000
00011000
,
01000000
01010000
00100000
10100000
,
10000000
01000000
00010000
00001000
,
00000010
00000000
00000001
00000000
00000100
00001000
00010000
00000000
,
01000000
00000000
00000000
00000000
,
00000000
00000000
00000000
00000000
;

//---------------dance-double - ----------------
#NOTES:
     dance-double:
     :
     Hard:
     12:
     0.500745,0.537698,0.168807,0.069509,0.208526,353.000000,336.000000,17.000000,7.000000,0.000000,0.000000,0.500745,0.537698,0.168807,0.069509,0.208526,353.000000,336.000000,17.000000,7.000000,0.000000,0.000000:
00000000
00000000
00000000
00000000
,
00000000
00000000
00000000
00000000
,
00000000
00000000
00000000
00000000
,
00000000
00000000
00000000
00000000
,
00000000
00000000
00000000
00000000
,
00000010
00000001
00000010
00000000
00000100
00001000
00000100
00000000
,
00001000
00010000
00001000
00000000
00100000
00010000
00100000
00000000
,
01000000
10000000
01000000
00000000
00100000
00001000
00010000
00000000
,
00001000
00000010
00000100
00001000
00000001
00000100
00000010
00000000
,
00001000
00000100
00000001
00000100
00010000
00001000
00100000
00000000
,
00010000
00100000
10000000
00100000
00001000
00010000
00000100
00000000
,
00000010
00000001
00000100
00001000
00000100
00000010
00010000
00000000
,
00001000
01000000
00100000
00010000
00100000
10000000
01000000
00000000
,
00100000
01000000
10000000
00100000
00010000
00001000
00000100
00000000
,
00000010
00000100
00000001
00000010
00001000
00010000
01000000
00000000
,
00100000
00001000
00010000
01000000
00100000
00001000
00010000
00000000
,
00000010
00010000
00001000
00000100
00000010
00010000
00001000
00000000
,
01000000
00000000
00100000
00000000
10000000
00010000
00000000
00100000
00000000
00000000
00001000
00000000
00000000
00010000
00000000
00000000
,
00000100
00000000
00000010
00000000
00000001
00001000
00000000
00000010
00000000
00000000
00010000
00000000
00000000
00001000
00000000
00000000
,
00010000
00000000
01000000
00000000
00100000
00010000
00000000
10000000
00000000
00000000
01000000
00000000
00000000
00010000
00000000
00000000
,
00001000
00000000
00000100
00000000
00000010
00001000
00000000
00000001
00000000
00000000
00000100
00000000
00000000
00001000
00000000
00000000
,
01000000
00000000
00100000
00000000
00010000
00001000
00000000
01000000
00000000
00000000
00001000
00000000
00000000
00010000
00000000
00000000
,
00000100
00000000
00000010
00000000
00001000
00010000
00000000
00000100
00000000
00000000
00010000
00000000
00000000
00001000
00000000
00000000
,
00010000
00000000
01000000
00000000
10000000
00100000
00000000
01000000
00010000
00000000
00100000
00000000
00001000
00010000
00000000
00000100
,
00000010
00000001
00000001
00000001
,
00000100
00001000
00010000
01000000
00100000
00001000
00010000
00000100
,
00000010
00000001
00001000
00000010
00000100
00001000
00010000
00100000
,
01000000
00001000
00010000
00000010
00000100
00001000
00000100
00000010
,
00001000
00000100
00010000
00001000
00100000
01000000
10010000
00000000
,
01000000
00000000
00100000
10000000
00000000
01000000
00100000
00001000
,
00010000
00000000
00000100
00000010
00000000
00000001
00001000
00000010
,
00000100
00000000
00000001
00000001
00000000
00000100
00000000
00000100
,
00000000
00000000
00001000
00000000
00000000
00001000
00000000
00000000
00010000
00000000
00000000
00010000
00000000
00010000
00000000
00100000
,
02000000
00000000
00000000
00010000
00000000
00000000
00100000
00000000
00000000
00010000
00000000
00000000
03001000
00000000
00010000
00000000
,
00002000
00000000
00000000
01000000
00000000
00000000
00010000
00000000
00000000
01000000
00000000
00000000
00013000
00000000
00000100
00000000
,
00000020
00000000
00000000
00001000
00000000
00000000
00000100
00000000
00000000
00001000
00000000
00000000
00000130
00000000
00000001
00000000
,
00001000
00000000
00000000
00001000
00000000
00000000
00001000
00000000
00000001
00000000
00000000
00000001
00000000
00000000
00000001
00000000
,
00000100
00001000
00010000
00001000
00000000
00000100
00000010
00010000
,
00001000
00010000
01000000
00100000
00000000
00010000
10000000
01000000
,
00010000
00001000
00000010
00001000
00000000
00010000
00000010
00000100
,
00000001
00000000
00000000
00001000
00000000
00000000
00001100
00000000
00010000
00000000
00000000
00001000
00000000
00000000
00011000
00000000
,
02000000
00010000
00100000
10000000
,
00100000
00000000
00000000
00000000
03010000
00000000
10000000
00000000
10000000
00000000
00000000
01000000
00000000
00000000
01000000
00000000
,
00010000
00000000
00000000
00000000
00001000
00000000
00000100
00000000
00000010
00000000
00000000
00000010
00000000
00000000
00000010
00000000
,
00001000
00000000
00000000
00001000
00000000
00000000
00001000
00000000
00000100
00000000
00000000
00000100
00000000
00000000
00000100
00000000
,
00010000
00012000
01003000
01010000
,
00100000
02010000
03001000
00011000
,
00000100
00000021
00000130
00001100
,
00000110
00000000
00000000
00000000
00010100
00000000
00000000
00000000
00001000
00000000
01000000
00000000
00010000
10000000
00010000
00000000
,
01000000
00100000
00010000
00100000
10000000
01000000
01100000
00000000
,
00001000
00010000
00000100
00000010
00000001
00001000
00001100
00000000
,
00000010
00001000
00000010
00000001
00000100
00000010
00000001
00000010
,
00001000
00000100
00000010
00001000
00010000
01000000
01100000
00000000
,
00010000
00000000
10000000
00100000
00000000
01000000
00001000
00010000
,
00000100
00000011
00001001
00001010
,
00000100
00000000
00000010
00000010
00000000
00010000
00000000
00001000
,
01000000
00000000
00100000
00000000
10000000
00000000
00000000
00000000
01000000
00000000
00100000
00000000
00001000
00010000
00001000
00000000
,
01000000
00000000
00000000
00000000
,
00000000
00000000
00000000
00000000
;

//---------------dance-single - ----------------
#NOTES:
     dance-single:
     :
     Challenge:
     19:
     1.019932,1.166751,0.079438,0.079438,1.717855,719.000000,711.000000,8.000000,8.000000,0.000000,0.000000,1.019932,1.166751,0.079438,0.079438,1.717855,719.000000,711.000000,8.000000,8.000000,0.000000,0.000000:
// measure 0
0000
0000
0000
0000
,  // measure 1
0000
0000
0000
0000
,  // measure 2
0000
0000
0000
0000
,  // measure 3
0001
0000
0000
0001
0000
1000
0010
0100
0001
0010
0000
0100
0000
1000
0010
1000
,  // measure 4
0001
0000
0100
0010
0000
1000
0001
1000
0100
0010
0000
0001
0000
1000
0000
0001
,  // measure 5
0100
0000
0010
1000
0000
1000
0001
0010
0001
0100
0010
0100
0000
0001
1000
0100
,  // measure 6
1000
0000
0010
0100
0000
0010
1000
0001
0010
0001
0000
1000
0000
0001
0000
0100
,  // measure 7
0010
0000
1000
0001
0000
0010
0100
0010
0001
1000
0100
1000
0000
0001
0010
0100
,  // measure 8
1000
0000
0010
0000
1000
0000
0010
0000
1000
0000
0000
0000
0001
0000
0000
0000
0010
0000
0100
0000
0010
0000
0100
0000
0010
0000
0000
0000
0001
0000
0000
0000
1000
0000
0100
0000
1000
0000
0100
0000
1000
0000
0000
0000
0010
0000
0000
0000
0100
0000
0001
0000
0100
0000
0001
0000
0100
0000
0000
0000
0010
0000
1000
0001
,  // measure 9
1000
0000
0100
0010
0000
0010
0001
0100
0010
1000
0000
0001
0000
1000
0010
0100
,  // measure 10
0001
0010
0000
0001
1000
0100
0010
0001
1000
0001
0000
0010
0100
0010
0001
1000
,  // measure 11
0100
0000
1000
0001
0000
0100
0010
0001
0010
0000
0100
1000
0000
0010
0100
0001
,  // measure 12
1000
0010
1000
0010
0000
0100
0001
1000
0001
0000
0100
0010
1000
0100
0001
0100
,  // measure 13
1000
0100
0000
0010
0001
0000
0100
0010
1000
0001
0000
0010
0001
0000
0100
0010
,  // measure 14
1000
0100
0000
1000
0001
0000
0010
0100
1000
0010
0000
0100
0001
0010
0001
1000
,  // measure 15
0100
0000
0010
0001
1000
0000
0010
0100
0001
1000
0000
0100
0010
0001
1000
0100
,  // measure 16
0010
0000
0100
1000
0000
0001
0100
0010
1000
0100
1000
0000
0001
0010
0100
0000
,  // measure 17
1100
0000
0010
0100
0000
0001
1000
0001
0010
0000
0100
1000
0000
0010
1000
0001
,  // measure 18
0100
0000
0010
1000
0010
1000
0001
0100
1000
0100
0001
1000
0001
0010
0100
1000
,  // measure 19
0001
0000
0100
0010
0000
1000
0100
0001
0100
0000
1000
0010
0000
1000
0001
0100
,  // measure 20
0001
0000
0010
0100
1000
0010
1000
0001
0010
0000
0001
0100
0000
0010
1000
0001
,  // measure 21
1000
0000
0010
0001
0000
0010
1000
0100
0010
0000
0001
0100
0010
1000
0001
0000
,  // measure 22
0010
0000
0100
1000
0001
1000
0010
0100
0010
0000
1000
0100
0000
0010
0001
1000
,  // measure 23
0010
0000
1000
0100
0001
0100
1000
0010
0100
0001
1000
0001
0010
0100
1000
0010
,  // measure 24
0100
0101
1100
0101
,  // measure 25
1001
0000
0010
1000
0000
0100
0010
0001
0100
0001
0010
0100
0000
1000
0100
1000
,  // measure 26
0100
0001
0100
0010
0001
0100
0010
1000
0001
0010
0100
1000
0001
0100
0010
1000
,  // measure 27
0100
0000
1000
0010
0100
0001
0100
0010
1000
0000
0001
0010
0000
0001
0010
1000
,  // measure 28
0100
1000
0010
1000
0000
0001
0010
0001
0100
0010
1000
0010
1000
0001
0010
0100
,  // measure 29
1000
0001
1000
0010
0000
0100
0001
0000
0010
0100
1000
0001
0000
0100
0010
0000
,  // measure 30
1000
0100
0001
0100
1000
0010
0000
0100
0001
0000
0010
0100
1000
0010
1000
0001
,  // measure 31
0010
0100
0000
1000
0001
0000
0100
0010
0000
1000
0010
0001
0000
0010
1000
0000
,  // measure 32
0100
0000
1000
0010
0000
0100
0001
0010
0001
1000
0100
0010
0000
0001
1000
0000
,  // measure 33
0110
0000
0001
0100
0000
0010
2000
0000
0000
0000
3200
0000
2300
0000
3002
0000
,  // measure 34
0013
0000
0001
1000
0000
0100
0020
0000
0000
0000
0032
0000
2003
0000
3002
0000
,  // measure 35
0103
0000
0010
1000
0000
0100
0010
0000
0001
0100
0001
0010
0001
0100
0001
1000
,  // measure 36
0100
0000
1000
0001
0000
0001
0010
0000
0100
0000
1000
0010
0000
0010
0100
0000
,  // measure 37
1010
0000
0001
0010
0000
0010
0100
0000
1000
0010
0100
0001
1000
0100
1000
0000
,  // measure 38
0001
0010
0100
1000
0000
0010
0100
0000
0001
0010
1000
0010
0100
1000
0001
0000
,  // measure 39
0110
0000
1000
0001
0000
1000
0100
0010
0001
0100
0001
0000
1000
0100
0010
0001
,  // measure 40
0100
0010
0001
1000
0001
0010
0100
1000
0010
0100
0001
1000
0001
1000
0010
0100
,  // measure 41
0001
0000
0010
0100
0000
1000
0010
1000
0100
0000
1000
0001
0000
0010
0100
0000
,  // measure 42
1000
0000
0001
0010
0000
0001
0100
0001
0010
0000
0100
1000
0000
1000
0001
0000
,  // measure 43
0100
0000
0010
1000
0000
0001
0010
0000
0100
0000
0010
0001
0000
1000
0100
0000
,  // measure 44
1000
0000
0010
0100
0000
0001
1000
0001
0010
0000
0100
1000
0000
0010
0100
0001
,  // measure 45
0100
0010
1000
0010
0100
0001
1000
0000
0100
0010
0001
1000
0001
0100
0010
1000
,  // measure 46
0001
0010
0100
1000
0100
0010
0001
0000
1000
0010
1000
0100
1000
0010
0001
0000
,  // measure 47
0100
0010
1000
0001
0010
0100
1000
0000
0001
1000
0100
0001
0100
0010
0100
0000
,  // measure 48
1000
0000
0010
0100
0010
1000
0001
1000
0010
0001
0010
1000
0010
0100
0001
1000
,  // measure 49
0010
1000
0100
1000
0001
0010
0100
1000
0010
0000
0100
0001
0000
0001
1000
0001
,  // measure 50
0010
0000
0100
0001
1000
0001
0010
0000
1000
0010
0100
0001
1000
0001
0100
0000
,  // measure 51
0001
1000
0010
1000
0100
0010
1000
0000
0010
0001
1000
0000
0010
0100
0001
0000
,  // measure 52
0100
0000
1000
0010
1000
0100
0010
0001
1000
0100
0010
0001
0010
1000
0010
0100
,  // measure 53
0010
0001
0100
0001
0000
0001
1000
0100
0000
0100
1000
0010
0000
0010
1000
0100
,  // measure 54
0001
0100
1000
0010
0100
0001
1000
0100
1000
0000
0010
0100
1000
0100
0001
1000
,  // measure 55
0010
0001
1000
0001
0010
1000
0001
0100
0010
1000
0100
0001
0010
0100
1000
0100
,  // measure 56
0010
0000
0001
0000
1000
0000
0001
0000
0100
0000
0010
0000
1000
0000
0100
0000
1000
0001
1000
0001
1000
0000
0100
0000
0010
0001
0010
0001
0010
0000
0100
0000
,  // measure 57
1000
1000
1000
1000
,  // measure 58
1000
1000
1000
1000
;
