#TITLE:Swing, Swing;
#ARTIST:The All-American Rejects;
#BANNER:Swing, Swing-bn.png;
#BACKGROUND:Swing, Swing-bg.png;
#JACKET:Swing, Swing-jacket.png;
#MUSIC:Swing, Swing.ogg;
#SAMPLESTART:45;
#SAMPLELENGTH:20;
#DISPLAYBPM:128;
#BPMS:0=128;
#BGCHANGES:;

//---------------dance-single - ----------------
#NOTES:
     dance-single:
     :
     Beginner:
     3:
     :
0000
0000
0000
0000
,
0000
0000
0000
0000
,
0000
0000
0000
0000
,
0000
0000
0000
0000
,
2000
0000
3000
0000
,
0002
0000
0003
0000
,
0200
0000
0300
0000
,
0020
0000
0000
0030
,
0000
1000
1000
0000
,
0001
0000
0010
0010
,
0000
0001
0001
0000
,
1000
0000
0100
0100
,
0000
0000
1000
0000
,
0010
0000
0100
0000
,
0001
0000
0010
0000
,
0001
0000
1000
0000
,
0010
0000
0100
0000
,
0001
0000
1000
1000
,
0000
0000
0100
0000
,
0110
0000
0000
0000
,
0010
0000
0001
0000
,
1000
0000
0010
0010
,
0000
0000
1000
0000
,
1001
0000
0000
0000
,
0001
0000
0001
0000
,
1000
0000
1000
0000
,
0020
0000
0000
0030
,
0000
0100
0100
0000
,
0001
0002
0000
0003
,
0000
0010
0010
0000
,
0100
0200
0300
0000
,
1000
0000
0010
0000
,
1000
0000
0001
0000
,
0010
0000
0010
0000
,
0010
0000
0001
0000
,
0200
0000
0300
0000
,
0020
0000
0030
0000
,
1000
0000
1001
0000
,
0010
0000
0100
0000
,
0002
0000
0003
0000
,
1000
0000
0010
0000
,
0100
0000
0110
0000
,
0001
0000
1000
0000
,
1001
0000
0000
0000
,
0110
0000
0000
0000
,
0001
0000
0000
0000
,
1000
0000
0000
0000
,
1001
0000
0000
0000
,
0110
0000
0000
0000
,
0001
0000
1000
0000
,
0002
0000
0000
0003
,
0000
0100
0100
0000
,
0010
0020
0000
0030
,
0000
1000
1000
0000
,
0001
0002
0003
0000
,
0010
0000
0010
0000
,
0001
0000
1000
0000
,
0001
0000
1000
0000
,
0100
0000
0010
0000
,
0001
0001
0001
0000
,
1000
2000
0000
3000
,
0000
0010
0010
0000
,
0100
0200
0300
0000
,
0001
0000
0010
0000
,
0001
0000
1000
0000
,
0010
0000
0100
0000
,
0001
0000
0100
0000
,
0020
0000
0000
0000
,
0000
0000
0000
0000
,
0030
0000
0000
0000
;

//---------------dance-single - ----------------
#NOTES:
     dance-single:
     :
     Easy:
     6:
     :
0000
0000
0000
0000
,
0000
0000
0000
0000
,
0000
0000
0000
0000
,
0000
0000
0000
0000
,
2000
0001
0000
3001
,
0020
0100
0000
0130
,
0002
1000
0000
1003
,
0200
0010
0000
0310
,
0000
1001
1000
0001
,
0010
0110
1000
0001
,
0000
0101
0001
1000
,
0100
1100
1000
0010
,
0100
0000
1001
0001
,
0010
0000
0110
1000
,
0001
0000
1100
0010
,
0100
0001
1000
0101
,
0010
0010
1000
1000
,
0001
0100
0002
2003
,
3020
0030
1000
0001
,
0200
0300
0010
1000
,
0001
0001
0100
0100
,
0001
1000
0020
0230
,
0302
0003
1000
0100
,
2000
3000
0010
0100
,
0202
0303
2200
3300
,
0202
0303
2200
3300
,
2001
0001
0001
0100
,
3010
1001
0110
0001
,
1000
0020
0000
0130
,
0100
0110
1001
0010
,
1000
0002
0200
0303
,
0002
0003
2000
3000
,
0020
0030
0200
0300
,
0202
0303
2002
3003
,
1100
0001
1000
0010
,
0200
0000
0302
0000
,
0203
0000
0320
0000
,
1030
0000
2200
3300
,
0002
0003
1000
0110
,
2002
3003
0220
0330
,
0001
0010
0001
1000
,
0010
0000
0202
0303
,
1000
0001
0100
0010
,
0220
0300
2000
0030
,
0002
0000
0000
3003
,
0020
0000
0000
0030
,
0200
0000
0000
0300
,
2200
0300
0002
3003
,
0202
0300
2000
3003
,
2002
3003
0220
0330
,
2002
0000
0000
3003
,
0010
0101
1100
0001
,
0010
0002
0000
1003
,
1000
1100
0101
0010
,
1000
0200
0020
0330
,
0002
0003
0200
0300
,
0020
0030
2000
3000
,
2200
3300
2002
3003
,
0101
0010
0001
0100
,
1000
1001
1100
0010
,
0100
0002
0000
0013
,
0010
0101
0110
1000
,
0100
2000
0002
3003
,
2000
3000
0020
0030
,
0200
0300
0002
0003
,
2002
3003
0220
0330
,
1000
0001
1000
0100
,
0020
0000
0000
0000
,
0000
0000
0000
0000
,
0030
0000
0000
0000
;

//---------------dance-single - ----------------
#NOTES:
     dance-single:
     :
     Medium:
     9:
     :
0000
0000
0000
0000
,
0000
0000
0000
0000
,
0000
0000
0000
0000
,
0000
0000
0000
0000
,
1000
0000
0001
0000
1000
0100
0010
0000
,
0001
0000
0100
0000
0010
1000
0001
0000
,
0100
0000
0010
0000
1000
0001
0010
0000
,
0001
0000
0100
0000
0010
1000
0001
1000
,
0100
0000
1001
0000
0110
0000
0001
1000
,
0100
0000
1100
0000
1000
0010
0100
0002
,
0000
0000
0013
0000
0001
1000
0001
0100
,
0010
0000
0101
0000
1000
0010
1000
0001
,
0100
0000
0010
0000
2000
0000
3001
0100
,
0000
0000
0010
1000
0002
0000
0013
0100
,
0000
0000
1000
0010
0200
0000
0301
2000
,
0000
0000
3100
1000
0002
0000
0013
0000
,
0001
0101
1100
0101
,
0010
0000
0010
0000
0001
0100
1000
0000
,
0020
0000
0030
0000
1000
0001
1000
0100
,
0020
0000
0000
0032
0000
0000
2003
0000
,
3010
1010
0011
1010
,
0100
0000
0100
0000
1000
0010
0001
0000
,
0200
0000
0300
0000
0001
1000
0100
0010
,
0002
0000
0000
2003
0000
0000
3020
0000
,
2030
3100
0020
0031
,
0200
0301
2000
3010
,
0200
0000
0001
0000
0310
1000
0001
1000
,
0100
0000
1001
0000
0110
0000
0001
0100
,
1000
0100
0002
0000
2003
0000
3020
0000
,
0130
0000
0101
0000
1010
0000
1000
0010
,
0001
0010
2000
0000
3002
0000
0003
0000
,
2010
3001
0012
0103
,
0102
1003
1200
0310
,
0210
1300
2001
3010
,
1100
0000
0011
0000
1000
0001
0010
0100
,
2000
0000
3010
0200
0000
0000
0301
1000
,
0002
0000
0000
0023
0000
0000
0031
1000
,
0200
0000
0300
2100
0000
0000
3001
0000
,
0012
0000
0000
0000
0000
0000
2003
0000
0000
0000
0000
0000
3010
0000
0000
1000
,
0002
0000
0000
0023
0000
0000
0031
0100
,
0010
2000
0000
3002
0000
0013
0001
0100
,
0010
1000
0000
0102
0000
0000
0203
0000
,
0310
1000
0100
0010
0001
1000
0001
0000
,
0022
0030
2000
3000
,
0200
0000
0000
0303
,
0020
2030
3002
0023
,
0230
0302
0203
2300
,
3020
0000
1030
0001
0200
0000
0310
1000
,
0002
0000
0013
0000
0001
1000
0010
1000
,
0200
0000
0300
0010
0002
0000
0003
1000
,
0002
0100
1000
0010
,
0103
0000
0110
0000
1001
0000
0001
0010
,
1000
0010
0002
0000
2003
0000
3020
0000
,
0130
0000
0101
0000
1100
0000
1000
0010
,
0001
0010
2000
0000
3002
0000
0103
0000
,
1020
0130
0102
0013
,
0021
0031
1200
1300
,
0120
0031
1002
0103
,
1010
0000
0101
0000
0010
0001
1000
0100
,
1000
0000
1010
0000
0011
0000
0001
0100
,
1000
0100
0002
0000
0023
0000
0230
0000
,
1300
0000
1100
0000
0101
0000
1000
0010
,
0001
0010
2000
0000
3200
0000
0310
0000
,
0012
0013
2100
3001
,
0102
1003
2010
3100
,
1002
0013
0120
0031
,
0101
0000
1100
0000
0010
1000
0001
0200
,
0020
0000
0000
0000
,
0000
0000
0000
0000
,
0330
0000
0000
0000
;

//---------------dance-single - ----------------
#NOTES:
     dance-single:
     :
     Hard:
     12:
     :
0000
0000
0000
0000
,
0000
0000
0000
0000
,
0000
0000
0000
0000
,
0000
0000
0000
0000
,
1000
0000
0001
0010
0001
0100
0010
1000
,
0100
0000
0010
0001
1000
0001
0100
0010
,
1000
0000
0001
1000
0100
0010
0001
0100
,
0010
1000
0010
1000
0010
1000
0010
1000
,
0100
0000
1001
0000
0010
1000
0100
0010
,
0001
0000
0000
0000
0110
0000
0000
0000
1000
0000
0010
0000
0100
0000
0001
1000
,
0001
0000
0011
0001
1000
0010
1000
0100
,
0010
0000
0000
0000
1100
0000
0000
0000
0010
0000
1000
0000
0100
0000
1000
0001
,
1000
0000
0010
0010
0100
0001
1000
0100
,
0010
0000
0001
0001
1000
0010
1000
0100
,
1000
0000
0001
0001
0010
0001
0100
0020
,
1000
0000
0000
0000
0130
0000
0001
0000
1000
0000
0001
0000
0010
0000
0100
1000
,
0100
0000
1000
0001
0010
0001
0100
0010
,
1000
0100
0001
0100
2000
0001
3002
0000
,
0103
0010
1000
0001
0010
0001
1000
0100
,
0010
0001
0100
0020
0000
1030
0100
1000
,
0001
0000
0010
0001
1000
0100
1000
0010
,
0100
1000
0100
0001
0200
0010
0320
0000
,
1030
0010
1000
0001
0010
0100
1000
0001
,
0200
0000
0301
2000
0000
3010
1000
0001
,
0102
0000
0013
0100
2100
0000
3001
1000
,
1020
0000
0130
0001
0021
0000
1030
0010
,
0002
0000
0103
0010
1000
0001
1000
0100
,
0010
0000
1001
0000
0110
0001
1000
0100
,
1000
0001
0020
0100
0130
1000
0001
0000
,
0100
0000
1010
0000
0101
1000
0010
0100
,
0001
1000
0020
1000
1030
0100
0010
0000
,
0011
0100
1000
0000
1010
0100
0001
0000
,
1100
0010
0001
0000
0101
0010
1000
0000
,
0210
0001
0301
1000
0020
0100
0130
0001
,
1002
0000
0013
0000
0001
1000
0001
0100
,
0020
0000
1030
0100
2000
0000
3001
0100
,
0010
1000
0010
0100
0001
0010
0001
1000
,
0200
0000
0310
2100
0000
3001
0100
0000
,
0020
0000
0000
0000
1030
0000
0102
0000
0000
0000
0013
0000
0001
0000
0000
1000
,
0002
0000
0013
0100
2000
0000
3001
1000
,
0010
0100
0010
0001
0010
1000
0100
0010
,
0001
0000
0100
1010
0000
0001
1000
0000
,
0002
0010
0013
2000
0100
3100
1001
0000
,
0012
2000
3000
0000
0200
0000
0303
0000
,
0210
0000
0020
0000
0000
0000
0000
0000
0000
0000
0000
0000
0330
0000
0000
1000
,
0002
0010
1000
0100
,
1000
0000
1000
0000
0013
0001
0100
0000
,
0110
0110
0001
1000
0100
1000
0001
0100
,
1001
1001
1000
0010
1000
0001
0010
0100
,
2100
0000
3010
0100
1020
0000
1030
0001
,
0102
0000
1003
0001
1000
0010
0100
0001
,
0010
0000
1001
0000
0110
1000
0001
0100
,
0010
1000
0002
0010
0013
0100
1000
0000
,
0010
0000
0101
0000
1100
0100
1000
0001
,
0010
0001
2000
0010
3010
1000
0100
0000
,
1010
0001
0010
0000
0101
0010
1000
0000
,
1100
0001
0100
0000
0011
1000
0100
0000
,
2001
0010
3010
0100
0002
1000
1003
0100
,
0120
0000
0031
0000
1000
0001
0010
0100
,
1000
0000
1100
0000
0011
0001
0010
0100
,
1000
0001
0020
0001
0031
0100
0010
0000
,
0100
0000
1010
0000
1001
1000
0001
0010
,
1000
0000
0010
0000
0002
0000
1000
0000
1003
0000
0010
0000
0100
0000
0001
1000
,
0001
0100
0010
0000
0101
1000
0001
0000
,
0011
0100
0010
0000
1010
1000
0100
0000
,
2100
0001
3001
1000
0020
0100
0130
0001
,
1002
0000
0013
0000
1000
0001
1000
0100
,
0020
0000
0000
0000
,
0000
0000
0000
0000
,
0030
0000
0000
0000
;
