#TITLE:Sweet Thing;
#ARTIST:Keith Urban;
#BANNER:Sweet Thing-bn.png;
#BACKGROUND:Sweet Thing-bg.png;
#JACKET:Sweet Thing-jacket.png;
#MUSIC:Sweet Thing.ogg;
#OFFSET:1.602;
#SAMPLESTART:5.388;
#SAMPLELENGTH:20;
#LASTBEATHINT:1.02;
#DISPLAYBPM:103;
#BPMS:0=103,91.5=113,92=103,107.75=123,108=103;
#BGCHANGES:;

//---------------dance-single - ----------------
#NOTES:
     dance-single:
     :
     Beginner:
     3:
     :
0000
0000
0000
0000
,
0000
0000
0000
0000
,
0000
0000
0000
0000
,
0000
1000
0000
1000
,
0000
0001
0000
0001
,
0000
0100
0000
0100
,
0000
0010
0000
0010
,
0000
1000
1000
0000
,
0000
0001
0001
0000
,
0100
0000
0010
0000
,
1000
0000
0001
0000
,
0010
0000
0001
0000
,
0100
0100
0000
0000
,
0000
0010
0010
0000
,
1000
0000
0001
0000
,
0010
0010
0000
0000
,
0100
0100
0000
0000
,
2000
0000
3000
0000
,
0010
0000
0100
0000
,
0002
0000
0003
0000
,
1000
0000
0001
0000
,
0200
0000
0300
0000
,
0020
0000
0030
0000
,
1000
1000
1000
0000
,
0001
0000
0100
0000
,
0010
0010
0010
0000
,
1000
0000
0001
0000
,
0100
0100
0100
0000
,
0001
0001
0001
0000
,
0010
0000
0001
0000
,
0100
0000
0010
0000
,
1000
0000
0100
0000
,
1000
1000
1000
1000
,
1000
0000
0001
0000
,
0100
0000
0010
0000
,
0100
0000
0001
0000
,
0010
0010
0010
0000
,
1001
0000
0000
0000
,
0100
0000
0010
0000
,
0110
0000
0000
0000
,
1000
0000
0001
0000
,
0200
0000
0300
0000
,
0020
0000
0030
0000
,
0100
0100
0100
0000
,
0001
0000
1000
0000
,
0001
0001
0001
0000
,
0010
0000
0100
0000
,
1000
1000
1000
0000
,
0010
0010
0010
0000
,
1000
1000
0000
0000
;

//---------------dance-single - ----------------
#NOTES:
     dance-single:
     :
     Easy:
     8:
     :
0000
0000
0000
0000
,
0000
0000
0000
0000
,
0000
0000
0000
0000
,
0000
1000
0100
1000
,
0000
0001
0100
0001
,
0000
1000
0010
1000
,
0000
0001
0010
0001
,
0000
0100
0010
0100
,
0000
0001
1000
0001
,
0100
0010
1000
0010
,
1000
0100
1000
0001
,
0010
0001
0100
0010
,
1000
0100
2000
0000
0000
0000
3000
0000
,
0000
1001
0010
1000
,
0100
1000
0001
0100
,
0010
0110
0000
0000
,
0001
1000
0002
0000
0100
0000
0013
0000
,
1000
0001
0100
0000
0001
0000
1000
0000
,
0010
1000
0100
0001
,
0100
0010
1000
0000
0001
0000
1000
0000
,
0001
0001
0001
0000
1000
1000
1000
0000
,
0020
0200
0000
0000
0330
0000
0110
0000
,
0002
2000
0000
0000
3003
0000
1001
0000
,
1000
0100
2000
0000
3002
0000
2003
0000
,
3010
1000
0001
1000
,
0010
1000
0020
0000
0230
0000
0320
0000
,
1030
0000
0001
0000
1000
0100
0010
0000
,
1001
0000
0110
0000
1000
0001
0000
0000
,
0010
0100
2000
0000
0000
0000
3002
0000
,
0013
0010
0001
1001
,
1000
0100
0100
0000
1000
0000
0110
0000
,
0001
1000
0010
1001
,
0100
0000
0010
0000
0100
0000
0010
1000
,
0000
0001
0020
0000
0130
2000
0000
3010
,
0200
0000
0301
2000
0000
3100
0010
0000
,
0001
0100
1000
0110
,
2000
3020
0230
0302
,
0013
0020
0000
0000
0000
0000
0030
0000
,
0001
0100
1000
0010
,
0100
0200
0000
0000
0000
0000
0300
0000
,
0001
0010
0100
1000
,
0002
2000
0000
0000
3003
0000
1001
0000
,
1000
0100
0010
0000
0001
0000
0110
0000
,
1000
0001
0200
0000
0320
0000
0230
0000
,
0301
0010
0001
1000
,
0100
0010
0002
0000
2003
0000
3002
0000
,
0013
0000
0100
0000
1000
1000
0001
0001
,
1001
0000
0110
0000
1000
0001
0000
0000
,
1000
0010
0100
0000
0001
0000
1000
0001
,
0010
0002
2000
0000
0000
0000
0000
0000
,
0000
0000
0000
0000
,
0000
0000
0000
0000
,
3003
0000
0000
0000
;

//---------------dance-single - ----------------
#NOTES:
     dance-single:
     :
     Medium:
     10:
     :
0000
0000
0000
0000
,
0000
0000
0000
0000
,
0000
0000
0000
0000
,
0000
1000
0001
0100
0001
0010
0100
1000
,
0000
0010
1000
0100
1000
0001
0100
0010
,
0000
1000
0100
0010
0100
0010
0001
1000
,
0000
0001
0100
0010
0100
0001
1000
0010
,
0000
0000
2000
0000
0000
3020
0000
0000
0230
0000
0000
0302
0000
0000
0013
0000
,
0000
0000
0002
0000
0000
2003
0000
0000
3020
0000
0000
0230
0000
0000
0301
1000
,
0001
0100
0010
0100
1000
0100
0001
0010
,
0001
1000
0010
0100
1000
0100
0001
0010
,
0001
1000
0010
1000
0100
0010
0100
0001
,
0100
1000
0100
0000
0010
0000
0022
0000
0000
0000
0000
0000
0000
0000
0000
0033
,
0000
0001
0001
0100
0010
1000
0010
0100
,
1000
0100
0001
0010
0001
0100
0010
1000
,
0001
0100
0001
0000
0202
0000
0000
0000
0000
0000
0303
0000
0000
1000
0100
0000
,
1000
0000
0001
0000
0100
0000
0010
0000
1000
0000
0100
0000
0010
0001
0010
0000
,
1001
0000
0110
0000
1000
0000
0000
0010
0000
0000
0100
0000
0001
0000
0000
0000
,
0010
0001
1000
0001
0010
0100
1000
0010
,
1010
0000
1100
0000
1000
0000
0000
0001
0000
0000
0100
0000
0010
0000
1000
0001
,
1000
0000
0100
0000
0010
0000
0001
0000
0100
0010
0100
0000
0001
0000
1000
0000
,
0020
0000
0230
0000
0302
0000
2003
0000
3000
0000
0000
0000
1000
0010
0000
0000
,
2000
0000
3002
0000
0203
0000
0320
0000
0030
0000
0000
0000
0100
0001
0000
0000
,
1100
0011
2000
0000
3020
0000
0230
0000
,
0301
1000
0100
1000
0010
0001
0010
1000
,
1010
0101
0020
0000
0032
0000
2003
0000
,
3010
1000
0100
1000
0001
0100
0001
0010
,
0110
0000
0000
0000
1001
0000
0000
0100
0010
0100
0010
0000
0000
0000
0000
0000
,
1000
0010
0100
0001
1000
0100
0010
0001
,
0101
0000
0000
0000
0101
0000
0000
0000
1000
0010
0000
0200
0000
0000
0000
0000
,
0300
0000
1010
0000
1010
0000
0000
0000
1000
0001
0000
0200
0000
0000
0300
0000
,
0110
0000
0000
0000
0110
0000
0000
0000
1000
0001
0000
0020
0000
0000
0030
0000
,
0002
0000
0000
2003
0000
0000
3002
0000
0000
2003
0000
0000
3200
0000
0300
0000
,
1100
0000
0000
0000
1100
0000
0000
0000
0001
0100
0000
0020
0000
0000
0000
0000
,
0030
0000
1001
0000
1001
0000
0000
0000
1000
0001
0000
0020
0000
0000
0000
0000
,
0032
0000
0000
0203
0000
0000
0320
0000
0000
2030
0000
0000
3001
0000
0000
1000
,
0001
0000
0010
0000
0100
0000
1000
0010
0000
1000
0010
0000
0100
0000
0001
0000
,
0011
0022
0000
0000
0000
0000
0033
0000
,
1000
0001
0100
0010
1000
0100
0010
0001
,
2000
0020
0000
0000
0000
0000
3030
0000
,
0100
0000
0001
0000
0010
0000
0100
0000
1000
0001
1000
0000
0010
0000
0100
0000
,
0002
0000
0200
0000
0000
0000
0000
0000
0303
0000
0000
0000
0001
1000
0001
0000
,
2000
0000
3020
0000
0230
0000
0302
0000
1003
0000
0100
0000
0010
0001
0000
0000
,
0011
1010
0002
0000
2003
0000
3200
0000
,
1300
0010
1000
0001
0010
0100
1000
0001
,
0101
1100
0020
0000
2030
0000
3200
0000
,
0310
0001
1000
0100
0110
1001
1010
0101
,
1001
0000
0000
0000
0110
0000
0000
1000
0001
1000
0001
0000
0000
0000
0000
0000
,
0010
0000
0002
0000
2003
0000
3010
0000
1000
0000
0001
0100
0000
0001
0100
0000
,
0001
0011
2200
0000
0000
0000
0000
0000
,
0000
0000
0000
0000
,
0000
0000
0000
0000
,
3300
0000
0000
0000
;

//---------------dance-single - ----------------
#NOTES:
     dance-single:
     :
     Hard:
     13:
     :
0000
0000
0000
0000
,
0000
0000
0000
0000
,
0000
0000
0000
0000
,
1100
0000
1000
0100
0010
0000
0001
0000
0100
0010
0100
0010
1000
0000
0000
0000
,
0101
0000
0010
1000
0001
0000
0100
0000
0001
0010
0001
0010
0100
0000
0000
0000
,
0011
0000
1000
0001
0100
0000
0010
0000
1000
0001
1000
0001
0100
0000
0000
0000
,
1010
0000
0001
1000
0100
0000
0010
0000
0001
1000
0001
1000
0010
0000
0000
0000
,
0110
0000
0001
0010
0000
0100
0000
0000
1000
0010
0000
0100
0001
0000
0000
0000
,
1001
0000
0010
1000
0000
0001
0000
0000
1000
0100
0000
0010
0000
0000
0001
0100
,
0001
0000
1000
0010
0000
0100
0000
0010
0000
1000
0000
0001
0000
1000
0100
1000
,
0001
0000
0010
0000
0001
0000
1000
0010
0100
0000
0001
1000
0000
0010
0100
0000
,
0001
0010
1000
0010
0001
0000
0100
0000
0010
0000
1000
0001
0000
1000
0100
0000
,
1000
0001
1000
0000
0100
0000
0011
0000
0000
0000
0001
0010
0100
0010
0000
0000
,
0001
1000
0001
0000
0100
0000
0010
1000
0100
0000
1000
0010
0000
0100
0001
0000
,
1001
0000
1010
0000
1100
0000
0001
0000
0010
0100
0000
0010
0000
0001
1000
0001
,
0100
0010
1000
0000
0110
0000
0000
0101
0000
0001
1000
0000
0001
0010
0100
0000
,
1000
0000
0001
0000
0100
0010
0100
0000
0001
0000
0001
0000
1000
0010
1000
0000
,
0101
0000
1100
0000
0010
0000
0100
0001
0000
0100
0001
0000
1000
0000
0000
0010
,
1000
0000
0100
0010
0000
0001
0000
0100
0010
0000
1000
0001
0000
1000
0100
0010
,
0001
0000
1010
0000
0011
0000
0100
0010
0000
1000
0001
0000
1000
0000
0010
0100
,
0010
0000
1001
0000
0110
0000
1000
0100
0001
0100
1000
0000
0010
0000
0100
0001
,
2000
0000
3020
0000
0230
0000
0302
0000
0003
0000
0000
0000
0001
1000
0010
0100
,
0002
0000
0023
0000
0230
0000
2300
0000
3010
0100
0010
0100
0001
1000
0000
0000
,
1001
0000
0101
0000
0021
0000
0001
0000
0230
0000
0010
0000
1300
0000
0001
1000
,
0010
0000
1000
0100
0000
1000
0001
0010
0000
0001
0000
0100
0000
0001
1000
0000
,
1010
0000
1100
0000
0120
0000
0100
0000
0032
0000
1000
0000
0013
0000
0100
0010
,
0001
1000
0000
0010
0000
1000
0100
0010
0001
0000
0100
0000
0010
0100
0001
0000
,
1001
0000
0110
0000
1001
0000
0000
1000
0100
0010
0001
0100
0001
0010
0001
1000
,
0020
0000
0230
0000
0301
0010
0001
0000
1000
0100
1000
0000
0010
0100
0001
1000
,
0020
0000
0000
0000
0230
0000
0000
0000
0301
1000
0000
0202
0000
0000
0303
0001
,
0010
0000
0011
0000
2200
0000
3300
0001
1000
0010
0000
2020
0000
0000
3030
0000
,
2002
0000
3003
0000
0022
0000
0033
0010
0001
1000
0000
0220
0000
0000
0330
0000
,
0202
0000
0303
2200
0000
3300
0202
0000
0303
2200
0000
3300
0001
0010
0100
1000
,
0001
0101
1010
0100
1100
0011
1000
0101
,
1100
0010
1010
0011
0100
1001
0110
0000
,
2020
0000
3000
0002
0000
0003
2000
0000
3000
0200
0000
0330
0220
0000
0330
0001
,
1000
0100
1000
0100
0010
0001
0010
0001
1000
0010
1000
0010
0100
0001
0100
0001
,
1000
0000
0001
0000
0100
0000
0010
1000
0000
0010
0100
0000
0001
0000
0000
0000
,
0010
0000
0001
0000
0100
0000
0001
1000
0000
0010
1000
0000
0100
0000
0000
0000
,
0010
0000
0100
0000
1000
0000
0010
0100
0000
0001
1000
0000
0001
0000
0000
0000
,
1000
0000
0100
0000
0010
0000
0001
0000
0100
0010
0100
0000
0001
0000
1000
0010
,
1000
0000
0001
0000
0100
0000
0010
1000
0000
0010
1000
0000
0001
0100
0001
0100
,
0010
0000
0110
0000
1001
0000
0000
0000
1000
0001
0100
0010
1000
0001
0100
0010
,
1000
0000
1100
0000
0102
0000
0010
0000
2003
0000
0001
0000
3100
0000
1000
0001
,
1000
0010
0000
0100
0000
0001
0010
0001
0000
1000
0000
0100
0000
1000
0001
0000
,
0011
0000
0110
0000
2100
0000
0000
3020
0000
0000
0130
0000
0001
1000
0010
0100
,
0001
0100
0000
0010
0000
1000
0100
1000
0002
0000
0203
0000
0320
0000
1030
0000
,
1001
0000
0110
0000
1001
0000
0000
0001
0010
0100
1000
0100
0010
0100
1000
0000
,
1010
0000
0101
0000
0011
0000
1100
0000
1001
0000
0110
0000
0001
1000
0010
0100
,
0001
0011
2200
0000
0000
0000
0000
0000
,
0000
0000
0000
0000
,
0000
0000
0000
0000
,
3300
0000
0000
0000
;

//---------------dance-single - ----------------
#NOTES:
     dance-single:
     :
     Challenge:
     15:
     :
0000
0000
0000
0000
,
0000
0000
0000
0000
,
0000
0000
0000
0000
,
1100
0000
1000
0100
0001
0100
0010
0100
0001
0100
0010
0100
1000
0100
0010
0001
,
0000
0000
0001
0100
1000
0100
0010
0100
1000
0100
0010
0100
0001
0100
0010
1000
,
0000
0000
1000
0010
0100
0010
0001
0010
0100
0010
0001
0010
1000
0010
0100
0001
,
0000
0000
0001
0010
1000
0010
0100
0010
1000
0010
0100
0010
0001
0010
0100
1000
,
0000
0000
0010
1000
0010
0100
0000
0100
0001
0010
0001
1000
0000
0010
0100
0001
,
0000
0000
1000
0100
0010
0100
0000
1000
0001
0010
0001
0100
0000
0000
1000
0001
,
1000
0000
0100
0010
0000
0001
0100
0001
0000
1000
0000
1010
0000
0100
0001
0010
,
0001
0100
1000
0000
0010
1000
0010
0100
0001
0010
0001
1000
0000
0100
1000
0001
,
0010
1000
0010
0001
0100
0000
0010
1000
0010
0100
0001
1000
0000
0100
1000
0001
,
0010
0100
1000
0000
1100
0000
0011
0000
1000
0010
0100
0010
1000
0010
0100
0010
,
0000
1000
0001
0010
0001
0000
0010
0100
1000
0100
1000
0001
0000
0100
0010
1000
,
0001
0000
0110
0000
1001
0000
0100
0000
0010
1000
0010
0100
0000
0001
1000
0001
,
0100
1000
0100
0001
0010
0000
0001
1000
0000
0001
1000
0000
0010
0100
0010
1000
,
0001
0100
1000
0100
0001
0010
0100
0000
1100
0000
0101
0000
1000
0010
0100
0001
,
1000
0000
0110
0000
0001
0100
0010
1000
0000
0001
0100
0000
0010
0000
1000
0001
,
0010
0001
0010
0100
0000
0100
0010
0100
1000
0010
1000
0001
0000
0001
1000
0100
,
0010
0000
1001
0000
0100
0001
0010
0001
0000
1000
0100
0000
1000
0001
1000
0010
,
0100
0000
1010
0000
0011
0000
1000
0100
0001
0010
0100
0000
1000
0001
1000
0100
,
0020
0000
0230
0000
1300
0010
1000
0001
0100
0010
0100
0001
1000
0010
0100
0001
,
2000
0000
3002
0000
0103
0010
0100
0010
1000
0001
1000
0100
0001
0100
1000
0010
,
0100
0000
0101
0000
1000
0100
0010
0000
0001
0100
0010
0000
1000
0001
0100
0010
,
1000
0100
1000
0001
0000
0010
0001
0100
0000
1001
0000
0010
1000
0001
0100
0000
,
0010
0000
1010
0000
0001
1000
0100
0000
1000
0001
0100
0000
0010
0100
0001
1000
,
0100
1000
0000
1100
0000
0010
0100
0001
1000
0001
0010
0000
0001
0100
1000
0000
,
0110
0000
0010
0000
0011
0000
0001
0100
1000
0100
0001
0010
1000
0010
0001
0100
,
0020
0000
0230
0000
0301
0001
1000
1000
0010
0010
0100
0100
0001
0010
0100
1000
,
2200
0000
3300
0000
0202
0000
0303
0010
1000
0001
1000
0200
0020
0000
0300
0000
,
0031
0000
1001
0000
0220
0000
0330
0010
1000
0100
1000
0001
0100
0010
1000
0001
,
0022
0000
0033
0000
2020
0000
3030
0001
1000
0010
1000
0001
0010
0100
1000
0010
,
1000
0100
0010
0001
0000
0100
0010
1000
0001
0010
0000
0001
0100
0010
1000
0100
,
0110
0000
1001
0000
0110
0000
0001
0100
0010
1000
0100
0010
0001
0100
0002
0000
,
1003
0000
1100
0000
0011
0000
0100
0001
0010
0001
0010
0100
1000
0010
1000
0001
,
1000
0010
0100
0001
0000
0010
0001
1000
0001
0100
0010
1000
2020
0000
3030
0001
,
1000
0001
0100
0010
0001
0100
0001
0100
0010
0100
0010
0001
1000
1000
0010
1000
,
1001
0000
0110
0000
1000
0010
1000
0010
0000
0100
0001
0000
1001
0000
0000
0010
,
1000
0000
0001
0100
0000
0001
0010
0100
1000
0000
0010
0100
0000
0001
1000
0001
,
0100
0000
0101
0000
1000
0001
1000
0001
0000
0010
0100
0000
0010
0001
0100
0002
,
0000
0000
1000
0000
1003
0000
0010
0100
0001
0100
0010
0000
1000
0001
0100
0010
,
1000
0000
0001
0100
0001
0010
0100
1000
0000
0010
0100
0010
1000
0001
1000
0100
,
0010
1000
0100
0001
0001
0001
0100
0010
0010
0100
1000
1000
0001
1000
0010
0100
,
0001
0010
1000
0010
0001
0100
0001
0000
1000
0100
1000
0000
0010
0100
0001
1000
,
0100
0010
0100
1000
0010
1000
0001
0100
0000
0010
0000
0100
0001
0010
0001
0000
,
1000
0100
0001
0100
1000
0010
1000
0000
0001
0010
0001
0000
0100
0010
1000
0001
,
0010
0001
0010
0100
0000
1000
0001
1000
0001
0100
0010
1000
0001
0010
0100
0010
,
0001
0100
0010
0100
0001
0000
0000
1000
0001
0100
1000
0100
0010
1000
0010
1000
,
0100
0000
1100
0000
0110
0000
0011
0000
0101
0000
1001
0000
1010
0001
0100
0001
,
1000
0101
2200
0000
0000
0000
0000
0000
,
0000
0000
0000
0000
,
0000
0000
0000
3300
;
