#TITLE:Sweet Disposition;
#ARTIST:The Temper Trap;
#BANNER:Sweet Disposition-bn.png;
#BACKGROUND:Sweet Disposition-bg.png;
#JACKET:Sweet Disposition-jacket.png;
#MUSIC:Sweet Disposition.ogg;
#SAMPLESTART:66.75;
#SAMPLELENGTH:20;
#DISPLAYBPM:127:131;
#BPMS:0=129,28=128,48=130,64=128.74,84=129.68,88=129.029,108=127,112=128.49,120=130.363,128=127.375,132=129.4,168=131,172=128.91,180=130.4,196=129.014,228=129.929;
#BGCHANGES:;

//---------------dance-single - ----------------
#NOTES:
     dance-single:
     :
     Beginner:
     3:
     :
0000
0000
0000
0000
,
0000
0000
0000
0000
,
0010
0000
1000
0000
,
0001
0000
0100
0000
,
2000
0000
0000
0000
,
3000
0000
0000
0000
,
0020
0000
0030
0000
,
0200
0000
0300
0000
,
0002
0000
0000
0000
,
0003
0000
0000
0000
,
1000
0000
0010
0000
,
0100
0000
0001
0000
,
0020
0000
0000
0000
,
0030
0000
0000
0000
,
0002
0000
0000
0000
,
0003
0000
1000
0000
,
1000
2000
0000
0000
,
0000
0000
3000
0000
,
0010
0000
0100
0000
,
0001
0000
1000
0000
,
0020
0000
0030
0000
,
1000
1000
0000
0000
,
0001
0001
0000
0000
,
0200
0000
0300
0000
,
0010
0020
0000
0000
,
0030
0000
0000
0100
,
0100
0000
0010
0000
,
1000
0000
0001
0000
,
0200
0000
0000
0000
,
0300
0000
0000
0001
,
0002
0000
0003
0000
,
2000
0000
3000
0000
,
0020
0000
0000
0000
,
0030
0000
0000
0100
,
0100
0000
0001
0000
,
1000
0000
0010
0000
,
0100
0100
0100
0000
,
0001
0000
1000
0000
,
0001
0000
0100
0000
,
0010
0000
1000
0000
,
0001
0001
0001
0000
,
0010
0000
0001
0000
,
1000
1000
1000
0000
,
0010
0000
0100
0000
,
2002
0000
0000
0000
,
3003
0000
0000
0010
,
0010
0000
0100
0000
,
0001
0001
0001
0000
,
0220
0000
0000
0000
,
0330
0000
0000
1000
,
1000
0000
0010
0000
,
0100
0000
0001
0000
,
1001
0000
0000
0000
,
0010
0010
0000
0000
,
0110
0000
0000
0000
,
1000
1000
1000
0000
,
1001
0000
0000
0100
,
0100
0000
0010
0000
,
1000
0000
0001
0000
,
0100
0100
0100
0000
,
0110
0000
0000
0001
,
0001
0000
0000
1000
,
1000
0000
0000
0010
,
0010
0000
0000
0100
,
0100
0000
0000
0000
;

//---------------dance-single - ----------------
#NOTES:
     dance-single:
     :
     Easy:
     7:
     :
0000
0000
0000
0000
,
0000
0000
0000
0000
,
0010
0010
1000
1000
,
0001
0000
0001
0000
0001
0000
0000
2000
,
0000
0000
0000
0000
,
3010
0000
0100
0000
0001
0000
0000
0020
,
0000
0000
0000
0000
,
0032
0000
0000
0000
0000
0000
0000
2003
,
0000
3020
0000
0000
0000
0000
0000
0000
,
0130
0100
0100
0100
,
1000
1000
0001
0001
,
1000
0000
0010
0000
1000
0000
0000
0002
,
1000
0000
0010
0000
,
1000
0000
0100
0000
1003
0000
0000
0020
,
0100
0000
0001
0000
,
1030
0000
0200
0300
,
2000
0002
0000
3003
,
0010
0010
0100
0100
,
0001
0001
1000
1000
,
0001
0000
0100
0000
0010
0000
0000
1000
,
0001
0100
1000
1001
,
0010
0000
0100
0000
0001
0000
1000
0020
,
0000
0230
0000
0000
0301
0000
0110
0000
,
0001
0000
0010
0000
0001
0000
1000
0200
,
0000
0320
0000
0000
0030
0000
0110
0000
,
0001
0100
1000
1001
,
0010
1000
0100
0110
,
1000
0000
0001
0000
0100
0020
0000
0230
,
0000
0002
0000
0000
0303
0000
1001
0000
,
1000
0000
0010
0000
1000
0000
0001
0200
,
0000
0010
0000
0310
,
2000
0000
0001
0000
3001
0000
0000
0020
,
0001
0001
0031
1001
,
0010
1000
0100
0110
,
1000
0001
0100
1001
,
0001
0010
1000
0110
,
0001
0100
2000
3000
,
2020
3030
0202
0303
,
0022
0033
2200
3300
,
2002
3003
0220
0330
,
0001
0000
0000
1000
0000
0000
0002
0000
0000
0000
0000
0000
0000
0000
0000
0000
,
0020
0030
0200
0303
,
1000
0000
0000
0001
0000
0000
2000
0000
0000
0000
0000
0000
0000
0000
0000
0000
,
0020
0000
3000
0000
0130
0000
0000
1001
,
0000
0220
0000
0000
0030
0000
0001
0000
,
0010
0010
0010
0301
,
1000
0000
0010
0000
1000
0000
0001
0020
,
0000
0032
0000
2003
0000
0000
3010
0200
,
0000
0002
0000
0000
0300
0000
1003
0000
,
0001
0100
0010
0110
,
1000
0100
1000
1001
,
0020
0000
0000
2030
0000
3002
0000
0103
,
0010
0000
1000
0000
0001
0000
0000
0011
,
0000
2100
0000
0000
0001
0000
3001
0100
,
0020
0000
1000
0000
0100
0000
1030
0002
,
0000
2003
0000
3020
0000
0000
1030
0200
,
0000
0020
0000
0000
0330
0000
0110
0000
,
1000
1000
0001
0110
,
0010
0000
1000
0000
0100
0000
1000
0002
,
0000
2003
0000
3020
0000
0000
1030
0002
,
0000
0200
0000
0000
0000
0000
0003
0000
,
0310
0010
0010
0110
,
0010
0010
0010
1001
,
0010
0000
1000
0000
0010
0000
1000
0001
,
0100
0000
0000
0000
;

//---------------dance-single - ----------------
#NOTES:
     dance-single:
     :
     Medium:
     10:
     :
0000
0000
0000
0000
,
0000
0000
0000
0000
,
0010
0100
0010
0000
1000
0001
1000
0000
,
0100
0010
0100
0000
0001
1000
0001
0000
,
2000
0000
0000
0000
,
3001
0010
0001
0000
1000
0010
1000
0000
,
0200
0000
0000
0000
,
0320
0000
0000
0000
0000
0000
0000
1000
,
0000
0032
0000
0000
0000
0000
0000
0000
,
0103
0010
1000
0001
,
1000
0100
1000
0000
0001
0100
0001
0000
,
0010
0000
0001
0000
0100
0000
0010
2000
,
0001
0001
0100
0100
,
0001
0001
0100
3100
,
0002
0010
0010
0010
,
1000
1003
0102
0103
,
1100
0000
0000
0001
2000
0000
0000
0000
0000
0000
0000
0000
0000
0000
0000
0000
,
3010
1000
0100
0000
0010
0001
0100
0000
,
0001
0010
1000
0000
0001
0100
1000
0000
,
0001
1000
0010
0100
,
0001
0000
0000
0010
0000
0000
0200
0000
0000
0300
0000
0000
1100
0000
0000
0000
,
1000
0000
0000
0010
0000
0000
0200
0000
0000
0300
0000
0000
0101
0000
0000
0000
,
0001
0000
0000
1000
0000
0000
0020
0000
0000
0030
0000
0000
1010
0000
0000
0000
,
0100
0000
0000
1000
0000
0000
0002
0000
0000
0003
0000
0000
0011
0000
0000
0000
,
1000
0000
0000
0001
0000
0000
0100
0000
0010
0000
0000
0000
0110
0000
0000
0000
,
0001
0000
0000
0100
0000
0000
0010
0000
1000
0000
0000
0000
1001
0000
0000
0000
,
0100
0000
0000
0001
0000
0000
0010
0000
1000
0000
0000
0000
0110
0000
0000
0000
,
0010
0000
0000
1000
0000
0000
0001
0000
0100
0000
0010
0000
0000
0000
1010
0000
,
0000
0001
1000
0000
0001
0100
0010
0000
,
1000
0100
0010
0000
0001
1000
0001
0000
,
0100
0010
0100
0001
1000
0000
1100
0000
,
0010
1000
0100
0010
0001
0000
0011
0000
,
0100
0001
0010
0000
0001
0010
0100
0000
,
1000
0100
0010
0000
0100
1000
0010
0000
,
1000
0001
0010
0000
0001
0100
0010
0000
,
1000
0100
1000
0000
0001
0100
0001
0000
,
1000
0000
0000
0010
0000
0000
0100
0000
0002
0000
0000
0000
0003
0000
0010
0000
,
0200
0000
0300
1000
0020
0000
0030
0100
,
0002
0000
0003
1000
0200
0000
0300
1000
,
0020
0000
0000
0000
0030
0000
0100
0000
0001
0000
0000
1000
0000
0000
0010
0000
,
1010
0000
0000
0101
0000
0000
1010
0000
0000
0000
0000
0000
0001
0000
1000
0000
,
0200
0000
1300
0010
0200
0000
0310
1000
,
1100
0000
0000
0011
0000
0000
1100
0000
0000
0000
0000
0000
0010
0000
1000
0000
,
0002
0000
0000
0000
0013
0000
0100
0000
2000
0000
0000
0010
3000
0000
1001
0000
,
0000
0000
0110
0000
0000
0000
0100
0000
0010
0000
0000
1000
0000
0000
0001
0000
,
0010
0001
0100
0010
1000
0000
1100
0000
,
0001
0000
1000
0000
0010
0000
0000
0000
0100
0000
0000
0001
0000
0000
2000
0000
,
0000
3020
0000
0230
0000
0300
0001
2000
,
0000
0000
3010
0000
0100
0000
0000
0000
0001
0000
0000
1000
0000
0000
0010
0000
,
0100
0000
0000
0000
0101
0000
0000
0000
0010
0000
0000
1000
0000
0000
0001
0000
,
1000
0000
0100
0000
0010
0000
0000
0000
0001
0000
0000
0100
0000
0000
0001
0000
,
1000
0002
0000
0023
0000
0230
0000
2300
,
0010
0000
0000
0000
3100
0000
0000
0000
1000
0000
0000
0001
0000
0000
0101
0000
,
0000
0000
1100
0000
0000
0000
0000
0000
0010
0000
0000
1000
0000
0000
0001
0000
,
0100
0000
0000
0000
0010
0000
1000
0000
0001
0000
0000
0100
0000
0000
0002
0000
,
0000
2003
0000
3200
0000
0300
1000
0020
,
0000
0000
0130
0000
0001
0000
0000
0000
0011
0000
0000
0110
0000
0000
1100
0000
,
0010
0000
1000
0000
0001
0000
0000
0000
1001
0000
0000
1010
0000
0000
1100
0000
,
0001
0000
1000
0000
0010
0000
0000
0000
0100
0000
0000
0001
0000
0000
2000
0000
,
0000
3020
0000
0230
0000
0300
0001
1000
,
0000
0000
0020
0000
0000
0000
0000
0000
0000
0000
0000
0100
0030
0100
0000
0000
,
0001
0000
0000
0000
1000
0000
0000
0000
0001
0000
0000
0110
0000
0110
0000
0000
,
1000
0000
0000
0000
0010
0000
0000
0000
0100
0000
0000
1001
0000
1001
0000
0000
,
0001
0000
0000
0000
1000
0000
0000
0000
0001
0000
0000
0010
0000
0010
0000
0010
,
0100
0000
0000
0000
;

//---------------dance-single - ----------------
#NOTES:
     dance-single:
     :
     Hard:
     12:
     :
0000
0000
0000
0000
,
0000
0000
0000
0000
,
0010
0100
0001
1000
0010
0100
0001
1000
,
0010
0100
0001
1000
0010
0100
0001
2000
,
0020
0000
0000
0030
,
3001
0010
0100
1000
0001
0010
0100
2000
,
0002
0000
0000
3003
,
0200
0000
0000
0000
0000
0000
0000
0310
,
1000
0002
1000
0000
0100
0000
1000
0000
,
0100
0010
0100
0010
,
1003
0001
0100
0010
1000
0001
0100
0010
,
1000
0100
0010
0001
1000
0100
0010
0002
,
0100
1000
0100
1000
,
0010
0000
0103
0000
0001
1000
0010
0200
,
1000
0010
1000
0001
,
0010
0301
0102
0013
,
1100
0000
0000
0001
2000
0000
0000
0000
3001
0000
0100
0000
0010
0000
1000
0000
,
0100
0010
0100
1000
0010
0100
0001
1000
,
0100
0010
0100
0010
0001
1000
0001
1000
,
0010
0100
0010
0100
0001
1000
0001
1000
,
0001
0100
0000
0001
0100
0000
0010
0000
1000
0000
0000
0000
1100
0000
1000
0000
,
0010
1000
0000
0010
1000
0000
0001
0000
0100
0000
0000
0000
0101
0000
0100
0000
,
0001
0010
0000
0001
0010
0000
0100
0000
1000
0000
0000
0000
1010
0000
0010
0000
,
0100
0010
0000
0100
0010
0000
1000
0000
0001
0000
0000
0000
0011
0000
0001
0000
,
1000
0001
0000
1000
0001
0000
0100
0000
0010
0000
0000
0000
0110
0000
0010
0000
,
1000
0100
0000
1000
0100
0000
0010
0000
0001
0000
0000
0000
1001
0000
0001
0000
,
0100
0010
0100
0010
0100
0000
0001
0000
1000
0000
0010
0000
1000
0000
0001
0000
,
0010
0100
0010
0100
0010
0000
0001
0000
1000
0000
0100
0000
1000
0000
0001
0000
,
1000
0010
0100
0001
1000
0010
0100
0001
,
1000
0010
0100
0001
1000
0010
0100
0001
,
0010
0001
1000
0100
0010
0001
1000
0100
,
0010
0100
1000
0001
0010
0100
1000
0001
,
0100
0010
1000
0001
0100
0010
1000
0001
,
0100
0010
1000
0001
0100
0010
1000
0001
,
1000
0001
0010
0100
1000
0001
0010
0100
,
1000
0010
0100
0001
1000
0100
0010
0001
,
1000
0000
0000
0010
0000
0000
0100
0000
0002
0000
0000
0000
0013
0000
0100
0000
,
1000
0001
0000
1000
0001
0000
0010
0000
0200
0000
0000
0000
1300
0000
0010
0000
,
0100
0001
0000
0100
0001
0000
1000
0000
0020
0000
0000
0000
0130
0000
0001
0000
,
0010
0100
0000
0010
0100
0000
1000
0000
0002
0000
0100
0000
0103
0000
0010
0000
,
1010
0000
0000
0101
0000
0000
1010
0000
0001
0000
0100
0000
0010
0000
0100
0000
,
1000
0100
0001
0100
1000
0100
0010
0100
,
0101
0000
0000
1100
0000
0000
0101
0000
0010
0000
0001
0000
1000
0000
0010
0000
,
0001
0010
1000
0010
0001
0010
1000
1001
,
0000
0000
0110
0000
1000
0000
0010
0000
0100
0000
0001
1000
0000
0001
1000
0000
,
0010
0000
0100
0000
0001
0000
1000
0000
0100
0000
0010
0001
0000
0010
0001
0000
,
0100
0000
0001
0000
0010
0000
0001
0000
1000
0000
0010
0100
0000
0010
0200
0000
,
0001
0302
1000
2003
0010
3020
0100
0230
,
0001
0000
0302
0000
1000
0000
1003
0000
0010
0000
0100
0001
0000
0100
0001
0000
,
0010
0000
0100
0000
1000
0000
0010
0000
0100
0000
0001
1000
0000
0001
1000
0000
,
0100
0000
0010
0000
0100
0000
1000
0000
0001
0000
1000
0010
0000
1000
0010
0000
,
1000
0001
1000
0010
0100
1000
0100
0001
,
0010
0000
0100
0000
0010
0000
0001
0000
0100
0000
0010
1000
0000
0000
1100
0000
,
0000
0000
0011
0000
1000
0000
0010
0000
0100
0000
0001
0010
0000
0001
0100
0000
,
0010
0000
1000
0000
0001
0000
1000
0000
0100
0000
0010
0001
0000
0010
0002
0000
,
1000
2003
0100
3200
0010
0320
0001
0032
,
1000
0000
2003
0000
0010
0000
3010
0000
0100
0000
0001
1000
0000
0001
1000
0000
,
0010
0000
1000
0000
0100
0000
1000
0000
0001
0000
0100
0010
0000
0100
0010
0000
,
1000
0000
0001
0000
0010
0000
0100
0000
1000
0000
0001
0100
0000
0001
0200
0000
,
0000
0320
0000
2030
0000
3001
0100
1000
,
0010
0000
0100
0000
0002
0000
0000
0000
1003
0000
0000
0010
0000
0010
0000
0000
,
0100
0000
0000
0000
0001
0000
0000
0000
0010
0000
0000
0001
0000
1000
0000
0000
,
0100
0000
0000
0000
0010
0000
0000
0000
0100
0000
0000
1000
0000
0001
0000
0000
,
0100
0000
0000
0000
0001
0000
0000
0000
1000
0000
0000
0001
0000
0100
0000
0010
,
0100
0000
0000
0000
;
