#TITLE:Sunshine Dance;
#ARTIST:Togo Project feat. Megu;
#BANNER:Sunshine Dance-bn.png;
#BACKGROUND:Sunshine Dance-bg.png;
#JACKET:Sunshine Dance-jacket.png;
#MUSIC:Sunshine Dance.ogg;
#SAMPLESTART:77.538;
#SAMPLELENGTH:20;
#DISPLAYBPM:130;
#BPMS:0=130;
#BGCHANGES:;

//---------------dance-single - ----------------
#NOTES:
     dance-single:
     :
     Beginner:
     3:
     :
0000
0000
0000
0000
,
0000
0000
0000
0000
,
0000
0000
0000
0000
,
0001
0000
1000
0000
,
0010
0010
0010
0000
,
0001
0000
0100
0000
,
0010
0010
0010
0000
,
0001
0000
0010
0000
,
1001
0000
0110
0000
,
1001
0000
0010
0010
,
0010
0000
0000
1000
,
1000
0000
0000
0001
,
0001
0000
0000
0000
,
0100
0000
0010
0000
,
0100
0000
0000
0001
,
0001
0000
0000
0100
,
0100
0000
0010
0000
,
1000
0000
0001
0000
,
0010
0000
0010
0000
,
0001
0000
1000
0000
,
0100
0000
0100
0000
,
0000
0000
0000
0000
,
1000
0000
1000
0000
,
0001
0000
0001
0000
,
0110
0000
0000
0100
,
0100
0000
0010
0000
,
1000
0000
0100
0000
,
1000
0000
0001
0000
,
0010
0000
0010
0000
,
0000
0000
0000
0000
,
0001
0000
0100
0000
,
0001
0000
1000
0000
,
0010
0000
0100
0000
,
0000
0000
0001
0001
,
0001
0000
0010
0000
,
0100
0000
1000
0000
,
0010
0000
0100
0000
,
0110
0000
1001
0000
,
0001
0001
0001
0000
,
0000
0000
0010
0010
,
0010
0000
0001
0000
,
0100
0100
0100
0000
,
0010
0000
1000
0000
,
0100
0000
0010
0000
,
0001
0000
0100
0000
,
0001
0000
1000
0000
,
0010
0000
1000
0000
,
0001
0000
0010
0000
,
0001
0000
1000
0000
,
1000
0000
0010
0000
,
0100
0000
0010
0000
,
0110
0000
0000
0000
,
1000
0000
0001
0000
,
1001
0000
0010
0010
,
0010
0000
0000
0000
;

//---------------dance-single - ----------------
#NOTES:
     dance-single:
     :
     Easy:
     7:
     :
0000
0000
0000
0000
,
0000
0000
0000
0000
,
0000
0000
0000
0000
,
0001
1000
0010
0100
,
0001
0001
1000
1000
,
0001
0010
0100
1000
,
0010
0010
0100
0100
,
0001
0100
0010
1000
,
1001
0000
0010
0100
,
0110
0000
0001
1000
,
0010
1000
0100
1001
,
0010
0001
0100
0110
,
1000
0010
0001
0100
,
0010
0100
0001
1001
,
0110
0010
1000
1001
,
0001
0010
0100
0110
,
0010
0001
0100
1000
,
0010
0010
1000
0001
,
0010
0000
0001
0000
,
0100
0010
1000
0000
,
2000
0000
0002
3003
,
0010
0010
0001
0100
,
0010
1000
0100
1000
,
0001
0010
0001
0100
,
0010
1000
0100
1001
,
0110
0000
0001
1000
,
0010
1000
0100
1000
,
0100
0010
0001
0100
,
0020
0000
0200
0330
,
0010
1000
0100
0001
,
1000
0010
0001
0100
,
0100
0010
1000
0001
,
0010
0001
1000
0100
,
0010
0010
1001
0110
,
0001
1000
0200
0300
,
1000
0001
0020
0030
,
0001
0001
1000
1000
,
1001
0000
0110
0001
,
0010
0001
2000
3000
,
0020
0030
0100
0001
,
0010
0010
0100
0100
,
1000
0001
1000
0001
,
0010
0001
0100
1000
,
1000
0001
0200
0300
,
0010
1000
0001
0010
,
0001
0100
1000
1000
,
1000
0001
0100
0010
,
0010
1000
0002
0003
,
0010
0001
0010
0100
,
1000
0010
1000
0001
,
0200
0000
0320
0000
,
1030
0001
1000
0100
,
2000
0000
0002
3003
,
1001
0000
0010
0100
,
0110
0000
0000
0000
;

//---------------dance-single - ----------------
#NOTES:
     dance-single:
     :
     Medium:
     9:
     :
0000
0000
0000
0000
,
0000
0000
0000
0000
,
0000
0000
0000
0000
,
0001
0000
1000
0000
0000
0010
0000
0100
0000
0000
0000
0000
0000
0000
0000
0000
,
0010
1000
0001
0000
0101
0000
1010
0000
,
0001
0000
0100
0000
0000
0010
0000
1000
0000
0000
0000
0000
0000
0000
0000
0000
,
0100
1000
0001
1000
0100
0000
0110
0000
,
0001
0000
0010
0000
0000
0100
0000
1000
0000
0000
0000
0000
0000
0000
0000
0000
,
1001
0000
0000
1000
0100
0000
1100
0000
,
0011
0000
0000
0000
0100
0100
0100
0000
,
0001
0000
0000
1000
0000
0000
0010
0000
0000
0000
0000
0100
0000
0000
0001
0000
,
0010
0000
0000
0001
0000
0000
0100
0000
0000
0000
0000
0010
0000
0000
1000
0000
,
0100
0000
0000
1000
0000
0000
0001
0000
0100
0000
0000
0000
0010
0000
1000
0000
,
0010
0000
0000
0100
0000
0000
0001
0000
0000
0000
0000
0110
0000
0000
0001
0000
,
1000
0000
0000
0010
0000
0000
0100
0000
0000
0000
0000
0001
0000
0000
0010
0000
,
0001
0000
0000
1000
0000
0000
0100
0000
0000
0000
0000
0010
0000
0000
0100
0000
,
0010
0000
0000
0001
0000
0000
1000
0000
0010
0000
0000
0000
0100
0000
0001
0000
,
0020
0032
2003
3200
,
0310
0001
0100
1000
,
0010
0100
0010
0000
1001
0000
1010
0000
,
1100
0000
0000
0002
2000
0000
3003
0000
,
0010
0000
0100
0010
1000
0001
0100
0000
,
0001
0010
0001
0000
1000
0010
1000
0000
,
0100
0010
0001
0010
0100
0000
1000
0000
,
0001
0000
0010
0000
0000
0010
0000
0000
0010
0000
0001
0000
1000
0000
0000
0000
,
0002
0200
0003
0000
0310
1000
0010
0100
,
0001
0000
0011
0000
1000
0010
0100
0000
,
0001
1000
0010
0000
0101
0000
1000
0001
,
0200
0000
0000
0000
0300
0000
0010
1000
0020
0000
0000
0000
1030
0000
0001
0000
,
2000
3200
0320
0032
,
0103
0000
0100
0010
1000
0000
0101
0000
,
0010
0001
1000
0000
0001
0100
0010
0000
,
1010
0000
0001
0100
0020
0000
1030
0001
,
1000
0000
0000
0100
0000
0000
0010
0000
0002
0000
0000
0000
0103
0000
0000
0000
,
0011
0000
2000
0002
0000
0000
3003
0010
,
0100
0000
2000
0020
0000
0000
3030
0100
,
0001
0000
1000
0001
0000
1100
0000
0110
,
0000
0000
0000
1001
0000
0010
1000
0001
,
0200
0000
0310
1000
0002
0000
0013
0100
,
2000
0000
3001
1000
0100
0000
0100
0000
,
1100
0000
0101
0000
0001
1000
0100
0000
,
1010
0000
0011
0000
0100
0010
1000
0001
,
0010
0000
0000
0000
0001
0000
0000
1000
0000
0000
0010
0000
1000
0000
0100
0000
,
1000
0000
0000
0000
0002
0000
0000
0020
0000
0000
0000
0000
0033
0000
0000
0000
,
1000
0000
0000
0000
0010
0000
0000
0100
0000
0000
0001
0000
1000
0000
0001
0000
,
0100
0010
1001
0110
,
1001
0000
0000
0000
1000
0000
0000
0100
0000
0000
1000
0000
0001
0000
0100
0000
,
0010
0000
1000
0000
0001
0000
0000
0002
0000
0000
0000
0000
0003
0000
0000
0000
,
0011
0000
0000
0000
1000
0000
0000
0001
0000
0000
1000
0000
0100
0000
0010
0000
,
0002
0203
0320
2030
,
3200
0000
0000
0000
1300
0010
0100
0001
,
0020
1000
0001
0130
,
1100
0000
0001
0000
0101
0000
1000
0010
,
1010
0000
0000
0000
0100
0100
0100
0000
,
0110
0000
0000
0000
;

//---------------dance-single - ----------------
#NOTES:
     dance-single:
     :
     Hard:
     12:
     :
0000
0000
0000
0000
,
0000
0000
0000
0000
,
0000
0000
0000
0000
,
0001
0000
1000
0000
0000
0010
0000
0100
0000
0000
0000
0000
0110
0000
0000
0000
,
1000
0010
1000
0001
0010
0100
1000
0000
,
0001
0000
0100
0000
0000
0010
0000
1000
0000
0000
0000
0000
1100
0000
0000
0000
,
0010
1000
0010
0100
0001
0010
1000
0000
,
0001
0000
0010
0000
0000
0100
0000
1000
0000
0000
0000
0000
1010
0000
0000
0000
,
1001
0000
0001
0100
1000
0000
0101
0000
,
0011
0000
0000
0000
0000
1000
0001
0010
0001
1000
0000
0000
,
0010
0000
1000
0100
0000
1000
0100
0000
0010
0000
0000
0001
0000
0000
0100
0000
,
0001
0000
1000
0010
0000
1000
0010
0000
0100
0000
0000
0001
0000
0000
1000
0000
,
0100
0000
0010
0001
0000
0010
0001
0000
0100
0000
0000
0001
1000
0000
0010
0000
,
0100
0000
0001
1000
0000
0001
1000
0000
0010
0000
0000
0110
0000
0000
1001
0000
,
0100
0000
1000
0010
0000
1000
0010
0000
0100
0000
0000
0001
0000
0000
1000
0000
,
0001
0000
0010
0100
0000
0010
0100
0000
1000
0000
0000
0010
0000
0000
0100
0000
,
0001
0000
1000
0100
0000
1000
0100
0000
0010
0000
0000
0001
0100
0000
0010
0000
,
1010
0101
0011
1100
,
0001
0000
0000
0100
0000
0000
0010
0000
1000
0000
0000
0001
0000
0000
0100
0000
,
0010
0000
0001
0000
0010
0000
1000
0000
0100
0000
0000
0010
0000
0000
0001
0000
,
0200
0000
0010
0000
0310
0000
0001
1000
0001
0000
0000
0010
0100
0000
1000
0000
,
0010
0000
0000
1000
0100
0000
0010
0000
0001
0000
0100
0000
1000
0000
0000
0000
,
0010
0000
1000
0001
0000
0000
0100
0000
0001
0000
1000
0100
0000
0000
0010
0000
,
0001
0000
0100
0000
1000
0000
0100
0000
0001
0000
0000
1000
0000
0000
0010
0000
,
1000
0000
0100
0000
1000
0001
0000
1000
0001
0000
0100
0000
0010
0000
1000
0000
,
0001
0010
0200
0000
1300
0010
0100
0001
,
0010
0000
0001
0100
0000
0000
0010
0000
1000
0000
0100
1000
0000
0000
0001
0000
,
1000
0000
0010
0000
0100
0000
0000
0000
0001
0000
0000
0010
0000
0000
0001
0000
,
2000
0000
0001
0000
3001
0000
0100
0010
0100
0000
0000
0001
1000
0000
0100
0000
,
0010
0000
0000
0001
0200
0000
0000
0000
0301
0000
0000
1000
0010
0000
0100
0000
,
0001
0000
0000
0010
0000
0000
0001
0000
0100
0000
0010
1000
0020
0000
0000
0000
,
0130
0001
0100
0010
1000
0001
1000
0100
,
0010
0000
0000
0001
1000
0000
0001
0000
0100
0000
0000
0010
1000
0000
0100
0000
,
1000
0000
0000
0010
0100
0000
0001
0000
0100
0000
0010
0000
1000
0000
0001
0000
,
0012
0000
0000
0000
1003
0000
0001
0000
0100
0010
0000
0100
0001
0000
1000
0000
,
0200
0000
0010
0000
0310
0000
0001
0000
1000
0100
0000
1000
0100
0000
0010
0000
,
0001
0000
0000
1000
0001
0000
0100
0000
0010
0000
1000
0000
0010
0000
0210
0000
,
0000
0301
1000
1200
0000
1300
0010
0100
,
0102
0000
0000
0000
1003
0000
0100
0000
0001
0000
0000
0010
0001
0000
1000
0000
,
0100
0000
0000
0010
0001
0000
1000
0000
1001
0000
0000
0000
1010
0000
0000
0000
,
1100
0000
0001
0000
0100
0010
0000
0000
1000
0100
1000
0100
0000
0000
0010
0000
,
0001
0100
0000
0000
0001
0100
0000
0000
0010
1000
0010
1000
0000
0000
0100
0000
,
1001
0000
0000
0000
0010
0001
0000
0010
0001
0000
0100
0000
0010
0000
1000
0000
,
0100
0000
0000
0000
1000
0001
0000
1000
0001
0000
0000
0010
0001
0000
0100
0000
,
0101
0000
0000
0000
0010
1000
0000
0010
1000
0000
0001
0000
1000
0000
0100
0000
,
0020
0230
2300
3002
,
0103
0000
0000
0000
0001
0010
0000
0001
0010
0000
0100
0000
1000
0000
0001
0000
,
0100
0000
0010
0000
0110
0000
0000
0001
1000
0000
0000
0100
1000
0000
0001
0000
,
0011
0000
0000
0000
0010
0100
0000
0010
0100
0000
1000
0000
0001
0000
0100
0000
,
0020
2030
3002
0203
,
0320
0000
0000
0000
1000
0000
0000
0000
0130
0000
0000
0001
0010
0000
0100
0000
,
1000
0010
1000
0001
0010
0100
1000
0001
,
0100
0000
0000
0010
1000
0000
0100
0000
0010
0000
0000
0001
0100
0000
0010
0000
,
1010
0000
0000
0000
0000
0001
1000
0100
1000
0001
0000
0000
,
0020
0000
0000
0000
,
0000
0000
0000
0000
,
0030
0000
0000
0000
;
