#TITLE:Sunlight;
#ARTIST:shinpei;
#BANNER:Sunlight-bn.png;
#BACKGROUND:Sunlight-bg.png;
#JACKET:Sunlight-jacket.png;
#MUSIC:Sunlight.ogg;
#SAMPLESTART:34.286;
#SAMPLELENGTH:20;
#DISPLAYBPM:29:985;
#BPMS:0=140,140=55,140.25=173,140.5=985,140.75=123,141=78,141.25=643,141.5=355,141.75=44,142=121,142.25=90,142.5=786,142.75=225,143=573,143.25=840,143.5=160,143.75=145,144=140,180=180,180.25=545,180.5=38,180.75=176,181=91,181.25=240,181.5=375,181.75=122,182=76,182.25=341,182.5=290,182.75=197,183=650,183.25=349,183.5=173,183.75=941,184=60,184.25=143,184.5=98,184.75=165,185=147,185.25=333,185.5=220,185.75=864,186=335,186.25=179,186.5=228,186.75=163,187=385,187.25=144,187.5=389,187.75=660,188=889,188.25=170,188.5=54,188.75=872,189=644,189.25=155,189.5=929,189.75=111,190=58,190.25=646,190.5=312,190.75=841,191=95,191.25=199,191.5=287,191.75=183,192=43,192.25=952,192.5=112,192.75=780,193=950,193.25=79,193.5=625,193.75=138,194=742,194.25=375,194.5=193,194.75=744,195=163,195.25=222,195.5=47,195.75=393,196=146,196.25=928,196.5=440,196.75=587,197=161,197.25=29;
#STOPS:82=0.428,97=0.428,112=0.428,127=0.428;
#BGCHANGES:;

//---------------dance-single - ----------------
#NOTES:
     dance-single:
     :
     Beginner:
     3:
     :
0000
0000
0000
0000
,
0000
0000
0000
0000
,
0000
0000
0000
0000
,
1010
0000
0000
0000
,
0000
0001
0000
0001
,
0000
1000
0000
1000
,
0000
0010
0000
0010
,
0000
0100
0000
0100
,
0000
0001
0000
0010
,
0000
0001
0000
1000
,
0000
0010
0000
0000
,
1010
0000
0000
0000
,
1000
1000
1000
0000
,
0001
0001
0000
0000
,
0010
0010
0010
0000
,
0001
0001
0000
0000
,
1000
1000
1000
0000
,
0010
0010
0000
0000
,
0100
0100
0100
0000
,
0001
0001
0000
0000
,
0001
0000
1001
0000
,
0000
1000
0000
0001
,
0000
0011
0000
0100
,
0000
0010
0000
1000
,
0000
1001
0000
0000
,
0001
0000
0010
0000
,
0011
0000
0100
0000
,
0001
0000
0010
0000
,
1001
0000
0000
0100
,
0000
0001
0000
0011
,
0000
0100
0000
0001
,
0000
0100
0000
1001
,
0000
0000
1000
0000
,
0001
0000
0011
0000
,
0100
0000
0010
0000
,
0110
0000
0000
0000
,
0020
0000
0030
0000
,
0100
0100
0100
0000
,
0001
0001
0000
0000
,
0010
0010
0010
0000
,
0100
0100
0000
0000
,
1000
1000
1000
0000
,
0001
0001
0000
0000
,
0100
0100
0100
0000
,
0001
0001
0000
0000
,
0020
0000
0000
0000
,
0000
0000
0000
0000
,
0000
0000
0000
0000
,
0000
0000
0030
0000
0000
0011
0000
0000
;

//---------------dance-single - ----------------
#NOTES:
     dance-single:
     :
     Easy:
     6:
     :
0000
0000
0000
0000
,
0000
0000
0000
0000
,
0000
0000
0000
0000
,
2020
0000
3030
0002
,
0013
0001
0100
1000
,
0000
0010
1000
0100
,
1000
0001
0010
0100
,
0000
1000
0001
0010
,
0100
0010
0001
1000
,
0000
0100
1000
0001
,
0010
0001
0100
1000
,
2020
3030
0100
0100
,
0001
0010
0001
1000
,
0100
0010
0000
0110
,
0001
0100
0001
0010
,
1000
0100
1100
0101
,
1000
0001
0010
0001
,
0100
0010
0000
0110
,
1000
0001
0010
0001
,
0100
0010
1100
0101
,
0100
0100
1001
0010
,
0010
1000
0100
1000
,
0001
0022
0033
0100
,
0100
0001
1000
0010
,
0010
1001
1000
0100
,
1000
0001
0010
0010
,
0022
0033
0100
0100
,
0010
1000
0001
0001
,
1001
0010
0010
1000
,
0100
0010
0010
0022
,
0033
0100
0100
0001
,
0010
1000
1000
1001
,
0001
0010
0100
1000
,
0001
0001
0022
0033
,
0100
0100
0001
1000
,
2200
0000
0000
3300
,
0002
2003
3002
2003
,
3010
1000
0100
0010
,
0001
0100
0000
0110
,
0010
0100
0010
1000
,
0100
0001
1100
0101
,
0010
1000
0001
0010
,
1000
0100
0000
0110
,
0100
0010
0001
0100
,
1000
0001
1100
0101
,
0020
0000
0000
0000
,
0000
0000
0000
0000
,
0000
0000
0000
0000
,
0000
0000
0000
0030
0000
0022
0000
0000
,
0000
0000
0000
0000
0000
0033
0000
0000
0000
0000
0000
0000
0000
0000
0000
0000
;

//---------------dance-single - ----------------
#NOTES:
     dance-single:
     :
     Medium:
     10:
     :
0000
0000
0000
0000
,
0000
0000
0000
0000
,
0000
0000
0000
0000
,
2020
0000
0030
3002
,
0013
0000
0000
0000
0001
0000
0000
0100
0000
0010
1000
0000
0001
0000
0000
0000
,
0010
0000
0000
0000
0100
0000
0000
1000
0000
0010
0100
0000
0001
0000
0000
0000
,
1000
0000
0000
0000
0001
0000
0000
0010
0000
0100
1000
0000
0010
0000
0000
0000
,
0100
0000
0000
0000
0010
0000
0000
1000
0000
0100
1000
0000
0001
0000
0000
0000
,
0010
0000
0000
0000
0001
0000
0000
0010
0000
0100
1000
0000
0001
0000
0000
0000
,
1000
0000
0000
0000
0010
0000
0000
0100
0000
0010
0100
0000
0001
0000
0000
0000
,
0010
0000
0000
0000
0001
0000
0000
1000
0000
0001
1000
0000
0100
0000
0000
0000
,
2020
0000
0030
0000
0100
0100
3100
0000
,
1000
0010
1000
0010
1000
0010
1000
0001
,
0010
0000
0100
0000
1000
0000
0000
0000
0000
0000
0002
0000
0000
1003
0000
0000
,
0001
0010
0001
0010
0001
0010
0001
1000
,
0010
1000
0100
0000
1100
0000
0101
0000
,
1000
0100
1000
0100
1000
0100
1000
0001
,
0010
0000
0001
0000
0100
0000
0000
0000
0000
0000
0020
0000
0000
1030
0000
0000
,
0001
0100
0001
0100
0001
0100
0001
0010
,
0100
1000
0001
0000
1100
0000
0101
0000
,
1000
0000
0000
1000
0000
0000
1000
0000
1001
0000
0000
0000
0001
0000
0000
0001
,
0000
0000
0001
0000
0010
0000
0110
0000
0000
0000
0000
0000
0001
0000
0000
0001
,
0000
0000
0001
0000
0022
0000
0000
0000
0033
0000
0000
0000
0100
0000
0000
0100
,
0000
0000
0100
0000
0010
0000
1000
0000
0010
0000
0100
0000
0001
0000
0000
0001
,
0000
0000
0001
0000
1001
0000
0000
0000
0010
0000
0000
0010
0000
0000
0010
0000
,
1000
0000
1100
0000
0000
0000
0000
0000
0001
0000
0000
0001
0000
0000
0001
0000
,
0022
0000
0000
0000
0033
0000
0000
0000
0100
0000
0000
0100
0000
0000
0100
0000
,
0001
0000
0010
0000
0001
0000
1000
0000
0010
0000
0000
0010
0000
0000
0010
0000
,
0110
0000
0000
0000
0100
0000
0000
0100
0000
0000
0100
0000
0001
0000
0101
0000
,
0000
0000
0000
0000
0010
0000
0000
0010
0000
0000
0010
0000
0022
0000
0000
0000
,
0033
0000
0000
0000
0100
0000
0000
0100
0000
0000
0100
0000
0001
0000
1000
0000
,
0100
0000
0010
0000
0100
0000
0000
0100
0000
0000
0100
0000
1100
0000
0000
0000
,
0010
0000
0000
0010
0000
0000
0010
0000
1000
0000
1001
0000
0000
0000
0000
0000
,
0001
0000
0000
0001
0000
0000
0001
0000
0022
0000
0000
0000
0033
0000
0000
0000
,
0100
0000
0000
0100
0000
0000
0100
0000
0000
0000
0010
0000
1000
0000
0001
0000
,
0000
0000
0000
0000
,
0001
0000
0010
0000
1000
0000
0010
0000
0002
0000
0000
0000
0103
0010
0100
0000
,
0001
0010
0001
0010
0001
0010
0001
1000
,
0100
0000
1000
0000
0010
0000
0000
0000
0000
0000
0200
0000
0000
0301
0000
0000
,
1000
0100
1000
0100
1000
0100
1000
0001
,
0010
0100
1000
0000
1100
0000
0101
0000
,
0010
0001
0010
0001
0010
0001
0010
0100
,
1000
0000
0010
0000
1000
0000
0000
0000
0000
0000
0002
0000
0000
0013
0000
0000
,
1000
0010
1000
0010
1000
0010
1000
0100
,
0010
0001
1000
0000
1100
0000
0101
0000
,
0020
0000
0000
0000
,
0000
0000
0000
0000
,
0000
0000
0000
0000
,
0000
0000
0000
0000
0030
0022
0000
0000
,
0000
0000
0000
0000
0000
0033
0000
0000
0000
0000
0000
0000
0000
0000
0000
0000
;

//---------------dance-single - ----------------
#NOTES:
     dance-single:
     :
     Hard:
     13:
     :
0000
0000
0000
0000
,
0000
0000
0000
0000
,
0000
0000
0000
0000
,
2020
0000
3000
0032
,
0013
0010
1000
1000
0100
0100
0001
0001
,
0000
0000
1000
0000
1000
0000
0010
0000
1000
0000
0001
0000
0100
0010
0100
0010
,
0100
0001
0010
0010
0001
0001
1000
1000
,
0000
0000
0100
0000
0100
0000
0010
0000
0001
0000
0100
0000
0010
1000
0010
1000
,
0010
0100
0010
0010
1000
1000
0001
0001
,
0000
0000
0100
0000
0100
0000
0001
0000
1000
0000
0100
0000
1000
0010
1000
0010
,
1000
0000
0100
0000
0100
0000
0010
0000
0010
0000
0001
1000
0001
0000
0000
0000
,
2020
0000
3000
0000
0100
0100
0130
0010
,
1000
0010
1000
0010
1000
0010
1000
0010
1000
0010
0000
1000
0000
0001
0000
0011
,
0000
0011
0000
0011
0000
0000
0000
0000
0000
0000
0200
0000
0000
0310
0000
0000
,
1000
0100
1000
0100
1000
0100
1000
0100
1000
0100
1000
0100
0000
0010
0000
0001
,
0000
1000
0000
0001
0100
0000
0000
0000
1100
0000
0000
0000
0101
0000
0000
0000
,
0010
0001
0010
0001
0010
0001
0010
0001
0010
0001
0000
0100
0000
0010
0000
1010
,
0000
1010
0000
1010
0000
0000
0000
0000
0000
0000
2000
0000
0000
3001
0000
0000
,
0100
0001
0100
0001
0100
0001
0100
0001
0100
0001
0000
0010
0000
0100
0000
1100
,
0000
1100
0000
1100
0000
0000
0000
0000
1100
0000
0000
0000
0101
0000
0000
0000
,
0110
0000
0000
0110
0000
0000
1001
0000
0110
0000
0000
0000
1010
0000
0000
1010
,
0000
0001
1000
0100
1000
0001
0100
0010
,
0100
0001
0022
0000
0030
0100
0000
1000
,
1003
0000
0001
0000
0010
0100
0010
0000
0001
0000
1000
0000
1100
0000
0000
1100
,
0000
0000
0101
0000
1100
0000
0000
0000
1010
0000
0000
1010
0000
0000
1000
0000
,
0100
1000
0010
0100
0001
0010
0001
1000
,
0022
0000
0030
0100
0000
1000
1003
0010
,
0100
0001
0100
0000
0001
0000
1000
0000
1010
0000
0000
1010
0000
0000
0101
0000
,
1010
0000
0000
0000
1100
0000
0000
1100
0000
0000
0010
0000
1000
0000
0100
0000
,
1000
0001
0100
0010
0100
0001
0022
0000
,
0030
0000
0100
0000
0000
0000
1000
0000
1003
0000
0010
0000
1000
0001
1000
0000
,
0100
0000
0010
0000
0011
0000
0000
0011
0000
0000
1100
0000
0011
0000
0000
0000
,
1001
0000
0000
1001
0000
0000
0010
0000
1000
0000
0100
0000
1000
0000
0001
0000
,
0010
0100
0010
0001
0022
0000
0030
0100
,
0000
0000
1000
0000
1003
0000
0001
0000
0010
0100
0010
0000
0001
0000
1000
0000
,
0000
0000
0000
0000
,
0010
0000
1000
0100
1000
0100
1000
0100
2000
0000
0000
0000
3001
0100
0001
0100
,
0010
1000
0010
1000
0010
1000
0010
1000
0010
1000
0000
0001
0000
0100
0000
0110
,
0000
0110
0000
0110
0000
0000
0000
0000
0000
0000
0020
0000
0000
1030
0000
0000
,
0100
1000
0100
1000
0100
1000
0100
1000
0100
1000
0100
1000
0000
0001
0000
0100
,
0000
0010
0000
1000
0000
0000
0000
0000
1100
0000
0000
0000
0101
0000
0000
0000
,
0010
0001
0010
0001
0010
0001
0010
0001
0010
0001
0010
0001
0000
0100
0000
0110
,
0000
0110
0000
0110
0000
0000
0000
0000
0000
0000
0002
0000
0000
1003
0000
0000
,
0001
0100
0001
0100
0001
0100
0001
0100
0001
0100
0000
0010
0000
1000
0000
0100
,
0000
1000
0000
0001
0000
0000
0000
0000
1100
0000
0000
0000
0101
0000
0000
0000
,
0020
0000
0000
0000
,
0000
0000
0000
0000
,
0000
0000
0000
0000
,
0000
0000
0000
0000
0030
0022
0000
0000
,
0000
0000
0000
0000
0000
0033
0000
0000
0000
0000
0000
0000
0000
0000
0000
0000
;

//---------------dance-single - ----------------
#NOTES:
     dance-single:
     :
     Challenge:
     15:
     :
0000
0000
0000
0000
,
0000
0000
0000
0000
,
0000
0000
0000
0000
,
2020
0000
0000
0000
0000
0000
0000
0000
0030
0000
0000
0000
3001
1000
0001
1000
,
0010
0000
0010
0000
1000
0000
1000
0010
0000
0010
0100
0000
0001
0000
1000
0000
,
0100
0000
0010
0000
0010
0000
0001
0000
1000
0000
1000
0000
1000
0100
1000
0100
,
0010
0000
0001
0000
0001
0000
0100
0010
0000
0010
1000
0000
0001
0000
0100
0000
,
0010
0000
1000
0000
1000
0000
0001
0000
0010
0000
0010
0000
0001
0100
0001
0100
,
0010
0000
0010
0000
1000
0000
1000
0001
0000
0001
0010
0000
0001
0000
0100
0000
,
0001
0000
1000
0000
1000
0000
0010
0000
0100
0000
0100
0000
0100
0001
0010
0001
,
0010
0000
0100
0000
1000
0000
1000
0000
0010
0100
0001
0100
0001
0000
1000
0000
,
1010
0000
0100
0000
1000
0000
0001
0000
0010
0000
0010
0000
0001
1000
0001
1000
,
0010
1000
0010
1000
0010
1000
0010
1000
0010
1000
0010
1000
0000
0100
0000
0010
,
0000
0001
0000
0100
0001
0000
0010
0100
0000
0100
1000
0000
0001
1000
0000
0000
,
0001
0100
0001
0100
0001
0100
0001
0100
0001
0100
0001
0100
0000
0010
0000
1000
,
0000
0001
0000
1000
0100
0000
0000
0000
1100
0000
0000
0000
0101
0000
0000
0000
,
1000
0100
1000
0100
1000
0100
1000
0100
1000
0100
1000
0100
0000
0010
0000
0001
,
0000
0100
0000
0001
1000
0000
0010
0100
0000
0100
0001
0000
0001
1000
0000
0000
,
0001
0010
0001
0010
0001
0010
0001
0010
0001
0010
0001
0010
0000
0100
0000
1000
,
0000
0010
0000
1000
0001
0000
0000
0000
1100
0000
0000
0000
0001
1000
0001
1000
,
0001
0000
0010
0001
0000
0001
0100
0000
1010
0000
0000
0000
1100
0000
0000
1100
,
0000
0000
0001
0000
1000
0000
0101
0000
0010
0001
0100
0000
0001
0000
1000
0000
,
0100
0000
0010
0000
0022
0000
0000
0000
0033
0000
0000
0000
1001
0000
0010
1000
,
0000
1000
0001
0000
0100
0010
0100
0010
0000
0000
1000
0000
0100
0000
1000
0001
,
0000
0001
0100
0000
0110
0000
0000
0000
1010
0000
0000
1010
0000
0000
0100
0000
,
1000
0000
1001
0000
0010
0100
0001
0000
0010
0000
0001
1000
0000
1000
0001
0000
,
0022
0000
0000
0000
0033
0000
0000
0000
1001
0000
0000
0110
0000
0000
1001
0000
,
0010
1000
0100
1000
0000
0001
0100
0000
0001
0000
0010
0100
0000
0100
1000
0000
,
1100
0000
0000
0000
0101
0000
0000
0101
0000
0000
0010
0000
1000
0000
0110
0000
,
0010
1000
0001
0000
0100
0000
0001
0010
0000
0001
0010
0000
0022
0000
0000
0000
,
0033
0000
0000
0000
1001
0000
0000
1010
0000
0001
1000
0000
0100
0010
0001
0100
,
0001
0000
1000
0000
0010
0000
1000
0100
0000
1000
0001
0000
0101
0000
0000
0000
,
1010
0000
0000
1010
0000
0000
0100
0000
1000
0000
1001
0000
0001
0010
0100
0000
,
1000
0001
0100
0001
0022
0000
0033
0000
,
1001
0000
0000
1100
0000
0000
0011
0000
0100
0001
0010
0001
1000
0000
0010
0000
,
0220
0000
0000
0030
,
0301
0010
0100
1000
0010
0100
0001
1000
0100
0010
0001
1000
0010
0100
0001
1000
,
0100
1000
0100
1000
0100
1000
0100
1000
0100
1000
0100
1000
0000
0010
0000
0100
,
0000
0001
0000
1000
0100
0000
0010
0001
0000
0001
1000
0000
1000
0010
0000
0000
,
0100
0001
0100
0001
0100
0001
0100
0001
0100
0001
0100
0001
0000
0010
0000
0001
,
0000
1000
0000
0100
0010
0000
0000
0000
1100
0000
0000
0000
0101
0000
0000
0000
,
1000
0010
1000
0010
1000
0010
1000
0010
1000
0010
1000
0010
0000
0100
0000
0001
,
0000
1000
0000
0001
0010
0000
0001
0100
0000
0100
0010
0000
0010
1000
0000
0000
,
0001
0010
0001
0010
0001
0010
0001
0010
0001
0010
0001
0010
0100
1000
0010
1000
,
0001
0100
0001
0100
0001
0010
0001
0010
0100
1000
0100
1000
0010
1000
0010
1000
,
0010
0000
1000
0000
0001
0000
1000
0000
0001
0000
1000
0000
,
0001
0000
1000
0000
0001
0000
1000
0000
0001
0000
1000
0000
,
0001
0000
1000
0000
0001
0000
1000
0000
0001
0000
1000
0000
,
0002
0000
0000
0000
0000
0003
0000
0000
0000
0000
0022
0000
0000
0000
0000
0000
,
0000
0000
0000
0000
0000
0033
0000
0000
0000
0000
0000
0000
0000
0000
0000
0000
;
