#TITLE:Sun Kissed Eyes;
#ARTIST:Hailey Jean;
#BANNER:Sun Kissed Eyes-bn.png;
#BACKGROUND:Sun Kissed Eyes-bg.png;
#JACKET:Sun Kissed Eyes-jacket.png;
#MUSIC:Sun Kissed Eyes.ogg;
#SAMPLESTART:41.143;
#SAMPLELENGTH:20;
#DISPLAYBPM:140;
#BPMS:0=140;
#BGCHANGES:;

//---------------dance-single - ----------------
#NOTES:
     dance-single:
     :
     Beginner:
     2:
     :
0000
0000
0000
0000
,
0000
0000
0000
0000
,
0000
0000
0000
0000
,
0000
0000
0000
0000
,
0000
0000
0000
0000
,
0000
0000
0000
0000
,
0010
0000
1000
0000
,
0100
0000
0001
0000
,
1000
0000
0010
0000
,
1000
0000
0100
0000
,
0001
0000
0010
0000
,
0001
0000
1000
0000
,
0010
0000
0010
0000
,
1000
0000
1000
0000
,
0001
0000
0001
0000
,
0100
0000
0100
0000
,
0001
0000
0010
0000
,
0002
0000
0003
0000
,
1000
0000
0010
0000
,
2000
0000
3000
0000
,
0010
0000
0010
0000
,
0100
0000
0010
0000
,
1000
0000
0100
0000
,
0000
0000
1000
0000
,
0001
0000
0010
0000
,
0001
0000
0100
0000
,
1000
0000
1000
0000
,
1000
0000
0010
0000
,
1000
0000
0100
0000
,
1000
0000
0001
0000
,
0100
0000
0010
0000
,
0100
0000
0001
0000
,
1000
0000
1000
0000
,
0001
0000
0001
0000
,
0100
0000
0010
0000
,
0100
0000
0001
0000
,
0002
0000
0003
0000
,
1000
0000
0100
0000
,
0020
0000
0030
0000
,
0200
0000
0300
0000
,
1000
0000
0010
0000
,
1000
0000
0001
0000
,
1000
0000
1000
0000
,
0020
0000
0030
0000
,
0100
0000
0001
0000
,
0100
0000
0010
0000
,
1000
0000
0001
0000
,
1000
0000
0100
0000
,
0010
0000
0010
0000
,
0020
0000
0030
0000
,
0001
0000
0100
0000
,
2000
0000
3000
0000
,
0100
0000
0010
0000
,
0002
0000
0003
0000
,
1000
0000
0001
0000
,
1001
0000
0110
0000
,
1000
0000
0001
0000
,
0000
0000
1000
0000
,
0010
0000
0100
0000
,
0000
0000
0010
0000
,
2000
0000
3000
0000
,
0200
0000
0300
0000
,
0020
0000
0030
0000
,
0002
0000
0003
0000
,
0200
0000
0000
0000
,
0000
0000
0000
0000
,
0000
0000
0000
0000
,
0300
0000
0000
0000
;

//---------------dance-single - ----------------
#NOTES:
     dance-single:
     :
     Easy:
     6:
     :
0000
0000
0000
0000
,
0000
0000
0000
0000
,
0000
0000
0000
0000
,
0000
0000
0000
0000
,
0000
0000
0000
0000
,
0000
0000
0000
0000
,
0010
0000
1000
0001
,
0100
0100
0001
1000
,
0010
1000
0100
0010
,
0001
0100
0001
1000
,
0010
1000
0001
0000
,
0100
0001
1000
1000
,
0010
1000
0001
1000
,
0100
0010
0001
0100
,
0001
0010
1000
0000
,
0100
0010
0001
0001
,
1000
0001
1000
0100
,
0010
0000
0001
1000
,
0110
0000
1000
0001
,
0100
0100
0001
1000
,
0010
1000
0200
0300
,
1000
0001
1000
0010
,
0100
0001
0010
0002
,
0003
1000
1000
1000
,
1001
0000
0010
1000
,
0100
0100
1000
0001
,
0010
0000
0001
0100
,
1000
1000
0001
0000
,
1000
0100
0002
0003
,
0010
0001
0010
0100
,
1000
0010
0200
0300
,
0001
1000
0020
0030
,
0110
0000
1000
0100
,
1000
0010
0100
0001
,
1001
0000
0010
1000
,
0002
0003
2000
3000
,
0010
1000
0002
0003
,
0010
0001
0010
0100
,
0000
2000
0002
3003
,
0000
0200
0020
0330
,
1000
0010
1000
0100
,
0010
0001
0010
0100
,
1000
0001
0100
0000
,
0010
0100
0010
0100
,
0001
0010
0001
1000
,
0010
1000
0100
0010
,
0001
0100
1000
0000
,
0010
1000
0010
0100
,
0001
0010
0001
1000
,
0010
0000
1000
0001
,
0100
0010
0100
0000
,
0110
0000
0001
1000
,
0010
1000
0001
1000
,
0010
0010
1000
0001
,
0020
0030
0001
1000
,
1001
0010
1000
0100
,
1000
0000
0010
0100
,
0001
0001
0010
0100
,
1000
0000
0001
0100
,
0001
0001
1000
0100
,
0020
0000
0031
1000
,
0020
0000
1030
0001
,
0200
0000
0301
1000
,
0200
0000
1300
0001
,
0200
0000
0000
0000
,
0000
0000
0000
0000
,
0000
0000
0000
0000
,
0300
0000
0000
0000
;

//---------------dance-single - ----------------
#NOTES:
     dance-single:
     :
     Medium:
     9:
     :
0000
0000
0000
0000
,
0000
0000
0000
0000
,
0000
0000
0000
0000
,
0000
0000
0000
0000
,
0000
0000
0000
0000
,
0000
0000
0000
0000
,
0010
0000
0000
0000
1000
0100
0001
0000
,
0010
0000
0010
0000
0001
0100
1000
0001
,
1000
0000
0100
0000
1000
0010
0001
0000
,
0100
0001
0010
0000
0001
0000
0100
0000
,
0010
0100
1000
0100
0000
0001
1000
0000
,
0101
1100
0101
1100
,
0001
0000
1000
0000
0001
0010
0100
0000
,
1000
0001
0010
0000
0001
0000
0100
0000
,
0010
0100
1000
0100
0002
0000
0003
1000
,
0001
0100
0010
0000
2000
0000
0001
0000
,
3010
1000
0001
1000
0100
0010
0000
0002
,
0100
0000
0103
0000
0001
0010
1000
0000
,
0100
2000
0000
0000
3001
0200
0000
0000
,
0310
0000
0010
0000
1000
0100
0001
1000
,
0001
0000
1000
0100
0020
0000
0030
0000
,
0001
0100
0002
0000
1003
0002
0000
0000
,
1003
0100
1000
0000
0001
0000
0100
0000
,
1010
0011
1010
0011
,
0010
0100
0000
0000
1000
0010
0001
0000
,
0100
0000
0100
0000
0001
0010
1000
0000
,
0100
0010
0000
0000
0002
0100
0000
2003
,
0000
0000
3010
0000
1000
0100
0001
1000
,
0020
0000
0030
0100
0002
0000
0003
1000
,
0001
0011
1100
0010
,
1000
0100
0002
0000
2003
0000
3100
0000
,
0001
0000
1010
0000
0101
0000
0010
1000
,
0010
0100
0000
0000
0001
0010
1000
0000
,
0100
0000
0000
0000
1000
0010
0001
0000
,
0100
0001
0000
0000
0020
0001
0030
0020
,
0100
0000
0130
0000
1000
0010
0001
0000
,
0110
0000
0000
0100
0001
0000
0000
0010
,
0001
1000
0001
1001
,
0000
0110
1001
0100
,
0010
0110
1001
0000
,
1000
0001
0100
0000
0001
0010
1000
0000
,
0100
0100
1100
1010
,
0100
0001
0010
0000
1001
0000
0000
0000
,
0010
1000
0100
0000
0110
0000
0000
0000
,
0001
0010
0001
0000
0100
0010
1000
0000
,
0001
1000
0001
0000
0011
0000
0101
0000
,
0010
1000
0100
1000
0002
0000
0003
0000
,
0010
0001
0100
0000
0100
0010
2000
0000
,
3100
0000
1000
0000
0001
1000
0020
0000
,
0200
0000
0330
0000
1000
0010
0001
0000
,
0100
0001
0010
0000
0002
0000
0003
0000
,
1001
0110
1001
0110
,
1000
0010
1000
0010
0000
1100
0000
0011
,
0000
0000
0100
0000
0001
0010
1000
0000
,
2010
3001
0102
1003
,
1100
0000
0101
0000
1000
0010
0001
0000
,
0022
0000
0030
0000
1003
0100
0001
0000
,
0010
0000
0010
0000
0001
0100
1000
0000
,
2200
0000
0300
0000
3001
0010
1000
0000
,
0100
0000
0100
0000
1000
0010
0001
1000
,
0020
0000
0000
0000
1030
0100
0001
0000
,
0200
0000
0000
0000
0301
0010
1000
0000
,
0200
0000
0000
0000
1300
0010
0001
0000
,
0020
0000
0000
0000
0031
0100
1000
0010
,
0200
0000
0000
0000
,
0000
0000
0000
0000
,
0000
0000
0000
0000
,
0300
0000
0000
0000
;

//---------------dance-single - ----------------
#NOTES:
     dance-single:
     :
     Hard:
     11:
     :
0000
0000
0000
0000
,
0000
0000
0000
0000
,
0000
0000
0000
0000
,
0000
0000
0000
0000
,
0000
0000
0000
0000
,
0000
0000
0000
0000
,
0010
0000
0100
0000
0010
0000
0000
0000
0000
0000
0000
0000
1000
0000
0000
0100
0000
0000
0001
0000
0000
0000
0000
0000
,
0010
0000
0001
0000
0010
0000
0100
0000
0000
0000
0000
0000
1000
0000
0000
0100
0000
0000
0001
0000
0000
1000
0000
0000
,
0001
0100
1000
0100
0001
0010
0200
0000
,
1300
0010
0001
0010
1000
0001
0200
0000
,
0310
0000
1000
0000
0100
0000
1000
0000
0001
0000
1000
0000
0100
0000
0000
0010
,
0001
0000
0000
0100
0010
0000
0000
0000
1000
0000
0100
0000
1000
0000
0001
0000
,
0010
0000
0100
0000
0010
0000
0001
0000
0000
0100
0000
0000
1000
0000
0000
0100
0000
0000
0002
0000
0000
0000
0000
0000
,
0013
0000
0100
0000
1000
0000
0001
0000
1000
0000
0000
0010
0000
0000
0100
0000
,
0001
0000
1000
0000
0001
0000
0010
0000
0000
0100
0000
0000
1000
0000
0000
0010
0000
0000
0000
0000
0000
0100
0000
0000
,
0001
0010
0001
0100
1000
0010
0002
0000
,
1003
0100
1000
0010
1000
0001
0100
0000
,
0110
0000
1001
0000
0001
0010
0100
1000
,
0010
0100
0002
0000
1003
0001
1000
0100
,
0011
0000
1010
0000
0001
1000
0010
0100
,
0001
0000
0000
0100
0010
0000
0000
1000
0001
0000
0010
0000
0100
0000
0000
0000
,
1000
0000
0000
0010
0200
0000
0000
0000
0301
0000
0010
0000
0001
0000
1000
0000
,
0010
0000
0000
0000
0100
0000
0000
0000
0010
0000
0000
0000
1000
0000
0000
0000
0000
0000
0100
0000
0000
0000
0000
0000
1000
0000
0000
0000
0000
0000
0000
0000
0000
0001
0000
0000
0100
0000
0000
0000
0000
0000
0010
0000
0000
0000
0000
0000
,
0101
0000
1100
0000
0001
0100
1000
0010
,
0100
0000
0001
0000
0100
0000
0000
0000
0000
0000
0000
0000
0001
0000
0000
0010
0000
0000
1000
0000
0000
0000
0000
0000
,
1000
0100
0010
0000
0001
0100
1000
0000
,
0010
0000
0100
0000
0010
0000
0000
0000
0000
0000
0000
0000
1000
0000
0000
0100
0000
0000
0001
0000
0000
0000
0000
0000
,
0010
0000
0001
0000
0010
0000
0100
0000
0000
0000
0000
0000
1000
0000
0000
0100
0000
0000
0001
0000
0000
1000
0000
0000
,
0010
0000
0100
0000
0010
0000
0000
0000
0000
0000
0000
0000
1000
0000
0000
0100
0000
0000
0001
0000
0000
0010
0000
0000
,
0010
0001
0100
0000
0001
0010
1000
0000
,
0100
0000
1000
0000
0100
0000
0020
0000
0000
0000
0000
0000
0031
0000
0000
0010
0000
0000
1000
0000
0000
0000
0000
0000
,
0100
0000
1000
0000
0010
0000
0200
0000
0000
0000
0000
0000
0301
0000
0000
0010
0000
0000
0001
0000
0000
1000
0000
0000
,
0010
0000
0100
0000
0010
0000
0000
0000
0000
0000
0000
0000
1000
0000
0000
0100
0000
0000
0001
0000
0000
0000
0000
0000
,
0010
0000
0001
0000
1000
0000
0100
0000
0000
0000
0000
0000
1000
0000
0000
0010
0000
0000
0001
0000
0000
0000
0000
0000
,
0100
0000
0010
0000
0100
0000
0000
0000
0000
0000
0000
0000
0001
0000
0000
0010
0000
0000
1000
0000
0000
0000
0000
0000
,
0100
0000
1000
0000
0001
0000
0010
0000
0000
0000
0000
0000
0001
0000
0000
0100
0000
0000
1000
0000
0000
0001
0000
0000
,
2000
0000
0000
3020
0000
0000
0130
0000
0001
0000
1000
0000
0000
0000
0100
0000
,
1000
0010
0100
0010
1000
0010
0100
0000
,
0001
0020
0230
0300
,
2000
0000
3002
0000
1003
0100
0010
0001
,
0100
0010
0100
0001
1000
0010
0100
0000
,
0010
0000
1000
0000
0010
0000
0100
0000
0001
0000
0010
0000
0001
0000
0000
1000
,
0100
0000
0010
0000
0001
0000
0100
0000
0001
0000
0000
1000
0000
0000
0010
0000
,
1000
0000
0000
0100
0010
0000
0000
0001
2000
0000
0000
0000
0000
0000
0000
0000
,
3010
0100
0010
0000
1000
0000
0100
0000
1000
0000
0010
0000
0001
0000
0000
0000
,
0100
0000
0001
0010
0001
0000
1000
0000
0010
0000
1000
0000
0100
0000
0000
0000
,
1000
0000
0001
0000
0010
0000
0100
0000
1000
0010
1000
0000
0000
0000
0001
0000
,
0100
0000
0010
0000
0100
0000
0000
0000
0001
0000
1000
0000
0100
0000
0000
0010
,
0001
0000
0000
0001
1000
0000
0000
1000
0010
0000
0000
0010
0200
0000
0000
0000
,
0001
0000
1000
0000
0301
0100
1000
0010
,
1000
0100
1000
0001
0100
0010
0100
0000
,
0101
0000
1100
0000
0001
0100
0010
1000
,
0100
0010
0100
1000
0001
0100
0010
0100
,
0110
0000
1001
0000
1000
0010
0001
0000
,
0100
0000
0001
0000
0200
0000
0000
0000
0000
0310
0000
0000
2000
0000
0000
0001
0000
0000
3001
0000
0000
0000
0000
0000
,
1010
0000
0011
0000
0010
0001
1000
0100
,
1000
0000
0001
0000
1000
0000
0000
0000
0000
0000
0000
0000
0001
0000
0000
0010
0000
0000
1000
0000
0000
0000
0000
0000
,
1010
0000
0101
0000
0001
0100
1000
0000
,
0010
0000
0100
0000
0010
0000
0000
0000
0000
0000
0000
0000
1000
0000
0000
0100
0000
0000
0001
0000
0000
0000
0000
0000
,
0011
0000
1100
0000
1000
0010
0001
0100
,
0020
0000
0000
0000
1030
0100
0001
0000
,
0200
0000
0000
0000
0301
0010
1000
0000
,
0200
0000
0000
0000
1300
0010
0001
0000
,
0020
0000
0000
0000
0031
0100
1000
0020
,
0200
0000
0000
0000
,
0000
0000
0000
0000
,
0030
0000
0000
0000
,
0300
0000
0000
0000
;

//---------------dance-single - ----------------
#NOTES:
     dance-single:
     :
     Challenge:
     13:
     :
0000
0000
0000
0000
,
0000
0000
0000
0000
,
0000
0000
0000
0000
,
0000
0000
0000
0000
,
0000
0000
0000
0000
,
0000
0000
0000
0000
,
0010
0000
0100
0000
0010
0000
0000
0000
0000
0000
0000
0000
1000
0000
0000
0100
0000
0000
0001
0000
0000
0000
0000
0000
,
0010
0000
0001
0000
0010
0000
0100
0000
0000
0000
0000
0000
1000
0000
0000
0100
0000
0000
0001
0000
0000
1000
0000
0000
,
0010
1000
0100
1000
0001
0010
0100
0000
,
1000
0000
0010
0000
0100
0000
0001
0000
0000
0010
0000
0000
0001
0000
0000
0100
0000
0000
1000
0000
0000
0000
0000
0000
,
0010
0000
1000
0000
0001
0000
1000
0000
0001
0000
0100
0000
1000
0000
0000
0010
,
1000
0000
0100
0000
0010
0000
0001
0000
0000
0000
0000
0000
0100
0000
0000
0001
0000
0000
0010
0000
0000
1000
0000
0000
,
0001
0000
0100
0000
0010
0000
1000
0000
0000
0100
0000
0000
1000
0000
0000
0010
0000
0000
0001
0000
0000
0000
0000
0000
,
1000
0000
0000
0000
0001
0000
0000
0000
0100
0000
0000
0000
0010
0000
0000
0000
0000
0000
1000
0000
0000
0000
0000
0000
0001
0000
0000
0000
0000
0000
0100
0000
0000
0000
0000
0000
1000
0000
0000
0000
0000
0000
0000
0000
0000
0010
0000
0000
,
1000
0000
0001
0000
1000
0000
0100
0000
0000
0010
0000
0000
0001
0000
0000
0100
0000
0000
1000
0000
0000
0010
0000
0000
,
1000
0100
1000
0010
1000
0100
0001
0010
,
1000
0000
0001
0000
1000
0000
0100
0000
0000
0010
0000
0000
0001
0000
0000
1000
0000
0000
0010
0000
0000
0100
0000
0000
,
0001
0000
0100
0000
0010
0000
1000
0000
0000
0000
0000
0000
1100
0000
0000
1000
0000
0000
0001
0000
0000
0100
0000
0000
,
0010
0000
1000
0000
0001
0000
0010
0000
0000
0000
0000
0000
0011
0000
0000
0100
0000
0000
1000
0000
0000
0001
0000
0000
,
1000
0000
0001
0000
0100
0000
0010
0000
0000
0000
0000
0000
1000
0000
0000
0100
0000
0000
0001
0000
0000
0010
0000
0000
,
1000
0000
0000
0000
0001
0000
0000
0000
0010
0000
0000
0000
0100
0000
0000
0000
0000
0000
0000
0000
0000
1000
0000
0000
0010
0000
0000
0000
0000
0000
0100
0000
0000
0000
0000
0000
0010
0000
0000
0000
0000
0000
0000
0000
0000
1000
0000
0000
,
0001
0000
1000
0000
0100
0000
0010
0000
0000
0001
0000
0000
0100
0000
0000
0010
0000
0000
1000
0000
0000
0001
0000
0000
,
0010
0000
0000
0000
0100
0000
0000
0000
1000
0000
0000
0000
0001
0000
0000
0000
0000
0000
0100
0000
0000
0000
0000
0000
0010
0000
0000
0000
0000
0000
1000
0000
0000
0100
0000
0000
1000
0000
0000
0000
0000
0000
0001
0000
0000
0000
0000
0000
,
0010
0001
0100
0000
0001
0010
1000
0100
,
1000
0000
0001
0000
1000
0000
0000
0000
0000
0000
0000
0000
1010
0000
0000
0100
0000
0000
0001
0000
0000
0000
0000
0000
,
0010
0000
0001
0000
1000
0000
0100
0000
0000
0000
0000
0000
0101
0000
0000
0010
0000
0000
1000
0000
0000
0000
0000
0000
,
1000
0000
0100
0000
0010
0000
0001
0000
0000
0000
0000
0000
1001
0000
0000
0010
0000
0000
0100
0000
0000
0001
0000
0000
,
0010
0000
0100
0000
0010
0000
0100
0000
0000
0000
0000
0000
0110
0000
0000
0001
0000
0000
1000
0000
0000
0001
0000
0000
,
1000
0000
0001
0000
0010
0000
0100
0000
0000
1000
0000
0000
0001
0000
0000
0100
0000
0000
0010
0000
0000
1000
0000
0000
,
0100
0000
1000
0000
0100
0000
0010
0000
0000
0000
0000
0000
0001
0000
0000
0100
0000
0000
1000
0000
0000
0000
0000
0000
,
0001
0000
1000
0000
0100
0000
0010
0000
0000
0001
0000
0000
0100
0000
0000
0001
0000
0000
1000
0000
0000
0100
0000
0000
,
0010
0000
0100
0000
0010
0000
0001
0000
0000
0100
0000
0000
1000
0000
0000
0100
0000
0000
0001
0000
0000
0010
0000
0000
,
0100
0000
1000
0000
0001
0000
0000
0000
0000
0000
0000
0000
1001
0000
0000
0010
0000
0000
0100
0000
0000
0000
0000
0000
,
0001
0000
1000
0000
0001
0000
1000
0000
0000
0000
0000
0000
0110
0000
0000
1000
0000
0000
0010
0000
0000
0100
0000
0000
,
0001
0000
0100
0000
0001
0000
1000
0000
0000
0000
0000
0000
1010
0000
0000
1000
0000
0000
0100
0000
0000
0001
0000
0000
,
0010
0000
0001
0000
0010
0000
0100
0000
0000
0000
0000
0000
0011
0000
0000
1000
0000
0000
0100
0000
0000
0001
0000
0000
,
1000
0000
0000
0010
0000
0000
1000
0000
0001
0000
0100
0000
1000
0000
0010
0000
,
1000
0000
0001
0000
1000
0000
0001
0000
0000
0000
0000
0000
0001
0000
0000
0100
0000
0000
0010
0000
0000
0100
0000
0000
,
0002
0000
2003
0000
3001
0100
1000
0000
,
1000
0000
0100
0000
0010
0000
0001
0000
0000
0000
0000
0000
0100
0000
0000
0010
0000
0000
1000
0000
0000
0001
0000
0000
,
0010
0001
0100
0001
1000
0010
0100
0000
,
0001
0000
0000
0000
1000
0000
0000
0000
0001
0000
0000
0000
0100
0000
0000
0000
0000
0000
0010
0000
0000
0000
0000
0000
1000
0000
0000
0000
0000
0000
0100
0000
0000
0000
0000
0000
1000
0000
0000
0000
0000
0000
0000
0000
0000
0001
0000
0000
,
1000
0000
0000
0000
0010
0000
0000
0000
1000
0000
0000
0000
0001
0000
0000
0000
0000
0000
0010
0000
0000
0000
0000
0000
1000
0000
0000
0000
0000
0000
0001
0000
0000
0010
0000
0000
0001
0000
0000
0000
0000
0000
0000
0000
0000
0100
0000
0000
,
0010
0000
0000
0000
0100
0000
0000
0000
0001
0000
0000
0000
1000
0000
0000
0000
0000
0000
0000
0000
0000
0100
0000
0000
1000
0000
0000
0000
0000
0000
0010
0000
0000
0000
0000
0000
0100
0000
0000
0000
0000
0000
0001
0000
0000
0000
0000
0000
,
1000
0000
0001
0000
0100
0000
0001
0000
0000
0010
0000
0000
1000
0000
0000
0010
0000
0000
0100
0000
0000
0000
0000
0000
,
0100
0000
0000
0000
0010
0000
0000
0000
0001
0000
0000
0000
0100
0000
0000
0000
0000
0000
0010
0000
0000
0000
0000
0000
1000
0000
0000
0000
0000
0000
0100
0000
0000
0000
0000
0000
0001
0000
0000
0000
0000
0000
0000
0000
0000
1000
0000
0000
,
0010
0000
0000
0000
1000
0000
0000
0000
0100
0000
0000
0000
0001
0000
0000
0000
0000
0000
0100
0000
0000
0000
0000
0000
1000
0000
0000
0000
0000
0000
0001
0000
0000
0010
0000
0000
0001
0000
0000
0000
0000
0000
1000
0000
0000
0000
0000
0000
,
0100
0000
0000
0000
1000
0000
0000
0000
0001
0000
0000
0000
0010
0000
0000
0000
0000
0000
0000
0000
0000
0000
0000
0000
0001
0000
0000
0000
0000
0000
0010
0000
0000
0000
0000
0000
1000
0000
0000
0000
0000
0000
0100
0000
0000
1000
0000
0000
,
0100
0000
0000
0000
0010
0000
0000
0000
0100
0000
0000
0000
1000
0000
0000
0000
0000
0000
0000
0000
0000
0001
0000
0000
0010
0000
0000
0000
0000
0000
0001
0000
0000
1000
0000
0000
0002
0000
0000
0000
0000
0000
0000
0000
0000
0000
0000
0000
,
0103
0000
0001
0000
1000
0000
0100
0000
0000
0000
0000
0000
1100
0000
0000
0001
0000
0000
2000
0000
0000
0000
0000
0000
,
3100
0000
1000
0000
0001
0000
1000
0000
0000
0010
0000
0000
1000
0000
0000
0100
0000
0000
0001
0000
0000
0100
0000
0000
,
0010
0000
0001
0000
1000
0000
0001
0000
0000
0000
0000
0000
0101
0000
0000
0100
0000
0000
0010
0000
0000
1000
0000
0000
,
0100
0000
1000
0000
0001
0000
0010
0000
0000
0100
0000
0000
1000
0000
0000
0010
0000
0000
0100
0000
0000
0001
0000
0000
,
1000
0000
0100
0000
1000
0000
0100
0000
0000
0000
0000
0000
0001
0000
0000
0100
0000
0000
1000
0000
0000
0010
0000
0000
,
1000
0000
0001
0000
0100
0000
0001
0000
0000
0010
0000
0000
0001
0000
0000
1000
0000
0000
0100
0000
0000
0000
0000
0000
,
1000
0000
0010
0000
1000
0000
0001
0000
0000
0100
0000
0000
0010
0000
0000
0001
0000
0000
0010
0000
0000
1000
0000
0000
,
0100
0000
1000
0000
0010
0000
0100
0000
0000
0000
0000
0000
0001
0000
0000
0010
0000
0000
1000
0000
0000
0000
0000
0000
,
0100
0000
0010
0000
0001
0000
1000
0000
0000
0000
0000
0000
0001
0000
0000
0100
0000
0000
1000
0000
0000
0000
0000
0000
,
0010
0000
1000
0000
0100
0000
0001
0000
0000
0000
0000
0000
1000
0000
0000
0010
0000
0000
0001
0000
0000
0000
0000
0000
,
1000
0000
0100
0000
0010
0000
0001
0000
0000
0000
0000
0000
0100
0000
0000
0010
0000
0000
1000
0000
0000
0001
0000
0000
,
0020
0000
0000
0000
0031
0100
1000
0000
,
0200
0000
0000
0000
1300
0010
0001
0000
,
0200
0000
0000
0000
0301
0010
1000
0000
,
0020
0000
0000
0000
1030
0100
0001
0020
,
0200
0000
0000
0000
,
0000
0000
0000
0000
,
0030
0000
0000
0000
,
0300
0000
0000
0000
;
