#TITLE:Sugar Gummy;
#ARTIST:pan;
#BANNER:Sugar Gummy-bn.png;
#BACKGROUND:Sugar Gummy-bg.png;
#JACKET:Sugar Gummy-jacket.png;
#MUSIC:Sugar Gummy.ogg;
#SAMPLESTART:80.031;
#SAMPLELENGTH:20;
#DISPLAYBPM:196;
#BPMS:0=196;
#STOPS:35.5=0.306,197=0.306;
#BGCHANGES:;

//---------------dance-single - ----------------
#NOTES:
     dance-single:
     :
     Beginner:
     6:
     :
0000
0000
0000
0000
,
0000
0000
0000
0000
,
0000
0000
0000
0000
,
0000
0000
0000
0000
,
0000
0000
0000
0000
,
0000
0000
0000
0000
,
1000
0000
0001
0000
,
1000
0000
0001
0000
,
0100
0000
0010
0000
,
0000
0000
0000
1000
,
1000
0000
0001
0001
,
0000
0100
0000
0010
,
0010
0000
0100
0100
,
0000
0001
0000
1001
,
0000
0000
0000
0110
,
0000
0000
0000
1001
,
0000
0000
0110
0000
,
0000
1001
0000
0001
,
0001
0001
0000
0110
,
0000
0100
0100
0100
,
0000
0000
0010
0000
,
0000
1000
1000
1000
,
0000
0001
0000
0010
,
0000
0001
0000
0100
,
0000
0010
0010
0000
,
0000
1000
0000
0001
,
0001
0001
0000
1001
,
0000
0010
0010
0000
,
0000
0110
0000
1001
,
0000
0100
0100
0100
,
0000
0001
0001
0001
,
0000
0010
0010
0010
,
0000
0110
0000
1001
,
0000
0110
0000
0001
,
0001
0000
1000
1000
,
0000
0010
0000
0100
,
0100
0000
0001
0001
,
0000
1000
1000
0000
,
0010
0010
0000
1000
,
0000
0001
0000
1001
,
0000
0000
0110
0000
,
0000
0100
0100
0100
,
0000
0010
0000
0100
,
0100
0100
0000
0001
,
0000
0010
0000
0100
,
0000
1000
1000
1000
,
0000
0001
0000
0100
,
0000
0010
0000
1000
,
0000
0010
0010
0010
,
0000
0100
0020
0000
,
0000
0000
0000
0030
,
0000
0000
0200
0000
,
0000
0000
0000
0300
,
0000
0000
0002
0000
,
0003
0000
2000
0000
,
3000
0000
0010
0000
,
1000
0000
0100
0100
,
0100
0000
1000
0001
,
1000
0000
0000
0000
,
0000
0001
0100
0000
,
0010
0000
1000
0000
,
0001
0100
0001
0000
,
0010
0000
0001
1000
,
0010
0100
0001
0000
,
1000
0100
0000
0000
,
1000
0001
0100
0001
,
1000
0000
1001
0000
,
0000
0001
0010
0000
,
0001
0100
0000
0000
,
0010
1000
0010
0000
,
0100
0001
0100
0000
,
0001
0000
0110
0000
,
1001
0000
0110
0000
,
1000
0001
0010
0001
,
1000
0000
1001
0000
,
1000
0100
0000
0000
,
0110
0000
1001
0000
,
0010
1000
0100
0000
,
1000
0001
0100
0000
,
0010
0000
0110
0000
,
0000
0000
0000
0000
,
0000
0000
0001
0010
,
0000
0001
1000
0000
,
0100
0000
1000
0001
,
0000
1000
0100
0000
,
0010
0000
0001
1000
,
0001
0000
0010
0100
,
0100
0000
1000
0010
,
0100
0001
0010
0100
,
1000
0000
0100
0010
,
0000
0001
0100
0010
,
1000
0001
0001
0000
,
1000
0000
0010
1000
,
0100
0000
1000
1000
,
0000
0001
0000
0100
,
0000
0010
1000
0001
,
1000
0100
0010
0010
,
0010
0010
0000
0000
;

//---------------dance-single - ----------------
#NOTES:
     dance-single:
     :
     Easy:
     9:
     :
0000
0000
0000
0000
,
0000
0000
0000
0000
,
0000
0000
0000
0000
,
0000
0000
0000
0000
,
0000
0000
0000
0000
,
0000
0000
0000
0000
,
1000
0001
1000
0001
,
1000
0001
0100
0100
,
0001
0000
1000
0000
0001
0000
1000
0001
,
0000
1100
0101
0010
,
0001
0100
0010
1000
,
0100
1000
0001
0010
,
0100
0010
0001
0100
,
1000
0010
0100
0101
,
0010
1000
0100
1100
,
0001
1000
0010
1010
,
0000
1001
0000
0000
0011
0000
0000
1001
,
0000
0000
0001
0100
0001
0100
0010
0000
,
0100
2000
0010
3001
,
0000
0000
0100
0010
0100
0010
0100
0000
,
0001
1000
0000
0010
0000
0100
0000
0000
,
0000
0000
0001
1000
0001
1000
0001
0000
,
0010
0000
0001
0000
0100
0010
0000
2000
,
0000
3002
0000
2003
0000
3010
0100
0000
,
0001
1000
0000
0001
1000
0000
0000
0000
,
0000
0000
0100
1000
0100
1000
0100
0000
,
0010
0002
1000
0103
,
0000
0000
0010
1000
0010
2000
0000
3000
,
0000
0001
0200
0000
0300
0001
0200
0000
,
0300
0000
0001
0010
0001
0010
0001
0000
,
0100
0010
0000
0110
0000
0110
0000
0000
,
1000
0100
0001
0011
,
0100
1010
0100
0101
,
0010
1100
0010
1001
,
0100
0010
0000
0000
1000
0100
0001
0000
,
0011
0101
1001
0010
,
1000
0001
0000
0000
0010
0100
1000
0000
,
1100
1010
1001
0000
,
0110
0000
0110
0000
0000
0001
0000
1000
,
0000
0001
0000
1000
0100
0010
0001
0000
,
0000
0101
0000
0000
1100
0000
0000
0101
,
0000
0000
1000
0001
0100
0000
0010
0000
,
1000
0010
0100
0001
,
0010
0001
1000
0100
,
0010
0100
1000
0010
,
0100
0001
1000
1001
,
0100
0010
0110
1001
,
1000
0001
0100
0001
,
0010
0100
1000
1100
,
0110
0011
0020
0000
,
0000
0000
0000
0000
,
0032
2003
3200
0000
,
2300
0000
0000
3020
0000
0000
0100
0000
,
1000
1030
0000
0101
,
1010
0000
0000
0001
0000
1000
0000
0001
,
0000
0100
0000
0010
1000
0000
0100
1000
,
0000
0100
1000
0000
1100
0000
0101
0000
,
1000
0010
0100
0001
0020
0000
0032
0000
,
1003
0010
1000
0100
,
0010
0000
0001
1000
0002
0000
0003
0100
,
0020
0000
0030
1000
0200
0000
0300
2000
,
0000
3010
1000
0001
0100
0000
0010
0100
,
0002
0000
0023
0000
0130
1000
0001
0000
,
0100
0010
1000
0000
1001
0000
0000
0110
,
0000
0001
1000
0001
0000
0000
0000
0000
,
1000
0010
0100
0010
2000
0000
3001
0000
,
0200
0310
0101
0000
,
1000
0001
0100
0010
0100
0000
0001
1000
,
0000
0001
1000
0001
0000
0000
0000
0000
,
0100
0010
0100
0010
0100
0000
0001
0010
,
0001
0000
1000
0100
0000
1100
0000
0011
,
0000
1000
0001
0100
0010
0000
1000
0100
,
0001
0000
0011
0000
0001
0100
1000
0000
,
0110
1001
0020
1030
,
0002
0103
1010
0000
,
1000
0100
0010
0002
0000
0003
0000
0100
,
0020
0000
0030
1000
0002
0000
0003
0000
,
0010
0001
0010
0100
2000
0000
3010
0000
,
1000
0001
0100
0010
0000
0110
0000
0010
,
0200
0302
0013
0001
,
0100
0000
1000
0000
0010
1000
0100
0000
,
0010
0001
0100
0000
0011
0000
0000
0101
,
0000
0000
1010
0000
0000
0101
0000
0000
,
1001
0000
1001
0000
1100
0000
0000
1010
,
0000
0000
0101
0000
0000
1010
0000
0000
,
0110
0110
0001
0010
,
0001
1000
0100
0001
,
0010
0000
0100
0000
1100
0000
0000
0110
,
0000
0000
0011
0000
0000
1001
0000
0000
,
0100
0001
1000
0000
0010
0000
1000
0000
,
0100
0010
0001
0100
,
1000
0001
0200
0000
0320
0000
1000
0000
,
0100
1000
0130
0001
,
0010
0100
1000
0000
0001
0000
0101
0000
,
1000
1100
0001
0011
,
1000
0000
1010
0000
0001
0010
0100
0000
,
1000
0010
0100
0000
0101
0000
1100
0000
,
0101
1100
0000
0000
;

//---------------dance-single - ----------------
#NOTES:
     dance-single:
     :
     Medium:
     13:
     :
0000
0000
0000
0000
,
0000
0000
0000
0000
,
0000
0000
0000
0000
,
0000
0000
0000
0000
,
0000
0000
0000
0000
,
0000
0000
0000
0000
,
1000
0000
2000
0000
0000
0001
0000
0100
,
0000
3001
0000
0000
1100
0000
1100
0000
,
0001
0000
0002
0000
0000
0100
0000
0103
,
0000
0000
1000
0001
0100
0000
1010
0000
,
1010
0000
1000
0100
0010
0001
0000
0001
,
0000
0100
0010
0101
,
0101
0000
0001
1000
0010
0100
0000
0100
,
0000
0001
1000
0101
,
0100
0010
1000
0000
0001
0100
1010
0000
,
1000
0100
0010
0000
0001
1000
1100
0000
,
0001
0011
0000
0100
0110
0000
0001
1001
,
0000
1000
0100
0010
0001
0100
0020
0000
,
1030
2100
3001
0110
,
0000
0000
0001
0100
1000
0100
0001
0000
,
0010
0001
0000
1000
0001
0100
0000
0010
,
1000
0000
1000
0100
0001
0100
1000
0000
,
0101
0000
1000
0001
0010
0200
0000
0320
,
0000
0032
0000
2003
0000
3001
0100
0000
,
0010
1000
0000
0100
0001
1000
0001
0010
,
0100
1000
0010
0100
0010
0100
0002
0000
,
1003
0000
0011
0001
0100
0010
1000
0100
,
0001
0000
1000
0010
0001
0010
2000
0000
,
0000
0100
3200
0000
0000
0010
0320
0000
,
0000
0000
0031
0100
1000
0100
0002
0000
,
0010
0013
0000
0011
0000
1100
0000
0001
,
0200
2300
3200
0302
,
1003
0100
2000
0000
3010
0100
0001
0010
,
0001
0100
0010
1000
0001
0000
1001
0100
,
0010
0100
0000
0001
0010
0100
1000
0100
,
0002
0000
0023
0000
0230
0000
1300
0010
,
1000
0001
0000
0010
0001
0100
0010
1000
,
0001
1001
1001
0010
,
1010
0000
0101
0000
1000
0002
0000
0023
,
0000
0230
0000
1300
0001
1000
1100
0000
,
0001
0101
0000
0100
0110
0000
0010
1010
,
0000
0001
0010
0100
0010
0100
1000
0010
,
0100
0001
0000
0010
0001
0100
0001
0010
,
0100
1100
0110
0022
,
0030
1000
1003
0001
1000
0200
0000
0310
,
0100
0010
0100
1000
0001
0000
0011
0000
,
1001
1010
1001
0011
,
1001
0000
1010
0000
0100
1000
0010
0100
,
0010
1000
0100
0010
0001
0000
0110
0000
,
1000
0100
0002
0000
0023
0000
0000
0000
,
0000
0000
0000
0000
0000
0000
0000
0031
,
1000
0001
0100
0000
0020
0000
0000
1030
,
0002
0000
0013
0200
0000
1300
0020
0000
,
0230
0301
0000
1100
,
1000
0100
1000
0002
0000
0023
0000
0032
,
0000
0203
0000
1300
0200
0000
0001
0302
,
0000
0000
1000
0000
1003
0000
0000
0000
0100
0000
0000
0100
0000
0000
0100
0000
,
0100
0010
0100
0010
1000
0000
1100
0000
,
0101
0001
0100
0000
0010
0000
1000
0000
,
0010
0100
0001
1000
2002
0000
0003
0001
,
3002
0000
0000
0100
0203
0000
0000
0310
,
1000
0100
1000
0001
0200
0000
0301
1000
,
0001
0000
0000
0100
0000
0000
0010
0000
1000
0000
0100
0000
0010
0000
0001
0000
,
1000
0010
0100
0001
0011
0000
0100
1100
,
0000
0001
0010
1000
0000
0000
0000
0001
,
1000
0010
1000
0001
0100
0010
1000
0000
,
0102
0013
0110
0000
,
1000
0010
0001
0010
1000
0000
0001
0100
,
0000
0001
0100
0001
0000
0010
0001
0000
,
1000
0010
0001
0010
1000
0100
1000
0100
,
0010
0001
0100
0001
0000
1001
0000
0110
,
0000
0001
0100
1000
0010
0100
0001
0000
,
0011
0000
1000
0001
0100
0110
0000
0010
,
1000
0010
1000
0100
0010
0001
0100
0000
,
2010
3001
1001
0000
,
0010
1000
0100
0010
0002
0000
0000
0103
,
0020
0000
0000
1030
0200
0000
0000
0000
,
0310
0100
1000
0001
0200
0000
0320
0000
,
1030
0010
0001
0100
0000
0100
0000
0100
,
0010
1000
0001
0100
0001
0000
0010
0001
,
0010
0100
1000
0001
0000
0100
0010
0000
,
1000
0100
1000
0000
1100
0100
0010
0011
,
0000
0000
0001
0100
1000
0100
0002
0000
,
2003
0000
3001
0000
0101
0100
0010
1010
,
0000
0000
1000
0010
0001
0010
2000
0000
,
3200
0000
0310
0000
0001
0010
0001
0100
,
0001
0010
0100
1000
0000
0100
1000
0010
,
2000
0000
3001
0010
0001
0101
0000
1000
,
1010
0000
0010
0110
0000
0100
0101
0000
,
1000
0001
0020
0000
0031
0100
0010
1000
,
0000
0001
0100
0010
1000
0100
0001
0100
,
0010
0100
2000
0000
3002
0000
0013
0001
,
0100
0001
0100
0001
0010
0000
0001
0100
,
0010
1000
0100
0010
0001
0100
0001
0100
,
0010
1000
0010
1000
0001
0010
0001
0010
,
0100
1000
0100
1000
0001
0010
0100
1000
,
0001
0000
0100
0000
0010
0000
1000
0000
0001
0000
0000
0001
0000
0000
1000
0000
,
0000
1000
0000
0000
0010
0000
0100
0000
0000
0000
0000
0000
0000
0000
0000
0000
;

//---------------dance-single - ----------------
#NOTES:
     dance-single:
     :
     Hard:
     16:
     :
0000
0000
0000
0000
,
0000
0000
0000
0000
,
0000
0000
0000
0000
,
0000
0000
0000
0000
,
0000
0000
0000
0000
,
0000
0000
0000
0000
,
1000
0000
1000
0100
1000
0001
0000
1100
,
0000
1100
0000
0001
0100
0000
0100
0000
,
0010
0000
0010
0100
0001
1000
0000
1001
,
0000
0000
1000
0001
1000
0000
0001
0000
0100
0000
0000
0000
0010
0000
0100
0000
,
0010
1000
0100
0010
0001
0100
0000
0110
,
0000
0000
0010
0000
1000
0100
1000
0000
0100
1000
0100
0000
0010
0000
0001
0000
,
1000
0001
0100
0010
1000
0001
0000
0011
,
0000
0000
0010
0000
0001
0100
0001
0000
0100
0001
0100
0000
1010
0000
0000
0000
,
0100
1000
0010
0100
0001
1000
1100
1000
,
0010
0100
0001
0010
0001
1000
0101
0100
,
0001
0011
0010
0100
0110
0100
1000
1001
,
0000
0000
0001
0100
0001
0000
1000
0000
0001
0000
1000
0000
1002
0000
0000
0000
,
0023
0000
0000
0000
0031
0100
0001
0000
1000
0000
0000
0000
1100
0000
0010
0000
,
0100
0010
1000
0100
0001
0100
0110
0010
,
0001
0001
0100
0010
1000
1000
0000
0100
,
1000
0000
0001
0100
1000
0100
0001
0000
,
0011
0000
0011
0001
0100
1000
0000
1100
,
0000
0101
1000
0010
0100
0001
0010
0000
,
0001
1000
0001
0000
0000
0000
0100
0010
0100
0000
0010
0000
0010
0000
1000
0000
,
0100
0001
1000
0010
0001
0100
0110
0100
,
1000
0000
0000
0000
0001
1000
0001
0000
0100
0000
0010
0000
0101
0000
1000
0000
,
0001
0000
0010
0000
0100
1000
0100
0000
0010
0001
0010
0000
0200
0000
0000
0000
,
0310
0000
0001
1000
0002
0000
0000
0000
0103
0000
0010
1000
0010
0000
0100
0000
,
1000
0100
0001
0010
0001
1000
1100
0001
,
1000
1000
0000
1001
0000
0110
0001
0100
,
1000
0000
0010
0000
1000
0000
0001
0000
1000
0000
0100
0000
0010
0001
0100
0000
,
1000
0000
1000
0000
0010
1000
0100
0000
0001
0000
0001
0000
1000
0010
1000
0010
,
0100
0001
0100
0001
0010
0000
0100
0000
0100
0000
0000
0000
0011
0000
1000
0000
,
0100
0001
0010
0100
0010
0001
1000
0100
,
0001
0010
0000
0000
0001
0100
0000
0000
0001
1000
0000
0000
0010
0000
1000
0000
,
0100
0001
0000
0010
0001
0100
1000
0010
,
0100
0001
0000
0000
0100
1000
0000
0000
0100
0010
0000
0000
0100
0000
0001
0000
,
0101
0000
0000
0000
1100
0000
0000
0000
0001
0010
0100
0000
0000
0000
1000
0000
,
0010
0100
1000
0100
0001
0010
0012
0000
,
0103
0000
1020
0000
0000
0000
0130
0000
0011
0000
0010
0000
1000
0000
1000
0100
,
0010
0000
0001
0000
0100
0001
1000
0000
0100
1000
0001
0000
0010
0000
0001
0000
,
0100
1000
0000
1000
0100
0001
0010
0100
,
1000
1100
0110
0022
,
0030
0000
1003
0001
0100
0000
0010
0000
1000
0100
2000
0000
0000
0000
3001
0000
,
0010
1000
0001
0100
1000
0000
0101
0000
,
1001
0101
1001
0101
,
1001
0000
0000
0000
0101
0000
0000
0000
1000
0000
0100
0000
0001
0010
0001
0000
,
0100
0000
0010
1000
0010
0000
0100
0000
0110
0000
0000
0000
1001
0000
0100
0000
,
1000
0100
0001
0000
0020
0000
0001
0000
,
0000
1000
0000
1000
0000
0001
0000
0000
,
0230
0000
0000
0000
2300
0000
0000
0000
3002
0000
0000
0000
0000
0000
0103
0010
,
2000
0000
0000
0000
3001
0000
0002
0000
0000
0000
0103
0010
2000
0000
0000
0000
,
3002
0203
0310
1010
,
1010
0001
0100
2000
0000
3020
0000
0230
,
0000
0000
0302
0000
0000
0000
0013
0001
1000
0000
0000
0000
0100
0000
0100
0000
,
0000
0000
1000
0100
0010
0000
0001
0000
0100
0000
0000
0100
0000
0000
0100
0000
,
0100
0000
0001
0000
0010
0000
0001
0000
1000
0100
0000
0000
1010
0000
0000
0000
,
0101
0000
0001
0000
0010
0000
0100
0000
1000
0000
0001
0100
0001
0000
0010
0000
,
0100
0000
1000
0000
0010
0100
0001
0100
0010
0000
1000
0000
0100
0000
1001
0000
,
1001
0000
0010
0000
0100
0000
0001
0010
0001
0000
0100
0000
0010
0000
1000
0100
,
1000
0000
0001
0000
1000
0000
0100
0000
0110
0000
0000
0010
0001
0100
0010
1000
,
0001
0000
0100
0010
0000
0100
0010
0000
1000
0100
1000
0100
0010
0001
0010
0001
,
0100
0010
0100
0010
1000
0001
1000
0001
0010
0000
0001
0100
0001
0000
1000
0000
,
0100
0000
0010
0001
1000
0000
1000
0000
0000
0000
0100
0010
0100
0010
0100
0010
,
0002
2003
3020
0230
0301
0100
1000
0000
,
0010
1000
0001
0000
0100
0000
0010
0000
0110
0000
0100
0000
0001
0000
0000
0000
,
1000
0010
1000
0001
0010
0001
0100
1010
,
0000
0000
0001
1000
0100
0000
0010
0000
0001
0000
0100
0000
0001
0000
0000
0000
,
1000
0000
0100
0000
0001
0000
0100
0000
1000
0000
0010
0100
0010
0100
0010
0100
,
0010
1000
0001
0001
0000
0101
0000
1100
,
0000
0001
0100
1000
0001
0100
1000
0100
,
1001
0000
1000
0000
0100
0000
0001
0000
0100
0000
1001
0000
0010
0000
0100
0001
,
0010
0001
1000
0100
1100
0001
0100
0010
,
1000
0100
0010
0000
0001
0000
0100
0000
0011
0000
0100
0000
0010
0000
0000
0000
,
1000
0000
0001
0000
0010
0100
1000
0000
0002
0000
0000
0000
0103
0000
0010
1000
,
0020
0000
0000
0000
0130
0000
0001
1000
0001
0000
0100
0000
0010
0000
0100
0000
,
1000
0100
0001
0100
0110
0000
1010
0000
,
0001
0000
1000
0000
0001
0100
0010
0000
0000
0000
1001
0000
0000
0000
0110
0000
,
0001
0100
0010
0000
1000
0000
0100
0000
0001
0000
0010
0000
1000
0000
0010
0000
,
0100
0000
0010
0000
1000
0000
0010
0000
0001
1000
0010
0100
0001
0000
1000
0000
,
0010
0000
0000
1000
0000
0000
0100
0000
0000
0000
0000
0000
1000
0000
0000
0000
0001
0000
0000
0000
1000
0000
0000
0000
0001
0000
0000
0000
0000
0000
0010
0000
0000
0000
0000
0000
0100
0000
0000
0000
0000
0000
1100
0000
0000
0000
0000
0000
,
0000
0010
0100
0001
1000
0001
0101
0000
,
0011
0000
0101
0000
1010
0001
0100
0011
,
0000
1000
0100
0001
0010
0100
1010
0000
,
1001
0000
0000
0000
1000
0100
1000
0100
1000
0000
0010
0100
0001
0000
0010
0000
,
0001
0100
1000
0001
0000
0100
0001
0010
,
0100
0000
1000
0000
0001
0010
0100
0010
0001
0000
0100
0000
0010
0000
1000
0000
,
0100
0000
0001
0000
0100
0000
1000
0001
0100
0000
0010
0000
1000
0100
1000
0100
,
0010
0001
0010
0100
1000
0000
0000
0000
0001
0000
0100
0010
1000
0000
0001
0000
,
0010
0000
1000
0000
0010
0001
0100
0000
0010
0000
1000
0001
1000
0000
0100
0000
,
0010
0001
0010
0100
2000
0000
0000
0000
3002
0000
0000
0000
0103
0000
0010
0000
,
1000
0001
0100
0000
0001
0010
0100
1000
0100
0000
0010
0000
0001
0000
0100
0000
,
0010
1000
0010
1000
0001
0100
0001
0100
0010
0000
1000
0000
0100
0010
0001
0000
,
0100
0000
0010
0000
1000
0001
0010
0000
0100
0000
1000
0000
0001
0100
0010
0000
,
1000
0000
0001
0000
1000
0100
0010
0001
0100
0000
0010
0000
1000
0000
0001
0000
,
0010
0000
0100
0000
1000
0000
0001
0000
0011
0000
0000
0110
0000
0000
1100
0000
,
0000
1010
0000
0000
1001
0000
0101
0000
0000
0000
0000
0000
0000
0000
0000
0000
;

//---------------dance-single - ----------------
#NOTES:
     dance-single:
     :
     Challenge:
     19:
     :
0000
0000
0000
0000
,
0000
0000
0000
0000
,
0000
0000
0000
0000
,
0000
0000
0000
0000
,
0000
0000
0000
0000
,
0000
0000
0000
0000
,
1000
0100
0010
0001
0100
0010
0001
1000
,
0001
0100
0010
1000
0100
0010
0001
1000
,
0010
1000
0001
1000
0100
0010
0001
0100
,
0000
0000
1000
0100
0001
0000
1001
0000
1001
0000
0000
0000
0010
0000
1000
0000
,
0100
0000
0010
0000
0100
0000
1000
0000
0010
0001
0100
0000
0010
0000
1000
0010
,
0100
0001
0010
0000
0001
1000
0100
0000
0001
1000
0010
0000
0001
0000
0100
0000
,
0010
0000
1000
0000
0100
0000
1000
0000
0001
0010
0100
0000
0010
0000
1000
0010
,
0100
0001
0010
0000
0001
0000
0100
0000
0001
0010
1000
0000
1100
0000
0100
0000
,
0010
0001
0100
0010
1000
0001
0011
0010
,
0100
0000
1000
0000
0010
0001
0100
0000
0001
0010
1000
0000
1010
0000
0001
1000
,
0100
0000
1001
0000
0010
0001
0100
0000
0101
0000
0010
0100
1000
0000
0110
0000
,
0000
0000
0100
0001
0010
0000
0100
0000
1000
0000
0001
0000
0020
0002
0000
0030
,
0103
0000
0010
0000
2000
0002
0000
0003
3010
0000
0100
0000
0110
0000
0001
0000
,
0010
0000
1000
0000
0100
0010
0001
0000
0100
0010
1000
0000
1100
0000
0100
0000
,
0110
0000
0110
0000
0010
0000
0001
0100
1000
0000
1000
0000
0010
0000
0100
0000
,
0001
0000
0000
0000
1000
0100
0010
0001
0010
0100
1000
0000
1010
0000
0100
0000
,
0101
0000
0000
0000
0101
0000
1000
0000
0001
0010
0100
0000
0000
0000
1000
0100
,
1000
0000
0001
0100
0001
0000
0010
0000
0100
0000
1100
0000
0011
0000
0000
0000
,
0011
0000
1100
0000
0000
0000
0001
0010
2000
0000
3200
0000
2300
0000
3020
0000
,
0032
0000
0203
0000
2300
0000
3002
0000
0203
0000
0320
0000
2030
0002
0000
3000
,
0103
0000
0010
0000
2000
3200
0310
0000
0001
0000
0100
0000
1001
0000
0010
0000
,
1000
0000
0001
0000
0010
1000
0010
0100
0010
0001
0010
0000
0022
0000
0000
0000
,
0030
0000
0103
0010
1000
0000
0001
0000
0100
0000
0010
1000
0001
0000
0100
0000
,
0010
0000
1000
0000
0100
0001
0010
0000
0100
1000
0010
0000
1000
0100
0001
0100
,
1000
0000
0010
0001
0100
0000
0110
0000
1000
0000
0100
0010
0001
0000
0100
0000
,
0010
1000
0001
0000
0010
0001
1000
0000
0010
1000
0001
0000
1000
0100
0001
0100
,
1000
0000
1001
0000
0001
0100
1000
0100
0001
0000
1001
0000
1000
0100
0010
0001
,
1000
0100
0010
0001
0100
0000
0110
0000
1001
0000
0000
0000
1100
0000
0001
0000
,
0100
0000
0101
0000
0010
0000
1000
0000
0100
0010
0001
0010
0100
1000
0001
0000
,
0100
0010
1000
0000
0100
0010
0001
0000
1000
0001
0100
0000
0101
0000
0010
0000
,
1000
0000
1010
0000
0100
0000
0010
0000
1000
0000
0001
0000
0010
0100
1000
0100
,
0010
0001
1000
0000
0100
1000
0010
0000
0100
0001
1000
0000
0100
0000
0010
0000
,
0001
1000
0000
0000
0010
1000
0000
1000
0100
0010
0001
0000
0100
0000
0001
0010
,
0001
0000
0100
0010
1000
0000
1100
0000
0110
0000
0011
0000
0100
0001
0010
0100
,
1000
0010
2000
0000
0000
0000
3100
0010
0002
0000
0000
0000
0013
0001
0100
0000
,
0010
1000
0100
0010
0001
0100
0010
0000
1000
0001
0100
0010
1000
0000
0100
0000
,
0010
0000
0011
0000
0100
0000
0001
0000
0010
0001
0010
0100
1000
0000
0010
0000
,
1000
0001
0100
0000
0010
1000
0001
0000
0010
0100
1000
0000
1100
0000
0001
0000
,
0100
0000
1000
0010
0001
0000
0100
0001
0010
0100
1000
0000
0010
0000
0100
0010
,
0100
0001
1000
0000
0100
1000
0010
0100
0001
0000
0000
0000
0101
0000
0010
0000
,
1000
0100
1000
0000
1010
0000
0010
0000
0100
0000
0001
0010
0001
0000
0100
0000
,
0010
0000
1000
0001
1000
0000
0100
0000
0010
0001
0100
0000
0010
1000
0100
0000
,
0110
0000
0010
0001
0100
0010
1000
0000
0100
1000
0001
0000
1001
0000
1010
0000
,
1100
1010
1001
0000
0020
0000
0032
0000
,
1003
0000
0010
0000
1000
0000
0101
0000
0000
0000
0101
0000
0000
0000
0001
0100
,
1000
0000
0010
0000
0100
0000
0000
0000
0001
0000
0010
0000
0100
0000
1000
0010
,
0100
0000
0001
0000
0010
0000
0001
0000
0100
0000
0010
1000
0001
0000
0000
0000
,
1000
0100
1000
0000
0100
1000
0100
0000
0110
0000
0000
0000
1001
0000
0000
0000
,
1001
0000
0100
0001
0010
0100
1000
0000
0000
0000
1000
0100
0000
0000
0100
0010
,
0000
0000
0010
0001
0000
0000
0100
0010
1000
0000
0000
0000
1010
0000
1010
0000
,
0000
0000
0001
0100
1000
0000
0010
0000
0100
0000
0000
0100
0000
0000
0100
0000
,
0100
0001
0010
0000
0100
1000
0010
0000
1000
0000
0100
0000
0010
0000
0001
0000
,
0100
0000
0010
0000
1000
0001
1000
0000
0010
0000
0100
0001
0100
0000
0010
0000
,
1000
0000
0100
0000
1000
0010
0001
0100
0010
0000
1000
0000
0100
0010
0001
0000
,
0100
0000
0010
0000
1000
0001
0010
0100
0001
0000
0010
0001
1000
0000
0100
1000
,
0010
0000
0100
0000
0001
0010
0001
0000
1001
0000
0100
0010
1000
0010
0001
0100
,
1000
0000
0010
1000
0001
0010
1000
0100
0010
0001
1000
0001
1000
0100
0010
1000
,
0100
0001
0100
0010
0001
1000
0100
0010
0001
0000
0100
1000
0010
0000
0101
0000
,
1000
0100
0010
0001
0010
0100
1000
0000
0000
0000
0100
0010
1000
0001
0100
0010
,
1000
0001
0100
0010
1000
0001
0100
0010
1000
0100
0001
0000
0010
0001
0100
0000
,
1000
0001
0100
0000
0010
1000
0100
0010
0001
0000
0100
0001
0010
0000
0100
0000
,
1000
0010
0100
0010
1000
0000
0001
0000
0010
0000
0001
0000
0100
0010
1000
0000
,
0100
0000
1000
0010
0001
0000
0100
0000
0020
0000
1000
0000
0230
0000
0001
0000
,
1300
0010
0001
0100
0010
0100
0001
0000
0011
0000
1000
0100
0001
1000
0100
0001
,
0010
0000
0100
1000
0010
0100
0001
0000
1100
0000
0001
0100
1000
0000
0010
1000
,
0100
0000
0010
0000
0001
0100
0001
0000
1100
0000
1001
0000
0011
0000
0110
0000
,
1100
0000
1010
0000
0101
0000
0011
0000
1001
0000
0101
0000
0011
0000
0100
1000
,
0001
0100
0010
0000
1010
0000
0101
0000
1000
0010
0001
0000
0010
0100
1000
0000
,
0001
0100
0010
0100
0001
0010
0100
1000
0001
0000
0101
0000
0101
0000
0000
0000
,
0010
0001
0010
0100
1000
0001
0100
0000
0110
0000
0100
0000
1000
0000
0001
0010
,
1000
0000
0100
0000
0010
0000
0001
0100
1000
0000
0010
0000
0100
0000
0001
0000
,
0010
1000
0001
0010
1000
0100
0010
0001
0100
0010
0100
0001
1000
0000
0000
0000
,
0100
1000
0010
0000
0100
0001
1000
0000
0100
0000
0110
0000
0001
0000
1010
0000
,
0001
0100
1000
0010
0100
0001
0010
1000
0100
0000
0010
0000
0001
0000
0200
0000
,
0302
0000
0023
0000
0032
0000
2003
0000
3100
1000
0010
0100
0001
0000
0010
0000
,
0001
0000
1000
0000
0001
0000
1000
0000
0000
0010
0000
0000
0100
0000
0000
0000
0100
0000
0000
0000
0100
0000
0000
0000
0100
0000
0000
0000
0000
0000
0010
0000
0000
0000
0000
0000
1010
0000
0000
0000
0000
0000
0011
0000
0000
0000
0000
0000
,
0000
0000
0100
0000
0101
0000
0010
0000
1010
0000
1001
0000
1100
0000
1000
0001
,
0100
0000
0001
1000
0100
0000
0010
0000
0001
0100
0010
0100
0001
0000
1000
0000
,
0100
0000
0010
0000
1000
0010
0001
0010
0100
0001
0100
1000
0010
0000
0100
0001
,
1000
0000
0100
0000
1000
0010
0001
1000
0100
0000
0010
0001
0100
0000
0010
0000
,
1001
0000
0110
0000
1000
0010
0001
0000
0100
0000
0001
0010
0100
0000
1000
0010
,
0100
0000
0001
0010
1000
0100
1000
0001
0011
0000
0110
0000
1100
0000
1010
0000
,
1001
0000
0000
0000
0000
0000
0101
0000
0000
0000
0000
0000
0011
0000
0000
0000
0000
0000
0001
0000
1000
0000
0001
0000
1000
0000
0000
0000
0000
0000
0010
0000
0000
0100
0000
0000
0001
0000
0000
0010
0000
0000
0100
0000
0000
1000
0000
0000
,
0010
1000
0100
0001
0010
1000
0001
0100
0010
0000
0100
0001
1000
0000
0100
0000
,
0010
0000
0001
0000
0100
0010
1000
0001
0010
0000
0001
0100
1000
0000
0110
0000
,
1000
0010
0001
0010
2000
0100
0000
0000
3001
0000
0010
0001
0010
0100
0010
0001
,
0100
0010
1000
0001
1000
0100
0010
0001
0100
1000
0001
1000
0001
0100
0010
1000
,
0010
0001
0010
0001
0100
1000
0100
0010
0001
0010
1000
0100
0010
1000
0100
1000
,
0001
0100
0010
0001
1000
0010
0100
0001
1000
0100
0010
0100
0001
0100
1000
0100
,
0001
1000
0010
0001
1000
0010
0001
0010
0001
0000
0100
0000
0010
0000
1000
0000
,
0100
0000
0010
0000
0001
0000
1000
0001
1000
0100
0001
1000
0010
0001
1000
0100
,
0001
1000
0010
0001
1000
0100
0001
0000
0000
0000
0000
0000
0000
0000
0000
0000
;
