#VERSION:0.83;
#TITLE:Sucka Luva;
#SUBTITLE:;
#ARTIST:Harmony Machine;
#TITLETRANSLIT:;
#SUBTITLETRANSLIT:;
#ARTISTTRANSLIT:;
#GENRE:;
#ORIGIN:;
#TAGS:;
#CREDIT:;
#BANNER:Sucka Luva.png;
#BACKGROUND:Sucka Luva-bg.png;
#PREVIEWVID:;
#JACKET:Sucka Luva-jacket.png;
#CDIMAGE:;
#DISCIMAGE:;
#LYRICSPATH:;
#CDTITLE:;
#MUSIC:Sucka Luva.ogg;
#OFFSET:0.000000;
#SAMPLESTART:30.507999;
#SAMPLELENGTH:20.000000;
#SELECTABLE:YES;
#DISPLAYBPM:118.000000;
#BPMS:0.000000=118.032997,
4.000000=117.997002;
#STOPS:;
#DELAYS:;
#WARPS:;
#TIMESIGNATURES:0.000000=4=4;
#TICKCOUNTS:0.000000=4;
#COMBOS:0.000000=1;
#SPEEDS:0.000000=1.000000=0.000000=0;
#SCROLLS:0.000000=1.000000;
#FAKES:;
#LABELS:0.000000=Song Start;
#BGCHANGES:;
#KEYSOUNDS:;
#ATTACKS:
;

//---------------dance-single - ----------------
#NOTEDATA:;
#CHARTNAME:;
#CHARTHASH:659561203:
#STEPSTYPE:dance-single;
#BANNER:;
#DESCRIPTION:;
#CHARTSTYLE:;
#DIFFICULTY:Beginner;
#METER:1;
#METERF:0.000000;
#RADARVALUES:0.097051,0.118440,0.008939,0.000000,0.000000,76.000000,75.000000,1.000000,0.000000,0.000000,0.000000,0.000000,0.000000,0.000000,0.097051,0.118440,0.008939,0.000000,0.000000,76.000000,75.000000,1.000000,0.000000,0.000000,0.000000,0.000000,0.000000,0.000000;
#CREDIT:;
#DISPLAYBPM:118.000000;
#NOTES:
0000
0000
0000
0000
,
0000
0000
0000
0000
,
0000
0000
0000
0000
,
1000
0000
0000
0000
,
0001
0000
0000
0000
,
0100
0000
0000
0000
,
0010
0000
0000
0000
,
1000
0000
0000
0000
,
0001
0000
0000
0000
,
0100
0000
0000
0000
,
0010
0000
0000
0000
,
0000
1000
0000
0001
,
0000
1000
0000
0001
,
0000
1000
0000
0001
,
0000
0000
0000
0000
,
0000
1000
0000
0001
,
0000
1000
0000
0001
,
0000
1000
0000
0001
,
0000
1000
0000
0001
,
0000
1000
0000
0001
,
0000
1000
0000
0001
,
0000
1000
0000
0001
,
0000
1000
0000
0001
,
0000
0000
0000
0000
,
0000
0000
0000
0000
,
1000
0000
0000
0000
,
0100
0000
0000
0000
,
0001
0000
0000
0000
,
0010
0000
0000
0000
,
1000
0000
0000
0000
,
0100
0000
0000
0000
,
0010
0000
0000
0000
,
0001
0000
0000
0000
,
0000
1000
0000
0001
,
0000
1000
0000
0010
,
0000
1000
0000
0100
,
0000
0000
0000
0000
,
0000
1000
0000
1000
,
0000
0001
0000
0001
,
0000
0100
0000
0100
,
0000
0010
0000
0010
,
0000
1000
0000
1000
,
0000
0010
0000
0010
,
0000
0100
0000
0100
,
0000
0001
0000
0001
,
0000
1000
0000
0001
,
0000
0010
0000
0100
,
0000
1000
0000
0100
,
0000
0010
0000
0001
,
0000
0001
0000
0100
,
0000
0010
0000
1000
,
0000
0010
0000
0100
,
0000
0000
0000
0000
,
1001
0000
0000
0000
,
0000
0000
0000
0000
;

//---------------dance-single - ----------------
#NOTEDATA:;
#CHARTNAME:;
#CHARTHASH:2147483647:
#STEPSTYPE:dance-single;
#BANNER:;
#DESCRIPTION:;
#CHARTSTYLE:;
#DIFFICULTY:Easy;
#METER:4;
#METERF:0.000000;
#RADARVALUES:0.173669,0.236880,0.035755,0.035755,0.000000,136.000000,132.000000,4.000000,4.000000,0.000000,0.000000,0.000000,0.000000,0.000000,0.173669,0.236880,0.035755,0.035755,0.000000,136.000000,132.000000,4.000000,4.000000,0.000000,0.000000,0.000000,0.000000,0.000000;
#CREDIT:;
#DISPLAYBPM:118.000000;
#NOTES:
0000
0000
0000
0000
,
0000
0000
0000
0000
,
0000
0000
0000
0000
,
1000
0000
0001
0000
,
1000
0000
0001
0000
,
0100
0000
0010
0000
,
0100
0000
0010
0000
,
1000
0000
0100
0000
,
1000
0000
0100
0000
,
0001
0000
0010
0000
,
0001
0000
0010
0000
,
0000
1000
0000
0100
,
0000
0010
0000
0001
,
0000
1000
0000
0100
,
0020
0000
0000
0030
,
1001
1000
0000
0001
,
0000
0100
0000
0010
,
0000
1000
0000
0001
,
0000
0100
0000
0010
,
0000
1000
0000
0100
,
0000
0010
0000
0001
,
0000
1000
0000
0001
,
0000
0000
0000
0000
,
0001
1000
0001
1000
,
0001
0100
0001
0100
,
0001
0010
0001
0010
,
0100
0010
0100
0010
,
0001
0010
0001
0010
,
0001
0100
0001
0100
,
0001
0100
0010
1000
,
0001
1000
0100
0010
,
0001
1000
0010
0100
,
0001
0010
0100
1000
,
0000
1000
0000
0001
,
0000
0100
0000
0010
,
0000
1000
0000
0001
,
0200
0000
0000
0300
,
1001
1000
0000
0100
,
0000
0001
0000
0010
,
0000
1000
0000
0100
,
0000
0001
0000
0010
,
0000
1000
0000
0010
,
0000
0001
0000
0100
,
0000
1000
0000
0010
,
0000
0001
0000
1000
,
0001
1000
0010
0100
,
0001
0100
0010
1000
,
0001
0010
0100
1000
,
0001
0100
1000
0100
,
0001
0010
1000
0010
,
0001
0010
1000
0100
,
0001
0010
1000
0100
,
2002
0000
0000
3003
,
0110
0000
0000
0000
,
0000
0000
0000
0000
;

//---------------dance-single - ----------------
#NOTEDATA:;
#CHARTNAME:;
#CHARTHASH:2147483647:
#STEPSTYPE:dance-single;
#BANNER:;
#DESCRIPTION:;
#CHARTSTYLE:;
#DIFFICULTY:Medium;
#METER:7;
#METERF:0.000000;
#RADARVALUES:0.316691,0.355320,0.232411,0.044694,0.004469,248.000000,222.000000,26.000000,5.000000,0.000000,0.000000,0.000000,0.000000,0.000000,0.316691,0.355320,0.232411,0.044694,0.004469,248.000000,222.000000,26.000000,5.000000,0.000000,0.000000,0.000000,0.000000,0.000000;
#CREDIT:;
#DISPLAYBPM:118.000000;
#NOTES:
0000
0000
0000
0000
,
0000
0000
0000
0000
,
0000
0000
0000
0000
,
0000
1000
0000
1000
0000
1000
0000
1000
,
0000
1000
0000
1000
0000
1000
0100
1000
,
0000
0001
0000
0001
0000
0001
0000
0001
,
0000
0001
0000
0001
0000
0001
0010
0001
,
0000
1000
0000
0001
0000
1000
0000
0001
,
0000
1000
0000
0001
0000
1000
0001
1000
,
0000
0001
0000
1000
0000
0001
0000
1000
,
0000
0001
0000
1000
0000
0001
1000
0001
,
0000
0011
0000
1100
,
0000
0101
0000
1010
,
0000
1001
0000
0110
,
0001
0100
0001
0000
1001
0000
0110
0000
,
1001
0110
0000
1001
,
0000
0110
0000
0101
,
0000
1010
0000
0011
,
0000
1100
0000
1001
,
0000
1100
0000
0011
,
0000
1010
0000
0101
,
0000
0110
0000
1001
,
0000
0000
0000
0000
,
0001
0100
0001
0000
0001
0010
0001
0000
,
1000
0100
1000
0000
1000
0010
1000
0000
,
0001
0100
1000
0000
1000
0100
0001
0000
,
1000
0010
0001
0000
0001
0010
1000
0000
,
0010
1000
0010
0000
0100
1000
0100
0000
,
0010
0001
0010
0000
0100
0001
0100
0000
,
0010
0001
0100
0000
0010
0001
1000
0000
,
0100
0001
1000
0000
0100
0001
0010
0000
,
0010
1000
0100
0000
0010
1000
0001
0000
,
0100
1000
0001
0000
0100
1000
0010
0000
,
0000
0001
0000
1000
0000
0001
0000
1000
,
0000
0001
0000
1000
0000
0001
1000
0001
,
0000
1000
0000
0001
0000
1000
0001
1000
,
0220
0000
0000
0330
,
1001
0100
0001
0000
0001
0000
0001
1000
,
0001
0000
0001
1000
0000
1000
0000
1000
,
0001
0000
0001
0100
0000
0100
0000
0100
,
0010
0000
0010
1000
0000
1000
0000
1000
,
0001
1000
0001
0000
0001
0000
0001
0100
,
0001
0000
0001
0100
0000
0100
0000
0100
,
0010
0000
0010
1000
0000
1000
0000
1000
,
0001
0000
0001
0100
0000
0100
0000
0100
,
0010
0000
0010
0100
0010
2000
0000
0000
,
3000
0000
0001
1000
0001
2000
0000
3000
,
0000
0000
0001
0010
0100
1000
0001
0100
,
0010
1000
0001
1000
0010
0100
0001
0010
,
0000
0000
0002
0000
0000
0003
0000
1000
,
1000
1000
0000
0001
0001
0001
0000
0100
,
0100
0100
0000
0010
0010
0010
0000
0001
,
1000
0000
0000
0010
0000
0000
0010
0000
1000
0000
0001
0000
0000
0000
0000
0000
,
1001
0000
0000
0000
,
0000
0000
0000
0000
;

//---------------dance-single - ----------------
#NOTEDATA:;
#CHARTNAME:;
#CHARTHASH:1913532373:
#STEPSTYPE:dance-single;
#BANNER:;
#DESCRIPTION:;
#CHARTSTYLE:;
#DIFFICULTY:Hard;
#METER:11;
#METERF:0.000000;
#RADARVALUES:0.454605,0.568512,0.750865,0.053633,0.022347,356.000000,272.000000,84.000000,6.000000,0.000000,0.000000,0.000000,0.000000,0.000000,0.454605,0.568512,0.750865,0.053633,0.022347,356.000000,272.000000,84.000000,6.000000,0.000000,0.000000,0.000000,0.000000,0.000000;
#CREDIT:;
#DISPLAYBPM:118.000000;
#NOTES:
0000
0000
0000
0000
,
0000
0000
0000
0000
,
0000
0000
0000
0000
,
0010
1000
0100
0001
,
0010
1000
0100
0001
,
0100
1000
0010
0001
,
0100
1000
0010
0001
,
1000
0001
1000
0001
,
0100
0010
0100
0010
,
1000
0001
1000
0001
,
0010
0100
0010
0100
,
0001
0011
0010
0110
,
0100
1100
1000
1100
,
0100
0110
0010
0011
,
1001
0000
0110
0000
1001
0000
0000
0000
0110
0000
0000
0000
1001
0000
0001
1000
,
0001
1000
0001
0000
1000
0000
0010
0100
,
0010
0000
1000
0001
0000
0010
0000
0100
,
0010
0000
0001
1000
0000
0100
0000
0010
,
0100
0000
1000
0001
0000
0010
0000
0100
,
1000
0001
1000
0000
0100
0000
0010
0100
,
0001
0000
1000
0100
0000
0010
0000
0001
,
0010
0000
0100
1000
0000
0100
0000
0010
,
0001
0000
0100
0010
0000
1000
0000
0001
,
0000
1001
0000
1001
0000
1001
0000
1001
,
0000
1001
0000
1001
0000
1001
0110
1001
,
0000
0110
0000
0110
0000
0110
0000
0110
,
0000
0110
0000
0110
0000
0110
1001
0110
,
0000
1100
0000
1100
0000
1100
0000
1100
,
0000
1100
0000
1100
0000
1100
0110
0011
,
0000
0011
0000
0011
0000
0011
0000
0011
,
0000
0011
0000
0011
0000
0011
0110
1100
,
0000
0101
0000
1010
0000
0011
0000
1100
,
0000
1001
0000
0110
0000
1001
1001
1001
,
0001
0100
1000
0100
0001
0100
1000
0100
,
0001
0010
1000
0010
0001
0010
1000
0010
,
0001
0010
0100
1000
0001
0100
0010
1000
,
0110
0000
0110
0000
0110
0000
0000
0000
0110
0000
0000
0000
0110
0000
0001
1000
,
0001
0000
0001
1000
0001
2000
0000
0000
,
3000
0000
0010
0100
0010
0200
0000
0300
,
0000
0000
0001
1000
0010
0100
0001
0010
,
0100
1000
0001
0100
0010
1000
0001
1000
,
0000
0000
2002
0000
0000
3003
0000
0001
,
0010
1000
0000
1000
0010
0001
0000
0001
,
0100
1000
0000
1000
0100
0001
0000
0010
,
0100
0000
0000
1001
0000
0000
0110
0000
1001
0000
0110
0000
0001
1000
0000
1000
,
0001
0010
1010
1000
0010
0001
0011
0010
,
0001
0100
1100
1000
0100
0001
0101
0001
,
1000
0010
0011
0001
0010
1000
1010
0010
,
0001
0100
0101
0001
0100
1000
1100
1000
,
0001
0010
0110
1000
0001
0100
0110
1000
,
0001
1000
1001
0010
0100
1000
1001
0100
,
0010
0001
1001
0100
0010
1001
0110
1001
,
0220
0000
0000
0330
,
1001
0000
0000
0000
,
0000
0000
0000
0000
;

//---------------dance-double - ----------------
#NOTEDATA:;
#CHARTNAME:;
#CHARTHASH:2147483647:
#STEPSTYPE:dance-double;
#BANNER:;
#DESCRIPTION:;
#CHARTSTYLE:;
#DIFFICULTY:Easy;
#METER:5;
#METERF:0.000000;
#RADARVALUES:0.182608,0.236880,0.098328,0.044694,0.000000,143.000000,132.000000,11.000000,5.000000,0.000000,0.000000,0.000000,0.000000,0.000000,0.182608,0.236880,0.098328,0.044694,0.000000,143.000000,132.000000,11.000000,5.000000,0.000000,0.000000,0.000000,0.000000,0.000000;
#CREDIT:;
#DISPLAYBPM:118.000000;
#NOTES:
00000000
00000000
00000000
00000000
,
00000000
00000000
00000000
00000000
,
00000000
00000000
00000000
00000000
,
10000000
00000000
00010000
00000000
,
10000000
00000000
00010000
00000000
,
01000000
00000000
00100000
00000000
,
01000000
00000000
00100000
00000000
,
00001000
00000000
00000100
00000000
,
00001000
00000000
00000100
00000000
,
00000010
00000000
00000001
00000000
,
00000010
00000000
00000001
00000000
,
00000000
00000010
00000000
00000001
,
00000000
00000100
00000000
00001000
,
00000000
00010000
00000000
01000000
,
20000000
00000000
00000000
30000000
,
10010000
10000000
00000000
01000000
,
00000000
00100000
00000000
00010000
,
00000000
00001000
00000000
00000100
,
00000000
00000010
00000000
00000001
,
00000000
00000100
00000000
00000010
,
00000000
00001000
00000000
00010000
,
00000000
01000000
00000000
00100000
,
00000000
00000000
00000000
00000000
,
00010000
10000000
00010000
10000000
,
00010000
01000000
00010000
01000000
,
00010000
00100000
00010000
00100000
,
01000000
00100000
01000000
00100000
,
00010000
00001000
00010000
00001000
,
00000100
00001000
00000100
00001000
,
00000010
00000100
00000010
00000100
,
00000001
00000010
00000001
00000010
,
00000100
00001000
00010000
00100000
,
01000000
10000000
01000000
00100000
,
00000000
10010000
00000000
00011000
,
00000000
00001001
00000000
00000110
,
00000000
00011000
00000000
01100000
,
02200000
00000000
00000000
03300000
,
10010000
10000000
00000000
01000000
,
00000000
00010000
00000000
00100000
,
00000000
00010000
00000000
01000000
,
00000000
10000000
00000000
00100000
,
00000000
00010000
00000000
00001000
,
00000000
00000100
00000000
00000001
,
00000000
00000010
00000000
00000001
,
00000000
00000100
00000000
00001000
,
00000100
00000001
00000010
00000100
,
00001000
00010000
00100000
01000000
,
10000000
01000000
00100000
10000000
,
00010000
01000000
10000000
01000000
,
00010000
00001000
00000100
00000001
,
00000010
00000100
00000010
00000001
,
00000010
00000100
00001000
00010000
,
00022000
00000000
00000000
00033000
,
00011000
00000000
00000000
00000000
,
00000000
00000000
00000000
00000000
;

//---------------dance-double - ----------------
#NOTEDATA:;
#CHARTNAME:;
#CHARTHASH:664066308:
#STEPSTYPE:dance-double;
#BANNER:;
#DESCRIPTION:;
#CHARTSTYLE:;
#DIFFICULTY:Medium;
#METER:8;
#METERF:0.000000;
#RADARVALUES:0.317968,0.379008,0.241349,0.053633,0.004469,249.000000,222.000000,27.000000,6.000000,0.000000,0.000000,0.000000,0.000000,0.000000,0.317968,0.379008,0.241349,0.053633,0.004469,249.000000,222.000000,27.000000,6.000000,0.000000,0.000000,0.000000,0.000000,0.000000;
#CREDIT:;
#DISPLAYBPM:118.000000;
#NOTES:
00000000
00000000
00000000
00000000
,
00000000
00000000
00000000
00000000
,
00000000
00000000
00000000
00000000
,
00000000
10000000
00000000
10000000
00000000
10000000
00000000
10000000
,
00000000
10000000
00000000
10000000
00000000
10000000
01000000
00010000
,
00000000
00010000
00000000
00010000
00000000
00010000
00000000
00010000
,
00000000
00010000
00000000
00010000
00000000
00010000
00001000
00000100
,
00000000
00000100
00000000
00000100
00000000
00000100
00000000
00000100
,
00000000
00000100
00000000
00000100
00000000
00000100
00000001
00000010
,
00000000
00000010
00000000
00000010
00000000
00000010
00000000
00000010
,
00000000
00000010
00000000
00000010
00000000
00000010
00000100
00001000
,
00000000
00011000
00000000
11000000
,
00000000
00011000
00000000
00000011
,
00000000
00011000
00000000
00011000
,
00001000
00010000
00001000
00000000
00011000
00000000
01100000
00000000
,
10010000
01100000
00000000
10010000
,
00000000
01100000
00000000
10100000
,
00000000
01010000
00000000
11000000
,
00000000
00110000
00000000
00011000
,
00000000
00001100
00000000
00000011
,
00000000
00001010
00000000
00000101
,
00000000
00000110
00000000
00001001
,
00000000
00000000
00000000
00000000
,
00000001
00000100
00000001
00000000
00000001
00000010
00000001
00000000
,
00001000
00000100
00001000
00000000
00001000
00000010
00001000
00000000
,
00001000
00010000
00001000
00000000
00010000
00001000
00010000
00000000
,
00010000
01000000
00010000
00000000
00010000
00100000
00010000
00000000
,
10000000
01000000
10000000
00000000
10000000
01000000
10000000
00000000
,
00100000
10000000
00100000
00000000
01000000
10000000
01000000
00000000
,
00100000
00010000
00100000
00000000
01000000
00010000
01000000
00000000
,
00010000
00001000
00010000
00000000
00001000
00010000
00001000
00000000
,
00000010
00001000
00000010
00000000
00000100
00001000
00000100
00000000
,
00000010
00000001
00000010
00000000
00000100
00000001
00000100
00000000
,
00000000
00000001
00000000
00000010
00000000
00000100
00000000
00001000
,
00000000
00010000
00000000
00100000
00000000
01000000
10000000
01000000
,
00000000
00010000
00000000
00001000
00000000
00010000
00001000
00010000
,
00022000
00000000
00000000
00033000
,
00011000
00010000
00001000
00000000
00010000
00000000
00100000
10000000
,
00100000
00000000
00010000
00001000
00000000
00000010
00000000
00000001
,
00000010
00000000
00001000
00010000
00000000
01000000
00000000
10000000
,
01000000
00000000
00010000
00001000
00000000
00000100
00000000
00000001
,
00000010
00000100
00001000
00000000
00010000
00000000
00100000
01000000
,
10000000
00000000
00010000
00001000
00000000
00000100
00000000
00000010
,
00000001
00000000
00001000
00010000
00000000
10000000
00000000
10000000
,
00010000
00000000
00001000
00000001
00000000
00000001
00000000
00001000
,
00010000
00000000
00100000
01000000
00100000
20000000
00000000
00000000
,
30000000
00000000
00010000
00001000
00010000
00002000
00000000
00003000
,
00000000
00000000
00001000
00000100
00000010
00000001
00001000
00000010
,
00000100
00000001
00001000
00000001
00000010
00000100
00001000
00010000
,
00000000
00000000
00022000
00000000
00000000
00033000
00000000
00010000
,
00010000
00010000
00000000
00001000
00001000
00001000
00000000
00010000
,
00010000
00010000
00000000
00001000
00001000
00001000
00000000
00010000
,
00001000
00000000
00000000
00100000
00000000
00000000
00100000
00000000
00010000
00000000
10000000
00000000
00000000
00000000
00000000
00000000
,
10010000
00000000
00000000
00000000
,
00000000
00000000
00000000
00000000
;

//---------------dance-double - ----------------
#NOTEDATA:;
#CHARTNAME:;
#CHARTHASH:2147483647:
#STEPSTYPE:dance-double;
#BANNER:;
#DESCRIPTION:;
#CHARTSTYLE:;
#DIFFICULTY:Hard;
#METER:11;
#METERF:0.000000;
#RADARVALUES:0.457159,0.568512,0.759804,0.062572,0.022347,358.000000,273.000000,85.000000,7.000000,0.000000,0.000000,0.000000,0.000000,0.000000,0.457159,0.568512,0.759804,0.062572,0.022347,358.000000,273.000000,85.000000,7.000000,0.000000,0.000000,0.000000,0.000000,0.000000;
#CREDIT:;
#DISPLAYBPM:118.000000;
#NOTES:
00000000
00000000
00000000
00000000
,
00000000
00000000
00000000
00000000
,
00000000
00000000
00000000
00000000
,
00100000
10000000
01000000
00010000
,
00001000
00000100
00000010
00000001
,
00000100
00000010
00001000
00010000
,
01000000
00100000
10000000
00010000
,
00001000
00010000
10000000
00010000
,
00001000
00000001
00001000
00010000
,
10000000
00010000
00001000
00000001
,
00001000
00010000
10000000
00010000
,
10000000
11000000
01000000
01100000
,
00100000
00110000
00010000
00011000
,
00001000
00001100
00000100
00000110
,
00000011
00000000
00000110
00000000
00001100
00000000
00000000
00000000
00011000
00000000
00000000
00000000
10010000
00000000
00010000
10000000
,
00010000
10000000
00010000
00000000
10000000
00000000
00100000
01000000
,
00010000
00000000
00001000
00000100
00000000
00000100
00000000
00000100
,
00000010
00000000
00000001
00000100
00000000
00000100
00000000
00000100
,
00000010
00000000
00001000
01000000
00000000
01000000
00000000
01000000
,
00010000
01000000
00100000
00000000
10000000
00000000
00100000
01000000
,
00010000
00000000
00001000
00000100
00000000
00000100
00000000
00000100
,
00000010
00000000
00000001
00000100
00000000
00000100
00000000
00000100
,
00000010
00000000
00001000
01000000
00000000
01000000
00000000
01000000
,
00000000
10010000
00000000
00011000
00000000
00001001
00000000
00011000
,
00000000
10010000
00000000
00011000
00000000
00001001
00000110
00001001
,
00000000
00011000
00000000
10010000
00000000
00011000
00000000
00001001
,
00000000
00011000
00000000
10010000
00000000
01100000
10010000
01100000
,
00000000
11000000
00000000
11000000
00000000
11000000
00000000
11000000
,
00000000
11000000
00000000
11000000
00000000
11000000
01100000
00110000
,
00000000
00110000
00000000
00110000
00000000
00110000
00000000
00110000
,
00000000
00110000
00000000
00110000
00000000
00011000
00011000
00011000
,
00000000
00001100
00000000
00001100
00000000
00001100
00000000
00001100
,
00000000
00001100
00000000
00001100
00000000
00001100
00000110
00000011
,
00000001
00000100
00001000
00000100
00000001
00000100
00001000
00010000
,
01000000
10000000
01000000
00010000
00100000
10000000
00100000
00010000
,
00001000
00000010
00000001
00000010
00001000
00010000
00100000
10000000
,
01100000
00000000
01100000
00000000
01100000
00000000
00000000
00000000
00110000
00000000
00000000
00000000
00011000
00000000
00010000
00001000
,
00010000
00000000
00001000
00010000
00001000
00022000
00000000
00000000
,
00033000
00000000
00100000
01000000
00100000
02000000
00000000
03000000
,
00000000
00000000
10000000
01000000
00100000
00010000
00001000
00000100
,
00000010
00000001
00000010
00000100
00001000
00010000
00100000
01000000
,
10000000
00000000
20020000
00000000
00000000
30030000
00000000
10000000
,
00100000
00010000
00000000
00001000
00000100
00000001
00000000
00000001
,
00000010
00001000
00000000
00010000
01000000
10000000
00000000
00100000
,
01000000
00000000
00000000
10010000
00000000
00000000
01100000
00000000
10010000
00000000
01100000
00000000
00010000
10000000
00000000
10000000
,
00010000
00100000
10100000
10000000
00100000
00010000
00011000
00001000
,
00000100
00000010
00000011
00000001
00000010
00000100
00001100
00001000
,
00010000
00100000
01100000
01000000
10000000
01000000
01100000
00100000
,
00010000
00001000
00001100
00000100
00000010
00000001
00000011
00000010
,
00000100
00001000
00011000
00100000
01000000
10000000
11000000
01000000
,
00100000
00010000
00011000
00001000
00000100
00000010
00000011
00000001
,
00000010
00000100
00001100
00001000
00010000
00110000
01100000
11000000
,
20020000
00000000
00000000
30030000
,
10010000
00000000
00000000
00000000
,
00000000
00000000
00000000
00000000
;

//---------------dance-single - ----------------
#NOTEDATA:;
#CHARTNAME:;
#CHARTHASH:0:
#STEPSTYPE:dance-single;
#BANNER:;
#DESCRIPTION:;
#CHARTSTYLE:;
#DIFFICULTY:Challenge;
#METER:13;
#METERF:0.000000;
#RADARVALUES:0.634660,0.639576,0.429066,0.250288,0.348616,497.000000,449.000000,48.000000,28.000000,0.000000,0.000000,0.000000,0.000000,0.000000,0.634660,0.639576,0.429066,0.250288,0.348616,497.000000,449.000000,48.000000,28.000000,0.000000,0.000000,0.000000,0.000000,0.000000;
#CREDIT:;
#DISPLAYBPM:118.000000;
#NOTES:
// measure 0
0000
0000
0000
0000
,  // measure 1
0000
0000
0000
0000
,  // measure 2
0000
0000
0000
0000
,  // measure 3
0010
0100
0001
0100
1000
0100
0010
0100
,  // measure 4
1000
0100
0010
0100
1000
0200
0302
0203
,  // measure 5
1300
0100
0001
0100
0010
0100
0001
0100
,  // measure 6
1000
0100
0001
0100
0010
0200
2300
3200
,  // measure 7
0310
0100
0001
0100
1000
0100
0010
0100
,  // measure 8
1000
0100
0001
0100
1000
0200
0320
0230
,  // measure 9
0301
0100
0010
0100
1000
0100
0001
0100
,  // measure 10
1000
0100
0010
0100
0001
0100
0010
1000
,  // measure 11
1001
0000
1000
0100
1000
0000
0001
0200
0000
0301
0010
0100
1000
0000
1100
0000
,  // measure 12
0010
0100
0010
0100
0010
0000
1000
0002
0000
0013
0100
0010
0001
0000
1000
0000
,  // measure 13
0002
0000
0013
0100
0010
0000
0001
2000
0000
3100
1000
0001
1000
0000
0010
0000
,  // measure 14
1100
0000
0110
0000
0011
0000
1000
0100
1000
0000
0001
0100
0001
0000
0010
0100
,  // measure 15
1000
0000
0000
0000
0101
0000
0100
0000
0010
0000
2000
0100
0000
3100
1000
0000
,  // measure 16
0002
0000
0000
0000
0013
0000
0100
0000
1000
0000
0020
0100
0000
0130
0010
0000
,  // measure 17
2010
0000
0000
0000
3001
0000
0100
0000
0010
0000
1000
0001
0000
0001
1000
0000
,  // measure 18
0201
0000
0000
0000
1300
0000
0100
0000
0001
0000
0010
0100
0000
0100
1000
0000
,  // measure 19
0001
0100
0110
0010
1000
0001
0011
0100
,  // measure 20
1000
0010
1001
0100
0001
0010
1100
1000
,  // measure 21
0010
0100
0101
1000
0001
0100
1000
0010
,  // measure 22
2010
0000
0000
0000
3002
0000
2000
0003
0000
0000
3020
0000
0000
0000
0130
0000
,  // measure 23
1001
0000
0000
0000
0010
0000
0100
0000
0001
0010
0001
0010
0001
0000
0100
0000
,  // measure 24
0010
1000
0010
1000
0010
0000
0100
0000
0001
1000
0001
1000
0001
0000
0100
0000
,  // measure 25
0010
0100
0010
0100
0010
0000
1000
0000
0100
0001
0100
0001
0100
0000
0010
0000
,  // measure 26
0001
1000
0001
1000
0001
0000
0100
0000
0010
0001
0010
0001
0010
0000
1000
0000
,  // measure 27
0100
0010
0100
0010
0100
0000
0001
0000
0100
1000
0100
1000
0100
0000
0010
0000
,  // measure 28
0110
0000
0000
0000
0001
0000
1000
0000
0010
0100
0010
0100
0010
0000
1000
0000
,  // measure 29
0100
0000
1000
0001
1000
0000
0010
0000
0100
0000
0010
1000
0010
0000
0001
0000
,  // measure 30
0010
0000
0100
0001
0100
0000
1000
0000
0100
0000
0010
1000
0010
0000
0001
0000
,  // measure 31
0010
0000
1000
0100
1000
0000
0010
0000
0100
0000
0001
0010
0001
0000
0100
0000
,  // measure 32
1000
0000
0010
0100
0010
0000
1000
0000
0001
0000
0011
0000
1100
0000
0001
0000
,  // measure 33
1000
0010
1001
0100
0010
1000
1100
0001
,  // measure 34
0010
0100
0011
1000
0001
0100
1010
0010
,  // measure 35
1000
0100
1000
0100
0010
0000
0010
0000
0001
0100
0001
0100
0010
0000
0010
0000
,  // measure 36
1010
0000
1001
0000
0101
0000
0001
0010
0001
0000
1000
0010
1000
0000
0100
0010
,  // measure 37
0001
0000
0000
0000
1100
0000
0010
0000
0100
0000
0002
1000
0000
1003
0001
0000
,  // measure 38
0200
0000
0000
0000
0310
0000
1000
0000
0100
0000
0020
0001
0000
0031
0010
0000
,  // measure 39
0120
0000
0000
0000
0130
0000
0010
0000
0001
0000
1000
0010
0000
0010
1000
0000
,  // measure 40
1002
0000
0000
0000
1003
0000
0010
0000
1000
0000
0100
0010
0000
0010
0001
0000
,  // measure 41
0100
0010
1010
0001
1000
0100
1100
0001
,  // measure 42
0010
0100
0011
1000
0001
0100
0101
1000
,  // measure 43
0010
0100
0110
0001
1000
0100
0010
0001
,  // measure 44
2001
0000
0000
3100
1000
0000
0001
0000
0100
0000
0100
0000
0100
0000
0100
0000
,  // measure 45
0010
0000
1000
0000
1001
0000
0001
0000
0100
0000
0010
1000
0000
1000
0001
0000
,  // measure 46
0010
0000
0100
0000
1100
0000
0001
0000
1000
0000
0100
0010
0000
0001
1000
0000
,  // measure 47
0010
0000
1000
0000
0101
0000
0010
0000
0100
0000
0001
1000
0000
1000
0001
0000
,  // measure 48
0010
0000
0001
0000
0110
0000
0100
0000
0001
0000
1000
0010
0000
1000
0001
0000
,  // measure 49
0010
0001
1010
0100
0001
1000
0101
0010
,  // measure 50
1000
0100
0110
0001
0100
0010
1001
1000
,  // measure 51
0010
0100
1100
0001
1000
0100
0011
0010
,  // measure 52
1001
0000
1010
0000
1100
0000
0001
0010
0001
0000
1000
0100
1000
0000
0010
0000
,  // measure 53
1001
0000
0000
0000
;
