#TITLE:Such A Feeling;
#ARTIST:U1;
#BANNER:Such A Feeling.png;
#BACKGROUND:Such A Feeling-bg.png;
#JACKET:Such A Feeling-jacket.png;
#MUSIC:Such A Feeling.ogg;
#SAMPLESTART:9.43;
#SAMPLELENGTH:20;
#DISPLAYBPM:120;
#BPMS:0=120;
#BGCHANGES:;

//---------------dance-single - ----------------
#NOTES:
     dance-single:
     :
     Beginner:
     1:
     :
0000
0000
0000
0000
,
0000
0000
0000
0000
,
0000
0000
0000
0000
,
0000
0000
0000
0000
,
0000
0000
0000
0000
,
0001
0000
0000
0000
,
0001
0000
0000
0000
,
1000
0000
0000
0000
,
0000
0000
0000
0000
,
0001
0000
0000
0000
,
0001
0000
0000
0000
,
1000
0000
0000
0000
,
0000
0000
0000
0000
,
0001
0000
0000
0000
,
0001
0000
0000
0000
,
0001
0000
0000
0000
,
0000
0000
0000
0000
,
1000
0000
0000
0000
,
1000
0000
0000
0000
,
1000
0000
0000
0000
,
0000
0000
0000
0000
,
0001
0000
0000
0000
,
0000
0000
0000
0000
,
1000
0000
0000
0000
,
0000
0000
0000
0000
,
0001
0000
0000
0000
,
0000
0000
0000
0000
,
1000
0000
0000
0000
,
0000
0000
0000
0000
,
0001
0000
0000
0000
,
0001
0000
0000
0000
,
1000
0000
0000
0000
,
0000
0000
0000
0000
,
0001
0000
0000
0000
,
0001
0000
0000
0000
,
1000
0000
0000
0000
,
0000
0000
0000
0000
,
0001
0000
0000
0000
,
0001
0000
0000
0000
,
1000
0000
0000
0000
,
0000
0000
0000
0000
,
0001
0000
0000
0000
,
0001
0000
0000
0000
,
1000
0000
0000
0000
,
0000
0000
0000
0000
,
0001
0000
0000
0000
,
1000
0000
0000
0000
;

//---------------dance-single - ----------------
#NOTES:
     dance-single:
     :
     Easy:
     4:
     :
0000
0000
0000
0000
,
0000
0000
0000
0000
,
0000
0000
0000
0000
,
0000
0000
0000
0000
,
0001
0010
0100
1000
,
0000
0000
0001
0000
,
0000
1000
0000
0010
,
0000
0001
0001
0001
,
0000
1000
1000
1000
,
0000
0000
1000
0000
,
0000
0001
0000
0100
,
0000
1000
1000
1000
,
0000
1001
0000
1001
,
0000
0000
0000
0001
,
0010
0010
0100
0000
,
0000
0000
0000
1000
,
0100
0100
0010
0000
,
0002
0000
0000
0003
,
0000
1000
0000
0000
,
2000
0000
0000
3000
,
0000
0001
1000
1001
,
0000
0000
0000
0000
,
0110
0000
1001
0000
,
0110
0000
0000
0000
,
1001
0000
0110
0000
,
0000
0000
0000
0000
,
0110
0000
1001
0000
,
0110
0000
0000
0000
,
0110
0000
1001
0000
,
0001
0001
0000
0100
,
0010
0100
0000
0000
,
1000
0001
1000
0000
,
0000
0000
0100
0000
,
1000
1000
0000
0010
,
0100
0010
0000
0000
,
0001
1000
0001
0000
,
0000
0000
0010
0000
,
0001
0001
0000
0010
,
0100
0010
0000
0000
,
1000
0001
1000
0000
,
0000
0000
0010
0000
,
1000
1000
0000
0100
,
0010
0100
0000
0000
,
0001
1000
0001
0000
,
0000
0000
0100
0100
,
0000
0100
0000
0010
,
0000
0100
0000
0010
,
0000
0100
0000
0000
;

//---------------dance-single - ----------------
#NOTES:
     dance-single:
     :
     Medium:
     8:
     :
0000
0000
0000
0000
,
0000
0000
0000
0000
,
0000
0000
0000
0000
,
0000
1000
0000
1000
0000
1000
0000
1000
,
0000
0001
0000
0001
0000
0001
1000
0001
,
1000
0000
1000
0000
0100
0000
0100
0001
,
0001
0000
0100
0000
0100
0000
1000
1000
,
0010
1100
0100
0011
,
0001
1000
0110
0110
,
0001
0000
0001
0000
0010
0000
0010
1000
,
1000
0000
0010
0000
0010
0000
0001
0001
,
0100
0011
0010
1100
,
1000
0001
1001
0110
,
1001
0000
0000
0000
1000
0000
1000
0001
,
0001
0000
0000
0100
0000
0000
0200
0000
0000
0000
0000
0000
0300
0000
0000
0000
,
1001
0000
0000
0000
0001
0000
0001
1000
,
1000
0000
0000
0010
0000
0000
0020
0000
0000
0000
0000
0000
0030
0000
0000
0000
,
0001
0010
0100
0000
0100
0000
1000
0000
,
0100
0000
1010
0000
0100
0010
0101
0000
,
1000
0100
0010
0000
0010
0000
0001
0000
,
0110
0010
1001
1001
,
0200
1000
1300
0000
2000
0000
3010
0000
,
0020
0001
0031
0000
0002
0000
0013
0000
,
0020
1000
1030
0000
2000
0000
3100
0000
,
0200
0010
0310
0000
0020
0000
0130
0000
,
0200
1000
1300
1000
2000
0000
3010
0000
,
0020
0001
0031
0000
0002
0000
0013
0000
,
0020
1000
1030
0000
2000
0000
3010
0000
,
0220
0330
2002
3003
,
1000
0100
0001
0000
0100
0010
0100
0000
,
0100
1000
0001
0001
0100
1000
1000
0000
,
0001
0000
0000
1000
0000
0000
2000
0000
0000
0000
0000
0000
0010
0000
0000
0000
,
0010
3000
0000
0000
0101
0000
0101
0000
,
0001
0100
1000
0000
0100
0010
0100
0000
,
0100
0001
1000
1000
0100
0001
0001
0000
,
1000
0000
0000
0001
0000
0000
0002
0000
0000
0000
0000
0000
0010
0000
0000
0000
,
0010
0003
0000
0000
0110
0000
0110
0000
,
0001
0010
1000
0000
0010
0100
0010
0000
,
0010
0001
1000
1000
0010
0001
0001
0000
,
1000
0000
0000
0001
0000
0000
0002
0000
0000
0000
0000
0000
0100
0000
0000
0000
,
0100
0003
0000
0000
1010
0000
1010
0000
,
1000
0010
0001
0000
0010
0100
0010
0000
,
0010
1000
0001
0001
0010
1000
1000
0000
,
0001
0000
0000
1000
0000
0000
2000
0000
0000
0000
0000
0000
0100
0000
0000
0000
,
0100
3000
0000
0000
1001
0000
1001
0000
,
2000
3010
0020
0130
,
0200
0301
0002
1003
,
2000
3100
0200
0300
;

//---------------dance-single - ----------------
#NOTES:
     dance-single:
     :
     Hard:
     11:
     :
0000
0000
0000
0000
,
0000
0000
0000
0000
,
0000
0000
0000
0000
,
0000
0001
1000
0001
0000
0100
0010
0001
,
0000
1000
0001
1000
0001
0010
0100
1000
,
1000
0000
1000
0000
0100
0010
0100
0001
,
0001
0000
0100
0010
0100
1000
1000
0000
,
0010
0100
1100
1000
0100
0010
0011
0001
,
0001
0000
1000
0000
1001
0000
1001
1000
,
0001
0000
0001
0000
0010
0100
0010
1000
,
1000
0000
0010
0100
0010
0001
0001
0000
,
0100
0010
1010
1000
0010
0100
0101
0001
,
1000
0001
0110
0110
,
1001
0000
1000
0100
1000
0000
1010
0000
,
0001
0000
0001
0000
0001
0010
0101
0000
,
1001
0000
0001
0100
0001
0000
0011
0000
,
1000
0000
1000
0000
1000
0100
1000
0010
,
0001
0010
0100
0010
0100
0001
1000
0000
,
0100
0010
1010
0000
0100
0010
0101
0000
,
1000
0100
0010
0100
0010
1000
0001
0000
,
0110
0100
0010
0000
1001
0000
1001
0000
,
2000
0100
3100
0000
0200
0010
0310
0000
,
0020
0001
0031
0000
0002
1000
1003
0000
,
0002
0010
0013
0000
0020
0100
0130
0000
,
0200
1000
1300
0000
2000
0001
3001
0001
,
2000
0010
3010
0010
0020
0100
0130
0000
,
0200
0001
0301
0000
0002
1000
1003
0000
,
0002
0100
0103
0000
0200
0010
0310
0000
,
0220
0000
0330
0000
1002
0000
1003
1000
,
1000
0100
0001
0000
0100
0010
0100
0001
,
0100
0000
0100
0010
0100
1000
1000
0000
,
0001
0000
0000
0100
0000
0000
2000
0000
0010
0000
0000
0000
0010
0000
3000
0000
,
0000
0000
1000
0000
1001
0110
1001
0000
,
0001
0010
1000
0000
0010
0100
0010
1000
,
0010
0000
0010
0100
0010
0001
0001
0000
,
1000
0000
0000
0010
0000
0000
0002
0000
0100
0000
0000
0000
0100
0000
0003
0000
,
0001
0000
0001
0000
0000
1001
0000
1001
,
0001
0010
1000
0000
0010
0100
0010
1000
,
0010
0000
0010
0100
0010
0001
0001
0000
,
1000
0000
0000
0010
0000
0000
0002
0000
0100
0000
0000
0000
0100
0000
0003
0000
,
0000
0000
0001
0000
1001
0110
1001
0000
,
1000
0010
0001
0000
0010
0100
0010
0001
,
0010
0000
0010
0100
0010
1000
1000
0000
,
0001
0000
0000
0010
0000
0000
2000
0000
0100
0000
0000
0000
0100
0000
3000
0000
,
0001
0000
0001
0000
1000
0000
1000
0000
0000
0100
0010
0100
0010
0000
0000
0000
,
0000
1000
0010
0001
0000
0001
0010
1000
,
0000
0000
1000
1000
0100
0000
0010
0000
0000
0000
0001
0001
0010
0000
0100
0000
;

//---------------dance-single - ----------------
#NOTES:
     dance-single:
     :
     Challenge:
     13:
     :
0000
0000
0000
0000
,
0000
0000
0000
0000
,
0000
0000
0000
0000
,
0010
0000
0001
1000
0001
0000
0100
0000
0010
0000
1000
0100
1000
0000
0001
0000
,
0010
0000
0001
0100
0001
0000
1000
0000
0100
0010
0100
0010
0100
0000
1000
0000
,
0002
0100
0103
0010
2000
0000
3001
1000
,
0020
1000
2030
0100
3200
0001
0302
0000
,
0013
0000
0000
1010
0000
0000
0101
0000
0000
0000
0001
1000
0001
0000
0010
0000
,
0100
0000
1000
0010
1000
0000
0001
0100
0000
0000
0010
0000
1000
0000
0001
0000
,
0020
0100
0130
1000
0002
0000
0103
0010
,
2000
0100
3200
0001
0302
0010
0023
0000
,
1030
0000
0000
1100
0000
0000
0011
0000
0000
0000
0100
0010
0100
0000
0001
0000
,
0010
0000
0001
1000
0001
0000
0100
0010
0000
0000
1001
0000
1001
0000
0000
0000
,
1000
0000
0020
0000
1030
0000
0002
0000
0103
0000
0001
0010
0001
0000
1000
0000
,
1100
0000
0000
0110
0000
0000
0011
0000
0000
0000
0100
0010
0100
0000
0000
0000
,
0001
0000
2000
0000
3010
0000
0200
0000
0301
0000
1000
0010
1000
0000
0100
0000
,
0110
0000
0000
0011
0000
0000
0101
0000
0000
0000
1000
0000
0010
0000
0100
0000
,
2010
0000
0001
0000
0100
0010
3010
1000
,
0100
0000
1000
0000
0002
0000
0000
0010
0000
0000
0100
0000
0103
0000
0001
0000
,
0021
0000
1000
0000
0001
0100
0130
0010
,
0001
0000
0100
0000
2000
0000
0000
3010
0100
0000
0000
0010
1000
0000
0001
0000
,
0200
0001
0301
1000
0020
0100
0130
0000
,
0002
0010
0013
0100
2000
0001
3001
0000
,
2000
0010
3010
0100
0002
1000
1003
0000
,
0200
0000
1000
0000
1300
0000
0001
0000
0020
0000
0100
0000
0130
0000
1000
0001
,
2000
0100
3100
0010
0002
1000
1003
0000
,
0020
0100
0130
0001
0200
0010
0310
0000
,
2000
0001
3001
0010
0002
0100
0103
0000
,
2002
0000
0000
0000
3000
0000
0000
0000
0103
0000
0000
0000
0110
0000
0010
1000
,
0020
0100
0130
0001
2000
0000
3100
1000
,
0020
0001
0032
0100
0203
1000
2300
0000
,
3010
0000
0000
1010
0000
0000
1100
0000
0000
0000
0001
1000
0001
0000
0100
0000
,
0010
0000
1000
0100
1000
0000
0001
0000
0010
0100
0010
0100
0010
0000
0001
0000
,
2000
0010
3010
0100
0002
0000
1003
0001
,
0200
1000
2300
0010
3020
0001
0032
0000
,
0103
0000
0000
0101
0000
0000
0011
0000
0000
0000
1000
0001
1000
0000
0010
0000
,
0100
0000
0001
1000
0001
0000
0010
0000
0100
1000
0100
1000
0100
0000
0010
0000
,
0002
0000
1000
0000
1003
0000
0010
0100
0020
0000
1000
0000
1030
0000
0001
0000
,
0020
0001
0032
0100
0203
1000
2300
0010
,
3010
0000
0001
1000
0000
0001
1000
0000
0000
0000
0100
0010
0100
0000
1000
0000
,
0010
0000
1000
0001
1000
0000
0010
0000
0100
0001
0100
0001
0100
0000
0010
0000
,
2000
0000
0100
0000
3100
0000
0010
0001
0020
0000
0100
0000
0130
0000
1000
0000
,
0020
1000
2030
0100
3200
0001
0302
0010
,
0013
0000
1000
0100
0000
1000
0100
0000
0000
0000
0010
0001
0010
0000
0100
0000
,
1000
0000
0001
0010
0001
0000
0100
0000
0010
1000
0010
1000
0010
0000
0100
0000
,
0002
0010
0013
0100
2000
0001
3001
0100
,
0020
1000
1030
0001
0200
0010
0310
0100
,
0001
0000
0000
0000
;
