#VERSION:0.83;
#TITLE:Stories;
#SUBTITLE:;
#ARTIST:Ax;
#TITLETRANSLIT:;
#SUBTITLETRANSLIT:;
#ARTISTTRANSLIT:;
#GENRE:;
#ORIGIN:;
#TAGS:;
#CREDIT:;
#BANNER:Stories-bn.png;
#BACKGROUND:Stories-bg.png;
#PREVIEWVID:;
#JACKET:Stories-jacket.png;
#CDIMAGE:;
#DISCIMAGE:;
#LYRICSPATH:;
#CDTITLE:;
#MUSIC:Stories.ogg;
#OFFSET:1.029000;
#SAMPLESTART:3.085000;
#SAMPLELENGTH:20.000000;
#SELECTABLE:YES;
#DISPLAYBPM:175.000000;
#BPMS:0.000000=175.000000;
#STOPS:;
#DELAYS:;
#WARPS:;
#TIMESIGNATURES:0.000000=4=4;
#TICKCOUNTS:0.000000=4;
#COMBOS:0.000000=1;
#SPEEDS:0.000000=1.000000=0.000000=0;
#SCROLLS:0.000000=1.000000;
#FAKES:;
#LABELS:0.000000=Song Start;
#BGCHANGES:;
#KEYSOUNDS:;
#ATTACKS:
;

//---------------dance-single - ----------------
#NOTEDATA:;
#CHARTNAME:;
#CHARTHASH:0:
#STEPSTYPE:dance-single;
#BANNER:;
#DESCRIPTION:;
#CHARTSTYLE:;
#DIFFICULTY:Hard;
#METER:13;
#METERF:0.000000;
#RADARVALUES:0.676077,0.697408,0.285093,0.608197,0.137795,498.000000,468.000000,30.000000,64.000000,0.000000,0.000000,0.000000,0.000000,0.000000,0.676077,0.697408,0.285093,0.608197,0.137795,498.000000,468.000000,30.000000,64.000000,0.000000,0.000000,0.000000,0.000000,0.000000;
#CREDIT:;
#DISPLAYBPM:175.000000;
#NOTES:
0000
0000
0000
0000
,
0000
0000
0000
0000
,
0000
0000
0000
0000
,
0020
0000
1000
0000
0001
0000
0100
0230
,
0000
0302
0000
2003
0000
3010
1000
0001
,
2000
0000
0100
0000
0001
0001
0000
3020
,
0000
0000
0230
0000
0000
0000
0302
0000
0000
0000
1003
0000
0010
0100
0010
0100
,
0020
0000
0100
0000
0001
0000
1000
2030
,
0000
3200
0000
0302
0000
0103
0010
0001
,
1000
0010
0100
0010
0001
0010
1000
0001
,
0000
0000
2000
0000
0000
0000
3002
0000
0000
0000
0010
0000
0013
0000
0000
0001
,
0100
1010
0100
0011
,
1000
0000
0001
0000
0010
0000
1000
0000
0010
0000
0001
0000
0100
0000
0000
0010
,
1000
0101
0001
1100
,
0010
1000
0100
0001
0100
1000
0001
0000
,
0010
1001
0010
0110
,
1000
0000
0001
0000
0100
0000
0010
0000
0001
0000
0010
0000
1000
0000
0000
0100
,
1000
0020
0031
0200
,
0310
1000
0001
1000
0100
0010
0001
0000
,
1000
0001
0010
0001
0100
1000
0100
0000
,
0010
1000
0001
0010
1000
0010
0100
0000
,
1000
0001
1000
0100
0010
0001
0100
0000
,
0010
0001
0010
0100
0010
1000
0010
0000
,
1000
0001
1000
0100
0010
0100
1000
0000
,
0001
0100
1000
0100
0010
1000
0001
0000
,
0010
0001
1000
0010
0100
1000
0100
0000
,
0001
0000
0010
0000
0100
0000
1000
0000
0010
0000
0100
0000
0001
0000
1000
0100
,
2000
0000
3002
0000
0023
0000
0130
0200
,
0000
2300
0000
3020
0000
1030
0100
0010
,
0002
0000
0203
0000
0320
0000
1030
2000
,
0000
0000
3002
0000
0000
0000
0203
0000
0000
0000
0310
0000
1000
0001
1000
0001
,
1000
0010
0001
0010
0100
0001
1000
0100
,
0000
1100
0000
0110
0000
0011
0001
1000
,
0010
0001
0010
0100
0001
1000
0100
0010
,
0000
1001
0000
1010
0000
0101
0100
0000
,
0010
0000
1000
0001
1000
0000
0100
0100
,
0000
0010
0001
0002
0000
0203
0000
1300
,
0100
0001
0010
0100
1000
0010
0001
0000
,
1000
0010
0100
0002
0000
2003
0000
3010
,
1000
0000
0000
0000
0001
0100
0001
0100
0001
0000
0000
0000
0010
1000
0000
0000
,
0001
0010
0100
1000
0000
0010
0100
0001
,
0010
0100
1000
0001
0100
0010
1000
0001
,
0100
0001
0010
1000
0001
1000
0100
0010
,
0100
0000
0000
0000
1000
0010
1000
0000
0001
0000
0100
0000
0010
0000
0110
0000
,
0000
0000
2000
0000
0000
0000
3002
0000
0000
0000
0013
0001
0010
0000
0000
0000
,
1000
0001
1000
0010
0100
0001
0010
0011
,
0000
0101
0000
1100
0001
1000
0010
0200
,
0000
0000
0000
0000
0000
0000
0301
0000
0000
1000
0000
0000
0001
0000
0000
0000
0000
0000
0020
0000
0000
0000
0000
0000
0000
0000
0000
0000
0000
0000
0000
0000
0000
0000
0000
0000
0031
0000
0000
0000
0100
0000
0000
0000
0001
0000
0000
0000
,
0100
0000
0100
0010
0000
0010
1000
0000
1000
0001
0000
0001
,
1000
0000
0000
0010
0100
0000
0002
0000
0000
0000
1003
0100
1000
0000
2010
0000
,
0000
0001
0001
3001
0000
0100
0010
1000
,
1001
0000
1000
0100
0001
0010
0100
2000
,
0000
0000
3100
0000
1000
0000
0020
0000
0000
0000
0031
0000
0010
0000
1000
0001
,
2000
0000
0000
3200
0000
0000
0320
0000
,
0000
0000
0031
0100
0001
0000
1000
0000
0200
0000
0000
0000
0320
0000
0000
0000
,
0032
0000
0103
0010
1000
0001
0010
0100
,
1000
0010
0100
0001
0010
0100
1000
2002
,
0003
0000
3001
0100
0120
0000
1030
0010
,
2000
0000
0001
3002
0000
0100
0203
0000
,
0310
1000
0100
0001
0100
0010
0001
0000
,
1000
0001
0010
0100
1000
0010
0100
0202
,
0300
0010
0013
0100
2000
0001
3001
0000
,
0020
0000
0001
0032
0000
1000
2003
0000
,
3010
1000
0001
0010
1000
0010
0100
0000
,
1000
0000
0001
0000
0010
0000
0100
0000
0001
0000
0100
0000
1000
0010
1000
0010
,
1000
0000
1100
0000
0011
0000
0100
0010
,
1000
0001
0010
0100
0010
0001
0100
2010
,
0000
0100
0000
3002
0000
0013
0100
2000
,
0000
3001
0100
1000
0000
0011
0000
0102
,
0000
1003
0001
0010
0000
0100
1000
0001
,
0000
1000
0001
0010
1000
0010
0001
0000
,
0100
0010
1000
0001
0010
0100
1000
0001
,
0000
1000
0010
1001
0000
0100
0010
1000
,
0001
0010
0001
0010
0001
0000
2020
0000
0000
0030
0000
0000
0100
0000
0000
0000
,
0100
0100
0001
0001
,
0100
0100
0010
0010
,
0010
3010
1100
1000
,
0001
0110
0000
0000
;

//---------------dance-single - ----------------
#NOTEDATA:;
#CHARTNAME:;
#CHARTHASH:0:
#STEPSTYPE:dance-single;
#BANNER:;
#DESCRIPTION:;
#CHARTSTYLE:;
#DIFFICULTY:Medium;
#METER:10;
#METERF:0.000000;
#RADARVALUES:0.515882,0.587291,0.285093,0.969315,0.000000,380.000000,350.000000,30.000000,102.000000,0.000000,0.000000,0.000000,0.000000,0.000000,0.515882,0.587291,0.285093,0.969315,0.000000,380.000000,350.000000,30.000000,102.000000,0.000000,0.000000,0.000000,0.000000,0.000000;
#CREDIT:;
#DISPLAYBPM:175.000000;
#NOTES:
0000
0000
0000
0000
,
0000
0000
0000
0000
,
0000
0000
0000
0000
,
0020
0230
0320
0230
,
0301
0000
0010
0000
0100
0000
1000
0001
,
2000
3020
0230
0302
,
0013
0000
0100
0000
1000
0010
0100
0001
,
0020
0230
2300
3002
,
1003
0000
0001
0000
0100
0000
0010
0100
,
0002
2003
3002
2003
,
3010
0000
0100
0000
0001
1000
0100
0000
,
2010
3010
0102
0103
,
0001
0010
0100
0010
0001
0000
1000
0000
,
0012
0013
2100
3100
,
0010
0000
1000
0001
0100
0000
0100
0000
,
2001
3100
0210
1300
,
0010
1000
0001
1000
0010
0000
0100
0000
,
0102
0013
2100
3001
,
1000
0000
0001
0100
0010
0000
1000
0000
,
0010
1000
0100
0000
2000
0000
3002
0000
,
0013
0001
0010
0100
1000
0000
1000
0000
,
0010
1000
0001
0000
0020
0000
0230
0000
,
1300
0001
0100
0000
0110
0000
1001
0000
,
0010
0001
0100
0000
0020
0000
2030
0000
,
3100
1000
0001
1000
0200
0000
0320
0000
,
0031
0000
0001
1000
0010
1000
0100
0000
,
1000
0001
0010
0100
1000
0000
0010
0000
,
0200
0000
0001
0000
1000
0000
0301
0200
,
0000
0320
0000
2030
0000
3001
0100
0000
,
0020
0000
0001
0000
1000
0000
0031
0020
,
0000
2030
0000
3200
0000
0000
1300
0001
,
2000
0000
3002
0000
2003
0000
3010
0200
,
0000
0302
0000
2003
0000
3100
0010
0000
,
0002
0000
0203
0000
0320
0000
1030
0002
,
0000
1003
0000
1010
0000
0011
0000
0000
,
0100
0000
0010
0000
1000
0000
0001
1000
,
0000
0000
0010
0100
0000
0001
0000
1000
,
0020
0000
0000
0230
0000
0000
0302
0000
,
2003
0000
0000
3200
0000
0310
0002
0000
,
1003
0000
0001
0100
0010
0000
0010
1000
,
0100
0000
1000
0001
0100
0010
0100
0000
,
0001
0000
0010
0100
1000
0001
1000
0000
,
1100
0000
0001
1000
0010
0100
0010
0000
,
1010
0000
0001
0010
0001
0100
0010
1000
,
0000
1001
0000
0101
0000
0001
0010
0100
,
1000
0000
0010
0000
0100
0001
0100
0020
,
0000
1030
0100
0020
0000
0031
0100
1000
,
0010
0000
0010
1000
0001
0000
0100
0010
,
1000
0011
0100
0110
,
1000
0001
1000
0200
0000
0310
0001
2000
,
0000
3020
0000
0230
0000
0310
0100
0010
,
2000
0000
0000
0000
0000
3001
1000
0020
,
0000
1030
0001
0200
0000
0310
0100
0000
,
1001
0000
0000
1010
0000
0000
0202
0000
,
0300
1000
0000
0013
0002
0000
0103
0000
,
0110
0000
1000
0001
2000
0000
3000
0010
,
0200
0000
0301
1000
0001
0010
0100
2000
,
0000
0010
0100
0010
,
3002
0000
0000
2003
0000
0000
3200
0000
,
0320
0000
0000
0032
0000
0000
0103
0000
,
0022
0000
0030
0000
1003
0001
0100
0020
,
0000
0000
2030
3001
,
0020
0000
0000
0032
0000
0000
0203
0000
,
0302
0000
0000
2003
0000
0000
3020
0000
,
1030
0001
0010
0100
1000
0001
0000
0010
,
0100
0000
2100
0000
3002
0000
1003
0020
,
0000
0230
0000
0302
0000
0000
1003
0200
,
0000
0320
0000
0230
0000
0000
1300
0010
,
0000
0100
0001
1000
0000
0011
0000
1010
,
0000
0000
0001
1000
0000
1000
0100
0010
,
0000
1100
0000
0001
1000
0100
0010
0001
,
0100
0010
0100
0000
0001
0010
0100
1000
,
0000
0001
1000
0001
0000
0100
0010
1000
,
0001
0000
0000
0202
0000
0000
0003
0000
,
0020
0030
2000
3000
,
0020
0030
0002
0003
,
0020
0330
1002
0100
,
0013
0110
0000
0000
;

//---------------dance-single - ----------------
#NOTEDATA:;
#CHARTNAME:;
#CHARTHASH:0:
#STEPSTYPE:dance-single;
#BANNER:;
#DESCRIPTION:;
#CHARTSTYLE:;
#DIFFICULTY:Easy;
#METER:7;
#METERF:0.000000;
#RADARVALUES:0.354329,0.403762,0.209068,0.456148,0.000000,261.000000,239.000000,22.000000,48.000000,0.000000,0.000000,0.000000,0.000000,0.000000,0.354329,0.403762,0.209068,0.456148,0.000000,261.000000,239.000000,22.000000,48.000000,0.000000,0.000000,0.000000,0.000000,0.000000;
#CREDIT:;
#DISPLAYBPM:175.000000;
#NOTES:
0000
0000
0000
0000
,
0000
0000
0000
0000
,
0000
0000
0000
0000
,
0010
0010
0010
1000
,
0001
0010
0002
0003
,
1000
1000
1000
0001
,
0010
0100
2000
3000
,
0001
0001
0001
0100
,
0010
1000
0002
0003
,
0100
0100
0100
0010
,
1000
0100
0002
0003
,
1001
0100
1001
0100
,
0010
0010
2000
3000
,
0110
1000
0110
1000
,
0010
0100
0002
0003
,
1001
0010
1001
0010
,
1000
0001
0020
0030
,
0110
0001
0110
0001
,
1000
1000
0020
0030
,
0001
0001
1000
1000
,
0001
0010
0200
0300
,
0010
0010
0100
0100
,
0010
1000
0002
0003
,
0001
0010
0001
0100
,
0010
1000
0002
0003
,
0100
0010
0100
0001
,
0010
0100
2000
3000
,
0010
0100
0010
0000
,
1000
0100
0001
0000
,
1000
0001
1000
0000
,
0010
0100
0001
0000
,
0010
0010
0010
0001
,
1000
0100
2000
3000
,
0001
0001
0001
1000
,
0010
0100
0020
0030
,
1000
0100
0001
0000
,
0010
0000
0001
1000
,
0010
0000
1001
0000
,
0100
0000
0010
1000
,
0001
0010
0110
1000
,
0010
0000
0100
0000
,
0002
0000
2003
0000
,
3020
0000
0230
0300
,
0110
0001
0010
0100
,
1000
1000
0001
0100
,
0001
0010
0100
1000
,
0010
1000
0100
0001
,
1001
0010
0100
0001
,
1000
1000
0001
0010
,
0100
0010
0100
1000
,
0010
1000
0001
0100
,
2000
0001
0000
3001
,
0200
0010
1000
0301
,
0020
0000
0000
0032
0000
0000
0203
0000
,
0000
0300
1001
0110
,
2002
0003
0002
3000
,
0020
0003
0230
2300
,
3002
0100
0010
0100
,
2003
0000
0000
3020
0000
0000
0230
0000
,
0302
0000
0000
2003
0000
0000
3002
0000
,
0023
0000
0130
1001
,
0020
0000
0230
0000
,
0302
0000
2003
0000
,
3002
0000
0000
0203
0000
0000
0320
0000
,
2000
3030
0110
0001
,
0120
1000
0001
1000
,
0100
0100
0001
1030
,
0010
0100
0110
0000
,
0001
1000
1001
0000
,
0010
1000
0100
0010
,
0001
0100
0001
1000
,
0100
0010
0001
0100
,
0010
1000
0001
1000
,
0010
0000
0000
2002
0000
0000
0000
0000
,
0000
0000
0000
0000
,
0000
0000
0000
0000
,
0000
0003
0010
0010
,
3010
0110
0000
0000
;

//---------------dance-single - ----------------
#NOTEDATA:;
#CHARTNAME:;
#CHARTHASH:0:
#STEPSTYPE:dance-single;
#BANNER:;
#DESCRIPTION:;
#CHARTSTYLE:;
#DIFFICULTY:Beginner;
#METER:4;
#METERF:0.000000;
#RADARVALUES:0.214498,0.293645,0.133043,0.076025,0.000000,158.000000,144.000000,14.000000,8.000000,0.000000,0.000000,0.000000,0.000000,0.000000,0.214498,0.293645,0.133043,0.076025,0.000000,158.000000,144.000000,14.000000,8.000000,0.000000,0.000000,0.000000,0.000000,0.000000;
#CREDIT:;
#DISPLAYBPM:175.000000;
#NOTES:
// measure 0
0000
0000
0000
0000
,  // measure 1
0000
0000
0000
0000
,  // measure 2
0000
0000
0000
0000
,  // measure 3
0010
0010
0010
0000
,  // measure 4
1000
0000
0001
0000
,  // measure 5
0100
0100
0100
0000
,  // measure 6
0001
0000
1000
0000
,  // measure 7
0001
0001
0001
0000
,  // measure 8
0010
0000
0100
0000
,  // measure 9
1000
1000
1000
0000
,  // measure 10
0010
0000
0100
0000
,  // measure 11
0001
0000
0001
0000
,  // measure 12
0001
0000
1000
0000
,  // measure 13
0010
0000
0010
0000
,  // measure 14
1000
0000
0100
0000
,  // measure 15
1000
0000
1000
0000
,  // measure 16
1000
0000
0010
0000
,  // measure 17
0100
0000
0100
0000
,  // measure 18
0001
0000
0010
0000
,  // measure 19
0001
0000
0010
0000
,  // measure 20
0100
0000
1000
0000
,  // measure 21
0010
0000
0010
0000
,  // measure 22
0100
0000
0001
0000
,  // measure 23
1000
0000
0100
0000
,  // measure 24
0010
0000
0001
0000
,  // measure 25
0100
0000
0100
0000
,  // measure 26
0001
0000
1000
0000
,  // measure 27
0010
0010
0010
0000
,  // measure 28
1001
0000
0000
0000
,  // measure 29
0100
0100
0100
0000
,  // measure 30
0110
0000
0000
0000
,  // measure 31
0001
0001
0001
0000
,  // measure 32
0100
0000
0010
0000
,  // measure 33
1000
1000
1000
0000
,  // measure 34
0010
0000
0100
0000
,  // measure 35
0001
0000
1000
0000
,  // measure 36
1001
0000
0000
0000
,  // measure 37
0010
0000
0100
0000
,  // measure 38
0110
0000
0000
0000
,  // measure 39
0001
0000
1000
0000
,  // measure 40
0010
0000
0000
0000
,  // measure 41
1000
0000
0001
0000
,  // measure 42
0010
0000
0100
0000
,  // measure 43
1000
0000
0001
0000
,  // measure 44
1000
1000
1000
0000
,  // measure 45
0010
0010
0010
0000
,  // measure 46
1001
0000
0000
0000
,  // measure 47
0110
0000
0001
0000
,  // measure 48
1000
0000
0100
0000
,  // measure 49
0010
0000
0010
0000
,  // measure 50
0010
0000
0000
0000
,  // measure 51
0002
0000
0003
0000
,  // measure 52
1000
0000
0010
0000
,  // measure 53
0200
0000
0000
0000
,  // measure 54
0300
0000
1001
0000
,  // measure 55
0110
0000
0001
0000
,  // measure 56
0001
0000
1000
0000
,  // measure 57
0020
0030
0000
0000
,  // measure 58
0100
0000
0001
0000
,  // measure 59
1000
0000
0001
0000
,  // measure 60
0100
0000
0110
0000
,  // measure 61
1001
0000
1000
0000
,  // measure 62
0001
0000
0001
0000
,  // measure 63
0010
0000
0100
0000
,  // measure 64
2000
0000
3000
0000
,  // measure 65
0001
0001
0001
0000
,  // measure 66
1000
1000
1000
0000
,  // measure 67
0010
0010
0010
0000
,  // measure 68
0100
0000
0110
0000
,  // measure 69
1001
0000
1000
0000
,  // measure 70
0010
0000
0100
0000
,  // measure 71
0001
0001
0001
0000
,  // measure 72
1000
0000
0010
0000
,  // measure 73
0000
0000
0000
2002
0000
0000
0000
0000
,  // measure 74
0000
0000
0000
0000
,  // measure 75
0000
0000
0000
3003
,  // measure 76
0000
0000
0220
0000
,  // measure 77
0000
0330
0000
0000
;
