#TITLE:Stop Violence! (B.L.T. Re Production);
#SUBTITLE:;
#ARTIST:Togo;
#TITLETRANSLIT:;
#SUBTITLETRANSLIT:;
#ARTISTTRANSLIT:;
#GENRE:;
#CREDIT:;
#BANNER:Stop Violence! (B.L.T. Re Production)-bn.png;
#BACKGROUND:Stop Violence! (B.L.T. Re Production)-bg.png;
#LYRICSPATH:;
#CDTITLE:;
#MUSIC:Stop Violence! (B.L.T. Re Production).ogg;
#OFFSET:0.000000;
#SAMPLESTART:11.935000;
#SAMPLELENGTH:20.000000;
#SELECTABLE:YES;
#DISPLAYBPM:141.000000;
#BPMS:0.000000=141.220001
;
#STOPS:
;
#BGCHANGES:;
#KEYSOUNDS:;
#ATTACKS:;

//---------------dance-single - ----------------
#NOTES:
     dance-single:
     :
     Beginner:
     2:
     0.118242,0.198212,0.054454,0.000000,0.000000,76.000000,71.000000,5.000000,0.000000,0.000000,0.000000,0.118242,0.198212,0.054454,0.000000,0.000000,76.000000,71.000000,5.000000,0.000000,0.000000,0.000000:
0000
0000
0000
0000
,
0000
0000
0000
0000
,
0000
0000
0000
0000
,
0000
0000
0000
0000
,
0000
0000
0000
0000
,
0100
0000
0000
0000
,
1000
0000
1000
0000
,
0001
0000
0000
0000
,
0100
0000
0000
0000
,
1000
0000
0000
0000
,
0001
0000
0001
0000
,
1000
0000
0010
0000
,
0010
0000
0100
0100
,
0100
0000
0001
0000
,
1000
1000
0000
0000
,
0001
0000
0000
0000
,
0100
0000
0000
0000
,
0010
0000
0000
0000
,
0100
0000
0000
0000
,
0010
0000
1000
0000
,
0010
0000
0000
0000
,
1000
0000
0001
0000
,
1000
0000
0000
0000
,
0100
0000
0000
0000
,
0001
0000
0000
0000
,
0010
0000
0000
0000
,
0100
0000
0100
0000
,
0010
0000
0000
0000
,
0100
0000
0000
0000
,
0001
0000
0000
0000
,
1000
0000
0000
0000
,
1001
0000
0000
0000
,
0110
0000
0000
0000
,
1001
0000
0000
0000
,
1001
0000
0001
0000
,
1000
1000
1000
0000
,
1000
0000
0000
0000
,
0010
0010
0010
0000
,
0010
0000
0000
0000
,
0100
0100
0100
0000
,
0100
0000
0000
0000
,
0001
0001
0001
0000
,
0001
0000
0000
0000
,
1000
0000
0000
0000
,
0100
0000
0000
0000
,
1000
0000
0000
0000
,
0010
0000
0000
0000
,
0001
0000
0000
0000
,
0100
0000
0000
0000
,
0010
0000
0010
0010
,
0010
0000
1000
0000
,
1000
0000
0001
0000
,
1001
0000
0000
0000
;

//---------------dance-single - ----------------
#NOTES:
     dance-single:
     :
     Easy:
     5:
     0.203813,0.287244,0.087126,0.217815,0.000000,131.000000,123.000000,8.000000,20.000000,0.000000,0.000000,0.203813,0.287244,0.087126,0.217815,0.000000,131.000000,123.000000,8.000000,20.000000,0.000000,0.000000:
0000
0000
0000
0000
,
0000
0000
0000
0000
,
0000
0000
0000
0000
,
0000
0000
0000
0000
,
0000
0000
0000
0000
,
1000
1000
0000
0000
,
0001
0001
1000
1000
,
0010
0000
0100
0000
,
0010
0000
1000
0001
,
0010
0000
0100
0000
,
0010
0000
0001
1000
,
0002
0003
2000
3000
,
0002
0003
2000
3000
,
0020
0030
0200
0300
,
0001
1001
0000
0000
,
1000
0000
0100
0000
,
0010
0000
0100
0100
,
0010
0000
0001
0000
,
1000
0000
0020
0030
,
1000
0000
0001
0000
,
0010
0000
0100
0100
,
0010
0000
0001
0000
,
0100
0000
0020
0030
,
1000
0000
0001
0000
,
1000
0000
0001
0100
,
1000
0000
0001
0000
,
1000
0000
0001
0010
,
1000
0000
0100
0000
,
0010
0000
0100
1000
,
0010
0000
0100
0000
,
0010
0000
0100
0001
,
0020
0000
0030
0010
,
0010
0100
0110
0010
,
0002
0000
0003
1000
,
1001
0001
1001
1000
,
0001
1000
0001
0000
,
2000
0000
3002
0000
,
0103
0010
0100
0000
,
0020
0000
0230
0000
,
0301
0100
0001
0000
,
0200
0000
0302
0000
,
1003
0100
1000
0000
,
0200
0000
2300
0000
,
3001
0010
0100
1000
,
0001
0000
0001
0000
,
0001
0100
0010
1000
,
0100
0000
0100
0000
,
0100
1000
0001
1000
,
0010
0000
0010
1000
,
1010
0000
0100
0001
,
0101
0000
0001
1000
,
1001
0000
0010
0100
,
0220
0000
0000
0330
;

//---------------dance-single - ----------------
#NOTES:
     dance-single:
     :
     Medium:
     8:
     0.331390,0.459590,0.392067,0.283160,0.000000,213.000000,177.000000,36.000000,26.000000,0.000000,0.000000,0.331390,0.459590,0.392067,0.283160,0.000000,213.000000,177.000000,36.000000,26.000000,0.000000,0.000000:
0000
0000
0000
0000
,
0000
0000
0000
0000
,
0000
0000
0000
0000
,
0000
0000
0000
0000
,
0000
0000
0000
0000
,
1001
0000
0100
0100
0000
0000
0000
0000
,
0110
1001
1100
0101
,
1000
0000
0001
0000
1000
0000
0001
0100
,
0010
1000
0001
1000
,
0100
0000
0001
0000
0100
0000
1000
0001
,
2000
3002
2003
3002
,
0103
0000
0000
0110
0000
0000
1010
0000
,
0101
0000
0000
1001
0000
0000
0011
0000
,
1100
0000
0000
1001
0000
0000
0110
0000
,
1001
2002
0000
3003
,
0100
0000
0010
0100
0010
0000
1000
0001
,
1000
1000
0001
0001
,
0010
0100
1000
0001
,
0200
0000
0000
0000
0010
0010
0310
0000
,
1000
0000
0001
1000
0001
0000
0010
0100
,
0010
0010
0100
0100
,
1000
0010
0100
0001
,
0020
0000
0000
0000
0100
0100
0130
0200
,
0000
0000
0000
0000
,
0300
0100
0100
0100
,
1000
0001
0100
0000
0001
1000
0010
0000
,
1000
0001
0010
0000
0001
1000
0100
0020
,
0000
0000
0000
0000
,
0030
0010
0010
0010
,
0001
1000
0010
0000
1000
0001
0100
0000
,
0001
1000
0100
0000
1000
0001
0010
0000
,
0200
0000
1000
1300
0000
0000
0001
0000
,
1000
0010
0201
0320
,
2030
0000
0100
3100
0000
0000
0010
0000
,
0202
0000
0303
2002
0000
3003
0000
0000
,
0012
0000
1000
0000
,
0103
0000
0110
0000
,
2010
0000
0001
0000
,
3100
0000
0110
0000
,
0021
0000
0100
0000
,
1030
0001
0110
0000
,
1020
0000
0100
0000
,
0031
2002
0000
3003
,
0100
0010
1000
0000
0100
0010
0001
0000
,
1000
0100
0010
0001
,
1000
0010
0100
0000
0001
0010
0100
0000
,
1000
0001
0010
0100
,
1000
0100
0001
0000
0100
1000
0010
0000
,
0001
0010
1000
0100
,
1001
0000
0000
0110
0000
0000
0101
0000
,
1010
0000
0000
1001
0000
0000
1100
0000
,
0011
0000
0001
1001
0000
0010
0110
0000
,
2002
0000
0000
3003
;

//---------------dance-single - ----------------
#NOTES:
     dance-single:
     :
     Hard:
     12:
     0.524312,0.631936,0.413849,0.174252,0.299496,337.000000,299.000000,38.000000,16.000000,0.000000,0.000000,0.524312,0.631936,0.413849,0.174252,0.299496,337.000000,299.000000,38.000000,16.000000,0.000000,0.000000:
0000
0000
0000
0000
,
0000
0000
0000
0000
,
0000
0000
0000
0000
,
0000
0000
0000
0000
,
0000
0000
0000
0000
,
1000
0000
0000
0110
0000
0000
0010
0000
0000
0000
0000
0000
0000
0000
0000
0000
,
0011
0110
1001
1100
,
0001
0000
0000
0110
0000
0000
0100
0000
1000
0000
0100
0000
1000
0000
0010
0000
,
0100
0000
0000
1001
0000
0000
0001
0000
0100
0000
0001
0000
0100
0000
0010
0000
,
1000
0000
0000
0101
0000
0000
0100
0000
0010
0000
0100
0000
0010
0000
1000
0000
,
0001
0000
0000
1100
0000
0000
1000
0000
0010
0000
1000
0000
0010
0000
0100
0000
,
1001
0000
0000
0001
1000
0000
1001
0000
0000
1000
0001
0000
1001
0000
0000
0000
,
0110
0000
0000
0010
0100
0000
0110
0000
0000
0100
0010
0000
0110
0000
0000
0000
,
0101
0000
0000
0100
0001
0000
0101
0000
0000
0001
0100
0000
0101
0000
0000
0000
,
1001
0220
0000
0330
,
0001
0000
0000
0100
1000
0100
0000
1000
0000
0100
0000
0000
0001
0000
0010
0000
,
0001
0000
0000
1000
0001
1000
0000
0001
0000
1000
0000
0000
0001
0000
0010
0000
,
0100
0000
0000
1000
0100
1000
0000
0100
0000
0010
0000
0000
0001
0000
0100
0000
,
1000
0000
0000
0100
0001
0100
0000
0001
0000
0010
0000
0100
0000
0010
0001
0000
,
0000
0000
0000
0010
0100
0010
0000
0100
0000
1000
0000
0000
0001
0000
0100
0000
,
1000
0000
0000
0100
0001
0100
0000
0001
0000
0010
0000
0000
0100
0000
1000
0000
,
0010
0000
0000
0100
0001
0100
0000
0001
0000
1000
0000
0000
0001
0000
0100
0000
,
2000
0000
0000
0000
0000
0000
0000
3100
0000
0001
0000
0010
0000
1000
0010
0000
,
0001
0100
0001
1000
0100
1000
0010
0001
,
0010
1000
0010
0100
0001
1000
0010
1000
,
0010
1000
0010
0100
0010
0001
0010
0001
,
0010
0001
0010
1000
0100
0010
0001
1000
,
0100
0010
0100
1000
0010
0001
0010
1000
,
0010
0100
0010
0100
0010
0100
0001
0010
,
1000
0010
1000
0010
1000
0010
0001
0100
,
0010
1000
0001
0100
0010
1000
0001
0000
,
0100
0000
0000
0100
0010
0000
0000
0000
0011
0000
0000
0000
1000
0000
0001
0000
,
1000
0000
0000
1000
0010
0000
0000
0000
2002
0000
0000
0000
3000
0000
0000
0000
,
0103
0000
0000
0100
0010
0000
0000
0000
1010
0000
0000
0000
0010
0000
0001
0000
,
0101
0000
0000
0110
0000
0000
0000
0000
,
1000
0000
0000
0000
0100
0000
0000
0000
2002
0000
0000
0003
0000
0000
0001
0000
,
0001
3001
0000
0000
0110
0000
0000
0000
,
0010
0000
0010
0000
0202
0000
0300
0100
,
0100
0103
0000
0000
0020
0000
0000
0000
,
1030
0000
0100
0000
1000
0000
0100
0000
2000
0000
0000
0000
0000
0000
3001
0100
,
0001
0100
0000
0000
0020
0000
0000
0000
,
1030
0000
0100
0000
1000
0000
0100
0000
2000
0000
0000
0000
0000
0000
3001
0100
,
0001
0200
0000
0000
0000
0000
0300
0000
,
1000
0100
0010
0100
1000
0100
0001
0010
,
0001
0010
0001
0010
0100
1000
0001
0100
,
0010
0100
0010
0100
0010
1000
0001
0100
,
1000
0100
1000
0100
1000
0010
0100
0001
,
0010
0100
1000
0100
0001
0100
0010
0001
,
1000
0010
0001
0010
1000
0100
0010
0000
,
0110
0000
0000
0011
0000
0000
1100
0000
,
1001
0000
0000
1000
0001
0000
1001
0000
0000
0001
1000
0000
1001
0000
0000
0000
,
0110
0000
0000
0100
0010
0000
0110
0000
0000
0010
0100
0000
0110
0000
0000
0000
,
2002
0000
0000
3003
;

//---------------dance-double - ----------------
#NOTES:
     dance-double:
     :
     Easy:
     5:
     0.203813,0.287244,0.087126,0.217815,0.000000,131.000000,123.000000,8.000000,20.000000,0.000000,0.000000,0.203813,0.287244,0.087126,0.217815,0.000000,131.000000,123.000000,8.000000,20.000000,0.000000,0.000000:
00000000
00000000
00000000
00000000
,
00000000
00000000
00000000
00000000
,
00000000
00000000
00000000
00000000
,
00000000
00000000
00000000
00000000
,
00000000
00000000
00000000
00000000
,
00010000
00001000
00000000
00000000
,
00010000
00010000
00001000
00001000
,
00010000
00000000
00001000
00000000
,
00000100
00000000
00000001
00000010
,
00000001
00000000
00000100
00000000
,
00001000
00000000
00010000
00001000
,
00020000
00030000
02000000
03000000
,
00200000
00300000
02000000
03000000
,
20000000
30000000
00020000
00030000
,
10000000
10010000
00000000
00000000
,
00100000
00000000
10000000
00000000
,
01000000
00000000
00010000
00010000
,
00001000
00000000
00000100
00000000
,
00000001
00000000
00000200
00000300
,
00000010
00000000
00001000
00000000
,
00000100
00000000
00010000
00010000
,
00001000
00000000
00100000
00000000
,
00010000
00000000
02000000
03000000
,
00010000
00000000
10000000
00000000
,
00010000
00000000
10000000
01000000
,
00010000
00000000
00001000
00000000
,
00010000
00000000
00001000
00000100
,
00000001
00000000
00000010
00000000
,
00000100
00000000
00000010
00001000
,
00010000
00000000
01000000
00000000
,
00100000
00000000
01000000
00010000
,
00002000
00000000
00003000
00010000
,
00010000
00001000
00011000
00010000
,
00000200
00000000
00000300
00001000
,
00001010
00000010
00000110
00000100
,
00000001
00001000
00000001
00000000
,
00000020
00000000
00000230
00000000
,
00010300
00001000
00010000
00000000
,
00000020
00000000
00000230
00000000
,
00001300
00010000
00001000
00000000
,
00200000
00000000
02300000
00000000
,
03010000
00001000
00010000
00000000
,
00200000
00000000
02300000
00000000
,
03001000
00010000
00001000
00010000
,
00000100
00000000
00000100
00000000
,
00001000
00000001
00001000
00000001
,
00000100
00000000
00000100
00000000
,
00001000
00010000
00001000
00010000
,
01000000
00000000
01000000
10000000
,
10010000
00000000
00100000
01000000
,
01100000
00000000
00010000
01000000
,
01010000
00000000
00001000
00010000
,
00022000
00000000
00000000
00033000
;

//---------------dance-double - ----------------
#NOTES:
     dance-double:
     :
     Medium:
     8:
     0.326723,0.402141,0.381176,0.283160,0.000000,210.000000,175.000000,35.000000,26.000000,0.000000,0.000000,0.326723,0.402141,0.381176,0.283160,0.000000,210.000000,175.000000,35.000000,26.000000,0.000000,0.000000:
00000000
00000000
00000000
00000000
,
00000000
00000000
00000000
00000000
,
00000000
00000000
00000000
00000000
,
00000000
00000000
00000000
00000000
,
00000000
00000000
00000000
00000000
,
00000110
00000000
00000001
00001000
00000000
00000000
00000000
00000000
,
00000110
00001100
00011000
01010000
,
10000000
00000000
00010000
00000000
00100000
00000000
00010000
10000000
,
01000000
00100000
00001000
00010000
,
00000100
00000000
00001000
00000000
00000001
00000000
00000100
00000010
,
00000200
00000320
00000230
00000320
,
00001030
00000000
00000000
00001001
00000000
00000000
00001100
00000000
,
00010100
00000000
00000000
00011000
00000000
00000000
00101000
00000000
,
00110000
00000000
00000000
10010000
00000000
00000000
01010000
00000000
,
11000000
20020000
00000000
30030000
,
01000000
00000000
00100000
00010000
01000000
00000000
00100000
10000000
,
01000000
01000000
00010000
00010000
,
00001000
00000100
00000001
00000010
,
00000200
00000000
00000000
00000000
00001000
00001000
00001300
00000000
,
00000100
00000000
00000010
00001000
00000100
00000000
00000010
00000001
,
00000100
00000100
00001000
00001000
,
00010000
01000000
10000000
00100000
,
02000000
00000000
00000000
00000000
00010000
00010000
03010000
00020000
,
00000000
00000000
00000000
00000000
,
00030000
00010000
00010000
00010000
,
01000000
00010000
00100000
00000000
00001000
00010000
00000100
00000000
,
00001000
00000100
00010000
00000000
00000010
00001000
00000100
00000020
,
00000000
00000000
00000000
00000000
,
00000030
00000010
00000010
00000010
,
00000100
00001000
00000010
00000000
00010000
00001000
01000000
00000000
,
00010000
01000000
00001000
00000000
00100000
00010000
01000000
00000000
,
00020000
00000000
10000000
10030000
00000000
00000000
00100000
00000000
,
10000000
01000000
00200000
00302000
,
00023000
00000000
00001000
00031000
00000000
00000000
00000100
00000000
,
00000202
00000000
00000303
00002200
00000000
00003300
00000000
00000000
,
00002010
00000000
00000001
00000000
,
00003100
00000000
00011000
00000000
,
00120000
00000000
10000000
00000000
,
01030000
00000000
00011000
00000000
,
00001020
00000000
00000001
00000000
,
00000130
00001000
00011000
00000000
,
00210000
00000000
10000000
00000000
,
01300000
20020000
00000000
30030000
,
01000000
00100000
10000000
00000000
00010000
01000000
00100000
00000000
,
00010000
00001000
00000100
00000010
,
00001000
00000100
00000010
00000000
00000001
00001000
00000100
00000000
,
00000010
00001000
00010000
01000000
,
10000000
01000000
00100000
00000000
00010000
10000000
01000000
00000000
,
00010000
00001000
00000100
00000001
,
00000101
00000000
00000000
00001001
00000000
00000000
00001100
00000000
,
00010100
00000000
00000000
00011000
00000000
00000000
00101000
00000000
,
00110000
00000000
00000000
10010000
00000000
00000000
01010000
00000000
,
02200000
00000000
00000000
03300000
;

//---------------dance-double - ----------------
#NOTES:
     dance-double:
     :
     Hard:
     12:
     0.556984,0.631936,0.479193,0.239597,0.266824,358.000000,314.000000,44.000000,22.000000,0.000000,0.000000,0.556984,0.631936,0.479193,0.239597,0.266824,358.000000,314.000000,44.000000,22.000000,0.000000,0.000000:
00000000
00000000
00000000
00000000
,
00000000
00000000
00000000
00000000
,
00000000
00000000
00000000
00000000
,
00000000
00000000
00000000
00000000
,
00000000
00000000
00000000
00000000
,
00000001
00000000
00000000
00000100
00000000
00000000
00001000
00000000
00000000
00000000
00000000
00000000
00000000
00000000
00000000
00000000
,
00001001
00000110
00011000
01100000
,
10010000
00000000
00000000
01000000
10000000
00000000
00010000
00000000
00100000
00000000
01000000
00000000
10000000
00000000
01000000
00000000
,
00100000
00000000
00000000
00001000
00010000
00000000
00000010
00000000
00000100
00000000
00000001
00000000
00000100
00000000
00000010
00000000
,
00001000
00000000
00000000
00000100
00010000
00000000
00001000
00000000
00100000
00000000
00001000
00000000
00010000
00000000
00000100
00000000
,
00010000
00000000
00000000
00001000
00010000
00000000
01000000
00000000
10000000
00000000
00010000
00000000
00100000
00000000
01000000
00000000
,
10010000
00000000
00000000
10000000
00010000
00000000
10010000
00000000
00000000
00010000
00100000
00000000
00110000
00000000
00000000
00000000
,
00101000
00000000
00000000
00100000
00001000
00000000
00101000
00000000
00000000
00001000
00010000
00000000
00011000
00000000
00000000
00000000
,
00010100
00000000
00000000
00010000
00000100
00000000
00010100
00000000
00000000
00000100
00001000
00000000
00001100
00000000
00000000
00000000
,
00000101
00002002
00000000
00003003
,
00000001
00000000
00000000
00000010
00000001
00000010
00000000
00000100
00000000
00001000
00000000
00000000
00000010
00000000
00001000
00000000
,
00000100
00000000
00000000
00010000
00001000
00000000
00000000
00100000
00010000
00000000
00000000
01000000
00100000
00000000
00000000
10000000
,
00100000
01000000
00010000
00100000
01000000
00000000
00010000
01000000
,
10000000
00000000
00000000
00010000
10000000
00000000
00000000
00100000
00010000
00100000
00000000
00010000
00000000
00001000
00000000
00000010
,
00000001
00000000
00000000
00000100
00000001
00000100
00000000
00000010
00000000
00001000
00000000
00000000
00000100
00000000
00001000
00000000
,
00000010
00000000
00000000
00010000
00001000
00000000
00000000
01000000
00010000
00000000
00000000
00100000
01000000
00000000
00000000
10000000
,
01000000
00100000
00010000
01000000
00100000
00000000
00010000
00100000
,
10000000
00000000
00000000
00010000
10000000
00000000
00000000
01000000
00100000
01000000
00000000
00010000
00000000
00001000
00000000
00010000
,
00001000
00010000
00001000
00010000
00000100
00001000
00000100
00001000
,
00000010
00000100
00000010
00000100
00000001
00000010
00000001
00000010
,
00000001
00000100
00001000
00010000
01000000
10000000
00100000
00010000
,
00001000
00000100
00000001
00000010
00001000
00010000
01000000
00010000
,
00001000
00010000
00001000
00010000
00100000
00010000
00100000
00010000
,
00100000
10000000
00100000
10000000
01000000
10000000
01000000
10000000
,
00100000
01000000
00010000
00100000
00001000
00010000
00000100
00001000
,
00000010
00000100
00000001
00001000
00000100
00010000
00001000
00100000
,
00101000
00000000
00110000
00110000
00000000
00100000
01000000
10000000
,
00010000
00000000
00000000
10000000
00010000
00000000
00000000
00000000
00200000
00000000
00000000
00000000
00310000
00000000
01000000
00000000
,
01010000
00000000
01001000
01001000
00000000
00001000
00010000
00000100
,
00001000
00000000
00000000
00000001
00001000
00000000
00002002
00000000
00000000
00000000
00000000
00000000
00003003
00000000
00000000
00000000
,
00000010
00000000
00000100
00000000
00000220
00000000
00000330
00000100
,
00000010
00000100
00001000
00000000
00022000
00000000
00033000
00000000
,
00100000
00000000
01000000
00000000
02200000
00000000
03300000
01000000
,
00100000
01000000
00010000
00000000
00022000
00000000
00033000
00000000
,
00011000
00000000
00000000
00000000
00001100
00000000
00000000
00000000
00000202
00000000
00000000
00000000
00000303
00000000
00001000
00000001
,
00001000
00000010
00000100
00000000
00002200
00000000
00003300
00000000
,
00011000
00000000
00000000
00000000
01010000
00000000
00000000
00000000
22000000
00000000
00000000
00000000
33000000
00000000
00010000
10000000
,
00010000
20000000
00000000
00000000
00000000
00000000
30000000
00000000
,
01000000
00100000
01000000
10000000
00010000
01000000
00001000
00010000
,
00000010
00001000
00000001
00000100
00000010
00000100
00000001
00000010
,
00001000
00010000
01000000
10000000
00010000
10000000
00100000
00010000
,
00001000
00000100
00000001
00001000
00000001
00000010
00001000
00010000
,
00001000
00100000
00010000
10000000
01000000
00010000
01000000
00100000
,
00001000
00010000
00001000
00000100
00000001
00001000
00000001
00000010
,
00000110
00000000
00000000
00001000
00000001
00000000
00000110
00000000
00000000
00001000
00000001
00000000
00000110
00000000
00000000
00000000
,
00011000
00000000
00000000
00100000
00001000
00000000
00011000
00000000
00000000
00000100
00010000
00000000
00011000
00000000
00000000
00000000
,
01100000
00000000
00000000
10000000
00010000
00000000
01100000
00000000
00000000
10000000
00010000
00000000
01100000
00000000
00000000
00000000
,
20020000
00000000
00000000
30030000
;

//---------------dance-single - ----------------
#NOTES:
     dance-single:
     :
     Challenge:
     14:
     0.718790,0.776477,0.566319,0.217815,0.756907,462.000000,410.000000,52.000000,20.000000,0.000000,0.000000,0.718790,0.776477,0.566319,0.217815,0.756907,462.000000,410.000000,52.000000,20.000000,0.000000,0.000000:
// measure 0
0000
0000
0000
0000
,  // measure 1
0000
0000
0000
0000
,  // measure 2
0000
0000
0000
0000
,  // measure 3
0000
0000
0000
0000
,  // measure 4
0000
0000
0000
0000
,  // measure 5
1100
0000
0000
0110
0000
0000
0012
0000
0000
0000
1000
0000
1000
0000
1003
0000
,  // measure 6
0101
1100
0011
1010
,  // measure 7
1001
0000
0000
1000
0010
0000
0100
0000
0010
0000
0001
0000
0010
0000
1000
0000
,  // measure 8
0100
0000
0000
0010
0001
0000
0100
0000
0010
1000
0000
1000
0001
0000
0100
0000
,  // measure 9
0010
0000
0000
1000
0001
0000
0010
0000
1000
0000
0010
0000
0100
0000
1000
0000
,  // measure 10
0001
0000
0000
1000
0010
0000
0000
1000
0100
0000
0010
0001
0000
0001
0100
0000
,  // measure 11
0110
0000
0000
0010
1000
0000
1100
0000
0000
0001
0100
0000
0101
0000
0000
0000
,  // measure 12
0011
0000
0000
0010
0100
0000
1100
0000
0000
0001
1000
0000
1001
0000
0000
0000
,  // measure 13
1000
0010
0000
0100
0010
0000
0100
0001
0000
1000
0001
0000
0010
0100
1000
0001
,  // measure 14
0100
0000
0000
0000
2010
0000
0000
0000
3001
1000
0000
0010
0000
1000
0001
0000
,  // measure 15
0011
0000
0001
1000
0001
0100
0000
0010
0000
1000
0000
0000
1100
0000
0010
0000
,  // measure 16
0101
0000
0000
1000
0100
0000
0010
0000
0001
0100
0000
0001
0100
0000
0010
0000
,  // measure 17
1000
0000
0001
0000
0010
0000
0001
0000
1000
0000
0000
0010
0100
0000
0000
0001
,  // measure 18
0010
0000
0000
0001
1000
0000
0010
0000
1000
0100
1000
0100
1000
0001
0100
0000
,  // measure 19
0110
0000
0010
1000
0001
1000
0000
0100
0000
0010
0000
0000
0011
0000
0100
0000
,  // measure 20
1010
0000
0001
1000
0010
1000
0001
0000
0100
0010
0000
0100
0010
0000
1000
0000
,  // measure 21
0100
0000
0010
0000
0001
0000
0100
0000
1010
0000
0000
1000
0001
0000
0000
0010
,  // measure 22
0100
0000
1000
0000
0010
0000
0100
0001
1000
0010
1000
0010
1000
0001
0100
0000
,  // measure 23
0010
0000
1000
0001
0100
0000
0100
0000
0010
1000
0001
0000
0010
0000
0010
0000
,  // measure 24
0100
1000
0000
1000
0010
0100
0002
0000
0000
0000
0013
0000
0001
1000
0002
0000
,  // measure 25
0000
0000
0013
0000
0001
1000
0000
0100
0000
0010
0000
0001
0000
1000
0000
0020
,  // measure 26
0100
0000
0000
1030
0001
0000
0010
0000
0001
0000
1100
0000
1001
0000
0201
0000
,  // measure 27
0010
0000
0310
1000
0001
0000
1010
0000
0100
0000
0010
1000
0001
1000
0100
0000
,  // measure 28
1000
0001
0000
1000
0010
0100
0002
0000
0000
0000
0103
0000
0010
1000
0020
0000
,  // measure 29
0100
0000
0000
1030
0001
0010
0001
0200
0000
0000
1000
0000
1300
0000
0001
0010
,  // measure 30
1000
0000
0001
0000
0110
0000
1001
0000
0001
0010
0000
0001
0100
0010
1000
0000
,  // measure 31
1100
0000
0000
0010
0100
0000
0101
0000
0000
1000
0000
0001
1000
0000
0100
0000
,  // measure 32
0010
0000
0000
0001
1000
0000
0010
0000
1000
0001
0010
0001
0100
0010
1000
0000
,  // measure 33
0101
0000
0000
0001
0010
0000
1001
0000
0000
1000
0000
0010
0100
0001
1000
0000
,  // measure 34
1100
0000
0010
0100
0010
0000
1001
0000
0001
1000
0010
0000
0100
0000
0000
0000
,  // measure 35
0110
0000
0000
0101
0000
0000
2010
0000
0002
0000
0000
0000
3003
0000
0010
0100
,  // measure 36
1000
0000
1100
0000
0001
1000
0000
0000
0020
0000
0000
0000
0030
0000
0000
0000
,  // measure 37
1001
0000
0000
1010
0000
0000
0021
0000
0200
0000
0000
0000
0330
0000
1000
0001
,  // measure 38
0100
0101
0000
0000
2000
0001
0000
3100
,  // measure 39
0002
0000
0000
0010
0000
0000
1003
0003
0011
0000
0000
0000
0000
0000
0100
0010
,  // measure 40
1000
0110
0000
0000
2200
0000
0300
0000
,  // measure 41
3010
0000
0000
1000
0000
0000
0001
0000
1001
0000
0000
0000
0000
0000
1000
0001
,  // measure 42
0200
0000
0020
0000
0000
0000
0000
0000
0330
0000
0000
0000
0010
0000
1000
0001
,  // measure 43
0010
0000
0000
0010
0100
0000
1000
0000
0001
0000
0000
0001
0100
0010
0100
0010
,  // measure 44
1000
0001
0010
0000
0100
1000
0001
0000
0010
0000
0001
0000
0100
0000
0010
1000
,  // measure 45
0001
0000
0000
1000
0100
0000
0010
0000
0001
0000
0000
0100
0001
0010
0001
1000
,  // measure 46
0100
0010
0001
0000
0100
0000
0010
0000
1000
0100
0000
1000
0001
0000
0100
0010
,  // measure 47
1000
0000
0000
0001
0010
0000
0001
0000
0100
0000
0000
0010
1000
0000
0001
0010
,  // measure 48
0100
0000
0000
1000
0001
0000
0100
0000
0010
0000
0000
0010
1000
0001
0100
0000
,  // measure 49
0101
0000
0000
0001
0010
0000
1100
0000
0000
0100
1000
0000
0101
0000
0000
0000
,  // measure 50
1010
0000
0000
0001
0100
0000
1001
0000
0000
0010
1000
0000
0110
0000
0000
0000
,  // measure 51
1000
0001
0000
0010
0001
0000
0100
0010
0000
1000
0100
0000
1000
0001
0100
0010
,  // measure 52
1000
0100
0001
1000
0010
0001
1000
0100
0001
1000
0010
0001
0100
0100
0000
0000
;
