#VERSION:0.83;
#TITLE:Station Man;
#SUBTITLE:;
#ARTIST:Fleetwood Mac;
#TITLETRANSLIT:;
#SUBTITLETRANSLIT:;
#ARTISTTRANSLIT:;
#GENRE:;
#ORIGIN:;
#CREDIT:;
#BANNER:Station Man-bn.png;
#BACKGROUND:Station Man-bg.png;
#PREVIEWVID:;
#JACKET:Station Man-jacket.png;
#CDIMAGE:;
#DISCIMAGE:;
#LYRICSPATH:;
#CDTITLE:;
#MUSIC:Station Man.ogg;
#OFFSET:0.000000;
#SAMPLESTART:18.000000;
#SAMPLELENGTH:20.000000;
#SELECTABLE:YES;
#DISPLAYBPM:59.000000:60.000000;
#BPMS:0.000=60.000,
18.000=59.000,
22.000=60.000,
34.000=60.230,
42.000=59.540,
46.000=60.105,
66.000=59.750,
70.000=59.234,
82.000=60.105,
104.000=60.350;
#STOPS:;
#DELAYS:;
#WARPS:;
#TIMESIGNATURES:0.000=4=4;
#TICKCOUNTS:0.000=4;
#COMBOS:0.000=1;
#SPEEDS:0.000=1.000=0.000=0;
#SCROLLS:0.000=1.000;
#FAKES:;
#LABELS:0.000=Song Start;
#BGCHANGES:;
#KEYSOUNDS:;
#ATTACKS:
;

//---------------dance-single - ----------------
#NOTEDATA:;
#CHARTNAME:;
#STEPSTYPE:dance-single;
#DESCRIPTION:;
#CHARTSTYLE:;
#DIFFICULTY:Hard;
#METER:11;
#RADARVALUES:0.424888,0.385296,0.262190,0.114708,0.643184,363.000000,331.000000,32.000000,14.000000,0.000000,0.000000,0.000000,0.000000,0.000000,0.424888,0.385296,0.262190,0.114708,0.643184,363.000000,331.000000,32.000000,14.000000,0.000000,0.000000,0.000000,0.000000,0.000000;
#CREDIT:;
#DISPLAYBPM:59.000000:60.000000;
#NOTES:
0000
0000
0000
0000
,
0000
0000
0000
0000
,
0000
0000
0000
0000
,
0000
0000
0000
0000
,
0001
0100
0010
1000
0000
0100
0100
1000
0001
0000
1001
0100
0010
1000
0001
0000
,
1100
1000
0001
0100
0000
0010
0010
0100
0001
0010
1000
0000
1100
0000
0001
0100
,
0010
1000
0100
0010
0001
0100
0001
1000
0010
0000
0110
1000
0100
0010
0001
0000
,
0101
0010
1000
0100
0000
1000
1000
0001
0100
0010
1000
0010
0110
0000
0100
0100
,
0000
0001
0010
0100
1000
0001
1000
0100
1000
0000
0011
0010
0100
1000
0001
0000
,
0101
1000
0001
0100
0000
0001
0001
0010
0100
1000
0001
0100
0001
0010
0100
1000
,
0000
1000
1000
0100
0010
0001
0100
0001
0100
0000
1001
0010
0100
0001
1000
0000
,
1010
1000
0010
0001
0000
1000
1000
0100
0001
0010
0100
1000
0110
0000
1001
0000
,
1000
1000
0010
0001
1000
0100
0002
0000
1003
0100
0100
0010
0011
0000
0001
0101
,
0000
0001
0010
1000
0001
0100
2000
0000
3010
1000
1000
0100
0110
0000
0001
0101
,
0000
1000
0100
0001
1000
0010
0002
0000
0013
0010
0010
0001
0101
0000
1000
1100
,
0000
0001
0100
1000
0001
0010
2000
0000
3001
0001
0100
0010
1010
0000
1000
1001
,
0000
1000
0100
0001
1000
0010
0001
0000
1001
0000
1000
1000
1000
0100
0010
0001
,
0000
0100
0010
1000
0010
0010
0100
0001
0110
0000
0100
0100
0100
0010
1000
0001
,
0000
0010
0100
1000
0001
0001
0100
1000
1010
0000
0001
0001
0001
0010
0100
1000
,
0000
0001
0010
1000
0100
0100
0010
0001
0101
0000
1000
1000
0010
0010
0100
0002
,
0000
1000
1003
0001
0100
0010
2000
0000
3010
1000
1000
0001
0101
0000
0100
1001
,
0000
1000
1000
0001
0100
0010
0020
0000
1030
0001
1000
0001
0011
0000
1000
0101
,
0000
1000
1000
0010
1000
0001
0002
0000
0103
0100
0100
0010
1010
0000
0001
0011
,
0000
0100
0100
1000
0001
0100
0200
0000
0310
0010
0100
0001
0011
0000
0100
1100
,
0000
1000
1000
0001
0010
0100
0200
0000
1300
0100
0010
0001
1000
0001
0100
0010
,
0000
1000
1000
0100
0001
0001
0002
0000
0013
0001
1000
0100
1000
0010
0100
0001
,
0000
1000
1000
0001
0010
0010
0020
0000
0031
0010
0100
1000
0001
1000
0100
0010
,
0000
0100
0100
1000
0010
0010
0020
0000
0130
0001
0010
0100
1000
0001
1000
0010
,
0000
0010
0010
1000
0001
0001
0002
0000
0013
0000
0000
0000
0000
0000
0000
0000
;

//---------------dance-single - ----------------
#NOTEDATA:;
#CHARTNAME:;
#STEPSTYPE:dance-single;
#DESCRIPTION:;
#CHARTSTYLE:;
#DIFFICULTY:Medium;
#METER:9;
#RADARVALUES:0.338272,0.350269,0.262190,0.098321,0.487509,289.000000,257.000000,32.000000,12.000000,0.000000,0.000000,0.000000,0.000000,0.000000,0.338272,0.350269,0.262190,0.098321,0.487509,289.000000,257.000000,32.000000,12.000000,0.000000,0.000000,0.000000,0.000000,0.000000;
#CREDIT:;
#DISPLAYBPM:59.000000:60.000000;
#NOTES:
0000
0000
0000
0000
,
0000
0000
0000
0000
,
0000
0000
0000
0000
,
0000
0000
0000
0000
,
0001
0100
0010
1000
0000
0100
0010
0000
0001
0000
1000
0010
0000
1000
0100
0000
,
0010
0001
0000
0100
0001
0000
0000
0000
1000
0100
0010
0000
0001
0000
0101
0000
,
1000
0100
0010
0001
0000
0100
0010
0000
1000
0000
0010
1000
0000
0100
1000
0000
,
0001
0100
0000
0001
0010
0000
0000
0000
0001
1000
0100
0000
0010
0000
0110
0000
,
0001
1000
0001
0000
0100
0010
1000
0000
0100
0000
1000
0001
0000
0001
0100
0000
,
0100
0010
0000
0010
1000
0000
0000
0000
0001
0010
0001
0010
0100
0000
0100
0000
,
1000
0001
0010
0001
0000
1000
0100
0000
0010
0000
0001
0100
0000
0100
0010
0000
,
0010
1000
0000
1000
0001
0000
0000
0010
0001
0100
1000
0000
1100
0000
0101
0000
,
1000
0100
1000
0000
0001
0100
0001
0000
1000
0010
0100
0000
0110
0000
0000
1001
,
0000
1000
0100
0000
1000
0001
0100
0000
0010
1000
0001
0000
0011
0000
0000
1100
,
0000
0010
0100
0000
0010
1000
0001
0000
0100
0010
1000
0000
1010
0000
0000
0101
,
0000
0001
1000
0000
0001
0100
1000
0000
0010
0100
0001
0000
0011
0000
0000
1010
,
0000
0100
0001
0000
1000
0001
1000
0000
1001
0000
1000
0100
1000
0001
0000
0020
,
0000
0032
0000
0203
0000
0010
0310
0000
0110
0000
0010
1000
0010
0100
0000
0002
,
0000
2003
0000
3200
0000
1000
1300
0000
1100
0000
0001
0100
0001
1000
0000
0020
,
0000
2030
0000
3002
0000
0100
0103
0000
0101
0000
0001
1000
0100
1000
0000
0020
,
0000
2030
0000
3200
0000
0010
0310
0000
0001
0100
1000
0000
1100
0000
0000
1001
,
0000
0010
1000
0000
0100
0010
0001
0000
1000
0001
0100
0000
0110
0000
0000
1010
,
0000
1000
0001
0000
0010
0100
1000
0000
0010
1000
0001
0000
0101
0000
0000
0011
,
0000
1000
0100
0000
0010
0001
1000
0000
0001
0100
1000
0000
1010
0000
0000
1100
,
0000
0100
0001
0000
0100
0010
1000
0000
0001
1000
0001
1000
0000
1100
0000
0101
,
0000
1000
0001
0100
0001
1000
0100
0000
1000
0001
1000
0001
0000
0011
0000
1100
,
0000
1000
0100
0010
0100
0010
0001
0000
0100
0010
0100
0010
0000
1010
0000
0011
,
0000
0001
0010
0001
1000
0010
1000
0000
0010
0100
0010
0100
0000
0101
0000
1010
,
0000
1000
0010
0100
0001
0010
0100
0000
0010
0000
0000
0000
0000
0000
0000
0000
;

//---------------dance-single - ----------------
#NOTEDATA:;
#CHARTNAME:;
#STEPSTYPE:dance-single;
#DESCRIPTION:;
#CHARTSTYLE:;
#DIFFICULTY:Easy;
#METER:7;
#RADARVALUES:0.248144,0.280215,0.163869,0.229416,0.139288,212.000000,192.000000,20.000000,28.000000,0.000000,0.000000,0.000000,0.000000,0.000000,0.248144,0.280215,0.163869,0.229416,0.139288,212.000000,192.000000,20.000000,28.000000,0.000000,0.000000,0.000000,0.000000,0.000000;
#CREDIT:;
#DISPLAYBPM:59.000000:60.000000;
#NOTES:
0000
0000
0000
0000
,
0000
0000
0000
0000
,
0000
0000
0000
0000
,
0000
0000
0000
0000
,
0001
0000
1000
0100
0000
1000
0100
0000
0010
0000
0002
0000
0000
2003
0000
0000
,
3020
1000
0000
0230
0000
0000
0000
0000
0301
0000
0100
0000
0010
0000
1000
0000
,
0001
0000
0010
0000
0100
0000
1000
0000
0001
0000
0200
0000
0000
0320
0000
0000
,
2030
0010
0000
3002
0000
0000
0000
0000
0103
0000
0010
0000
1000
0000
0001
0000
,
0010
0000
0001
0000
1000
0000
0100
0000
1000
0000
0002
0000
0000
0203
0000
0000
,
0320
0100
0000
2030
0000
0000
0000
0000
3010
0000
1000
0000
0100
0000
0010
0000
,
0001
0000
0100
0000
0001
0000
1000
0000
0010
0000
2000
0000
0000
3200
0000
0000
,
0320
0100
0000
0032
0000
0000
0000
0000
1003
0000
0001
0000
0100
0000
0010
0000
,
1000
0100
1000
0000
0001
0100
0001
0000
0010
0000
0010
0000
1001
0000
0100
0000
,
1001
0001
0100
1000
0010
0010
0110
0100
,
0110
0001
0100
1000
0001
0001
0101
0100
,
0101
1000
0100
0010
0001
0001
1100
1000
,
1100
0000
0001
0000
0100
0000
0010
0000
1000
0000
0001
0000
0100
0000
0000
0002
,
0000
2003
0000
3200
0000
0000
0000
0000
0310
0000
0001
0000
0100
0000
0000
0020
,
0000
2030
0000
3200
0000
0000
0000
0000
1300
0000
0100
0000
0010
0000
0000
0200
,
0000
0320
0000
0032
0000
0000
0000
0000
0013
0000
0001
0000
1000
0000
0000
0002
,
0000
0000
2003
3020
0130
0100
0110
0001
,
0101
1000
0100
0010
0001
0001
1001
1000
,
1100
0010
0100
0001
1000
1000
1100
0010
,
0110
0100
0001
1000
0010
0010
1001
1000
,
0101
0000
0010
0000
0100
0000
0001
0000
1000
0100
1000
0000
0001
0000
0101
0000
,
1000
0000
0100
0000
0010
0001
1000
0000
0001
0100
0001
0000
1000
0000
1100
0000
,
0010
0000
0100
0000
0001
1000
0100
0000
1000
0010
1000
0000
0001
0000
0110
0000
,
1000
0000
0010
0000
0100
0001
1000
0000
0001
0010
0001
0000
1000
0000
1001
0000
,
0010
0000
1000
0000
0001
0010
0100
0000
0010
0000
0000
0000
0000
0000
0000
0000
;

//---------------dance-single - ----------------
#NOTEDATA:;
#CHARTNAME:;
#STEPSTYPE:dance-single;
#DESCRIPTION:;
#CHARTSTYLE:;
#DIFFICULTY:Beginner;
#METER:4;
#RADARVALUES:0.131095,0.151783,0.000000,0.000000,0.032774,112.000000,112.000000,0.000000,0.000000,0.000000,0.000000,0.000000,0.000000,0.000000,0.131095,0.151783,0.000000,0.000000,0.032774,112.000000,112.000000,0.000000,0.000000,0.000000,0.000000,0.000000,0.000000,0.000000;
#CREDIT:;
#DISPLAYBPM:59.000000:60.000000;
#NOTES:
// measure 0
0000
0000
0000
0000
,  // measure 1
0000
0000
0000
0000
,  // measure 2
0000
0000
0000
0000
,  // measure 3
0000
0000
0000
0000
,  // measure 4
0001
0000
0000
0000
1000
0000
0000
0000
0000
0000
0010
0000
0000
0100
0000
0000
,  // measure 5
0001
0000
0000
1000
0000
0000
0000
0000
0001
0000
0000
0000
0001
0000
0000
0000
,  // measure 6
1000
0000
0000
0000
1000
0000
0000
0000
0000
0000
0001
0000
0000
0010
0000
0000
,  // measure 7
0100
0000
0000
1000
0000
0000
0000
0000
0010
0000
0000
0000
0010
0000
0000
0000
,  // measure 8
0100
0000
0000
0000
0100
0000
0000
0000
0000
0000
0100
0000
0000
1000
0000
0000
,  // measure 9
0010
0000
0000
0001
0000
0000
0000
0000
1000
0000
0000
0000
1000
0000
0000
0000
,  // measure 10
0001
0000
0000
0000
0001
0000
0000
0000
0000
0000
1000
0000
0000
0100
0000
0000
,  // measure 11
0010
0000
0000
0001
0000
0000
0000
0000
0100
0000
0000
0000
0100
0000
0000
0000
,  // measure 12
0010
0010
0010
0000
1000
0100
1000
0000
,  // measure 13
0001
0000
0001
0000
0001
0010
0001
0000
,  // measure 14
1000
0000
1000
0000
0010
1000
0010
0000
,  // measure 15
1000
0000
0001
0000
0100
0001
0100
0000
,  // measure 16
0001
1000
0010
0100
,  // measure 17
0001
0000
0001
0100
,  // measure 18
0010
0000
1000
0100
,  // measure 19
1000
0000
0010
1000
,  // measure 20
0001
0000
0000
0000
0010
0010
0001
0000
,  // measure 21
1000
0000
0100
0000
1000
1000
0010
0000
,  // measure 22
0100
0000
0001
0000
0100
0100
0010
0000
,  // measure 23
0001
0000
1000
0000
0001
0001
1000
0000
,  // measure 24
0010
0000
0100
0000
0001
0001
1000
0000
,  // measure 25
0100
0010
0001
0000
0010
0010
0001
0000
,  // measure 26
0100
0001
1000
0000
0100
0100
0010
0000
,  // measure 27
0001
1000
0100
0000
1000
1000
0001
0000
,  // measure 28
0010
0001
0100
0000
0010
0000
0000
0000
;
