#TITLE:Starlight;
#ARTIST:Muse;
#BANNER:Starlight-bn.png;
#BACKGROUND:Starlight-bg.png;
#JACKET:Starlight-jacket.png;
#MUSIC:Starlight.ogg;
#SAMPLESTART:79.002;
#SAMPLELENGTH:20;
#DISPLAYBPM:120:124;
#BPMS:0=121.401,24=121.667,32=121.534,40=121,50=122,62=121.121,72=122.5,76=121.132,85=121.74,117=121.134,121=123,125=121.02,144=122.222,156=120,164=121.375,176=122.37,182=121.625,190=120.875,200=122.83,204=121.972,208=124,216=123.45,221=121.4;
#BGCHANGES:;

//---------------dance-single - ----------------
#NOTES:
     dance-single:
     :
     Beginner:
     1:
     :
0000
0000
0000
0000
,
0000
0000
0000
0000
,
0000
0000
0000
0000
,
0000
0000
0000
0000
,
0001
0000
0001
0000
,
1000
0000
1000
0000
,
0010
0000
0010
0000
,
0100
0000
0100
0000
,
0001
0000
2000
0000
,
3000
0000
0100
0000
,
1000
0000
0002
0000
,
0003
0000
0010
0000
,
0001
0000
0200
0000
,
0300
0000
0010
0000
,
1000
0000
0001
0000
,
2002
0000
3003
0000
,
0010
0000
2000
0000
,
3000
0000
0001
0000
,
1000
0000
0200
0000
,
0300
0000
0010
0000
,
0001
0000
0200
0000
,
0300
0000
0001
0000
,
0010
0000
0100
0000
,
0220
0000
0330
0000
,
1001
0000
0000
0000
,
0001
0000
0000
0000
,
1000
0000
0000
0000
,
0010
0000
0000
0000
,
1000
0000
0000
0000
,
0100
0000
0000
0000
,
0010
0000
0000
0000
,
0001
0000
0000
0000
,
0100
0000
0000
0000
,
0010
0000
0000
0000
,
2000
0000
3000
0000
,
0002
0000
0003
0000
,
0010
0000
0100
0000
,
0001
0000
1000
0000
,
0020
0000
0030
0000
,
0200
0000
0300
0000
,
0220
0000
0000
0000
,
0330
0000
0001
0000
,
1000
0000
0200
0000
,
0300
0000
1000
0000
,
0002
0000
0000
0000
,
0003
0000
0100
0000
,
0010
0000
2000
0000
,
3000
0000
0000
0000
,
2002
0000
0000
0000
,
3003
0000
1000
0000
,
0010
0000
0200
0000
,
0300
0000
0001
0000
,
2000
0000
0000
0000
,
3000
0000
0010
0000
,
0100
0000
0010
0000
,
0000
0000
0100
0000
,
0220
0000
0000
0000
,
0000
0000
0000
0330
;

//---------------dance-single - ----------------
#NOTES:
     dance-single:
     :
     Easy:
     6:
     :
0000
0000
0000
0000
,
0000
0000
0000
0000
,
0000
0000
0000
0000
,
0000
0000
0000
0000
,
0001
0100
0001
0100
,
0010
1000
0010
1000
,
0001
0010
0001
0010
,
0100
1000
0100
1000
,
0202
0303
2020
0000
,
3030
0001
0100
1000
,
2200
3300
0022
0000
,
0033
1000
0001
0100
,
2002
3003
0220
0000
,
0330
0010
1000
0100
,
1000
0010
1000
0100
,
0020
0001
0000
1030
,
0022
0033
2020
0000
,
3030
1000
0100
0001
,
0202
0303
2200
0000
,
3300
0010
1000
0001
,
0220
0330
2002
0000
,
3003
1000
0100
0001
,
0010
0010
0001
1000
,
0200
0010
0000
1300
,
2002
0003
0020
0030
,
0100
0001
0001
3001
,
2200
0000
0300
3001
,
0022
0000
0000
0033
,
0220
0300
0002
0003
,
1000
0100
0001
0130
,
0202
0000
0003
0310
,
2020
0000
0000
3030
,
2000
0000
0002
3000
,
1003
0100
0010
0001
,
0200
0010
0010
0310
,
0020
0100
0100
0130
,
0001
0001
0001
0001
,
1000
1000
1000
1000
,
0001
0010
0100
1000
,
0010
0100
0001
1000
,
0210
0001
0010
0001
,
0310
1000
0100
0001
,
0202
0303
2200
3300
,
0001
0100
0010
1000
,
2001
0010
0100
0010
,
3100
1000
0001
0100
,
2020
3030
0022
0033
,
1000
0001
1000
0100
,
2100
0001
0010
0100
,
3010
1000
0001
0100
,
2010
0100
0010
0100
,
3001
0010
1000
0100
,
1002
0010
1000
0100
,
1003
0010
0100
0001
,
0202
0303
0022
0033
,
1000
0001
0100
0010
,
0220
0000
0000
0000
,
0000
0000
0000
0330
;

//---------------dance-single - ----------------
#NOTES:
     dance-single:
     :
     Medium:
     9:
     :
0000
0000
0000
0000
,
0000
0000
0000
0000
,
0000
0000
0000
0000
,
0000
0000
0000
0000
,
0001
0000
0100
0000
0001
0000
0100
0010
,
0000
1000
0000
0010
0000
1000
0100
0010
,
0001
0000
0100
0000
0001
0000
0100
0010
,
0000
1000
0000
0010
0000
1000
0100
0010
,
0002
0000
0103
0010
2000
0000
3000
0000
,
0000
0100
1000
0010
1000
0100
1000
0000
,
0020
0000
1030
0001
0200
0000
0300
0000
,
0000
0110
0000
0100
0001
0010
0001
0000
,
0200
0000
0310
1000
0002
0000
0003
0000
,
0000
1001
0000
1000
0100
0010
0001
0000
,
0101
0000
0100
0010
1000
0001
0000
0200
,
0000
0000
0310
0000
0000
1000
0001
1000
,
0020
0000
1030
0000
0002
0000
0103
0010
,
0000
1000
0100
1000
0001
0100
0001
0000
,
2010
0000
3100
0000
0012
0000
1003
0001
,
0000
0010
1000
0010
1000
0100
0010
0001
,
0200
0000
0310
1000
0002
0000
1003
0001
,
0000
0000
1100
0000
0000
0000
0001
0000
1000
0000
0010
0000
0000
0100
0000
0000
,
0001
0000
0001
0010
0001
1000
0000
0200
,
0000
0000
0310
0000
0000
1000
0001
0000
,
2002
0000
0003
0000
0020
0000
0030
0200
,
3000
1000
0001
1300
,
2200
0000
0000
0300
0000
3001
0100
0001
,
0000
0022
0000
0000
0000
0000
0030
0000
,
2000
0000
0003
0000
0200
0000
0300
0020
,
3000
0000
0130
0000
1000
0001
0000
0202
,
0000
0000
0000
0300
0000
1003
0001
1000
,
0000
2020
0000
0000
0000
0000
0030
0000
,
0002
0000
3003
1000
0010
0100
0010
2000
,
0000
3002
0023
0230
,
1300
0010
1000
0010
1000
0010
1000
0010
,
0100
0000
0001
1000
0001
0100
0010
0000
,
1000
0100
1000
0100
0010
0001
0010
0001
,
0200
0000
0320
0000
1030
0010
0100
0001
,
0010
0100
0010
0000
0001
1000
0001
0000
,
1000
0100
0010
0001
0010
0100
1000
0000
,
0120
0000
0001
0000
1000
0000
0031
0100
,
0000
0020
0000
2030
0000
3100
1000
0001
,
0200
0000
0010
0000
0302
0000
1003
0001
,
0000
0000
0020
0000
0000
0000
0031
0000
0100
0000
0000
0010
0000
0000
1000
0000
,
0000
0000
2200
0000
0000
0300
0000
0000
0001
0000
0000
0000
3100
0000
0010
0000
,
0000
0002
0000
2003
0000
3010
1000
0001
,
0020
0000
1000
0000
0032
0000
0103
0010
,
0000
1010
0000
1001
0000
1000
0001
0100
,
0201
0000
0010
0000
1000
0000
0301
0100
,
0000
0002
0000
0023
0000
0230
0000
2300
,
0010
0000
0001
0000
3200
0000
1300
0001
,
0000
0000
0200
0000
0000
0000
0310
0000
0100
0000
0000
0001
0000
0000
1000
0000
,
0000
0000
0022
0000
0000
0030
0000
0000
0100
0000
0000
0000
1003
0000
0010
0000
,
0000
0200
0000
0302
0000
0023
0000
0031
,
2000
0000
3001
0000
0020
0000
0130
0001
,
0000
0000
2000
0000
0000
0000
3001
0000
1000
0000
0000
0010
0000
0000
0100
0000
,
0220
0000
0000
0000
,
0000
0000
0000
0330
;

//---------------dance-single - ----------------
#NOTES:
     dance-single:
     :
     Hard:
     11:
     :
0000
0000
0000
0000
,
0000
0000
0000
0000
,
0000
0000
0000
0000
,
0000
0000
0000
0000
,
0001
0000
0100
0000
0001
0000
0100
0010
,
0000
1000
0000
0100
0000
1000
0010
0100
,
0001
0000
0010
0000
0001
0000
1000
0100
,
0000
1000
0000
0010
0000
0100
0001
1000
,
2010
0000
3010
0100
0201
0000
0301
0001
,
0010
1000
0010
0001
0100
0010
1000
0000
,
2100
0000
3001
0010
0012
0000
1003
0100
,
1000
0020
0000
0100
0130
0010
1000
0001
,
0102
0000
0013
0100
1200
0000
1300
1000
,
0010
0001
0010
1000
0100
0010
0001
0000
,
2000
0010
3010
0100
0001
1000
0001
0100
,
0010
1000
0100
0010
0000
0001
0001
1000
,
2001
0000
3010
0100
0210
0000
0301
0001
,
0010
1000
0010
0100
1000
0001
0100
0000
,
0210
0000
0301
1000
1002
0000
0103
0010
,
1000
0100
1000
0010
0100
1000
0100
0001
,
0201
0000
0310
1000
0100
0001
0100
1000
,
0001
0000
2100
0000
0000
0000
0010
0000
3010
0000
1000
0000
0000
0100
0000
0000
,
0001
0100
1000
0100
0010
0001
0010
1000
,
0001
0100
0010
0000
1000
0001
0001
0100
,
2002
0000
0003
0000
3010
0100
0000
0002
,
0000
1003
0100
1000
,
1100
0001
0100
0000
0000
0010
1000
0001
,
0010
0100
1000
0010
1000
0100
0001
0000
,
0010
0001
1000
0000
0101
0100
0000
0020
,
0000
0000
1030
0000
0001
1000
0000
2020
,
0000
0000
3000
0000
1030
0100
1000
0001
,
0100
0000
0010
1000
0100
1000
0100
0010
,
0001
0100
1000
0100
0001
0010
0100
2000
,
0001
0100
0001
3010
,
0011
0001
1000
0010
1000
0100
0001
0100
,
1000
0010
0100
0010
1000
0100
0010
0001
,
0100
0010
0100
0010
1000
0001
1000
0001
,
1000
0100
0010
0001
0010
0100
1000
0010
,
0100
0100
0010
0010
1000
1000
0001
0001
,
1000
1000
0100
0100
0001
0001
0010
0010
,
0120
0000
0001
0000
1000
0000
0031
0100
,
0010
1000
0100
0001
0100
0010
0100
0001
,
0100
0000
1000
0010
1000
0100
0010
0001
,
0100
0000
0020
0000
0000
0000
1000
0000
1030
0000
0000
0001
0000
0000
0100
0000
,
0002
0000
0010
0000
1000
0000
0013
0100
,
0001
0100
0010
0100
1000
0010
0001
0010
,
1000
0000
0100
1000
0001
1000
0010
0100
,
0000
0001
0000
0010
0000
0001
0001
1000
,
1002
0000
0023
0000
0031
1000
0001
0100
,
0010
0100
1000
0100
0001
0010
1000
0010
,
0021
0000
0230
0000
1300
0010
0100
0001
,
0010
0000
1000
0000
0010
0000
0001
0000
0100
0000
0000
0010
0000
0000
1000
0000
,
1100
0000
0101
0000
1000
0010
0100
0001
,
0010
1000
0010
0001
0100
1000
0100
0001
,
1000
0000
1010
0001
1000
0100
0010
0001
,
0100
0000
0020
0000
0000
0000
1000
0000
1030
0000
0000
0001
0000
0000
0010
0000
,
0220
0000
0000
0000
,
0000
0000
0000
0330
;
