#TITLE:Stand Off;
#ARTIST:Evin a'k;
#BANNER:Stand Off-bn.png;
#BACKGROUND:Stand Off-bg.png;
#JACKET:Stand Off-jacket.png;
#MUSIC:Stand Off.ogg;
#OFFSET:0.025;
#SAMPLESTART:73.7;
#SAMPLELENGTH:20;
#DISPLAYBPM:192;
#BPMS:0=192;
#BGCHANGES:;

//---------------dance-single - ----------------
#NOTES:
     dance-single:
     :
     Beginner:
     4:
     :
0000
0000
0000
0000
,
0000
0000
0000
0000
,
0000
0000
0000
0000
,
0000
0000
0000
0000
,
0000
0000
0000
0000
,
0000
0000
0000
0000
,
0000
0000
0000
0000
,
0000
0000
0000
0000
,
0000
0000
0000
0000
,
0010
0000
0000
0000
,
0000
0000
0000
0000
,
0001
0000
0000
0000
,
0000
0000
0000
0000
,
0100
0000
0000
0000
,
0000
0000
0000
0000
,
1000
0000
0000
0000
,
0010
0010
0010
0010
,
0010
0000
0000
0100
,
0000
0000
0000
0000
,
0001
0000
0000
1000
,
0000
0000
0100
0100
,
0100
0000
0010
0000
,
0001
0000
1000
0000
,
0020
0000
0000
0000
,
0000
0000
0030
0000
,
0110
0000
0000
0001
,
0001
0001
0001
0000
,
1001
0000
0000
0010
,
0010
0000
1000
0000
,
0001
0000
0100
0000
,
0010
0010
0010
0000
,
1000
1000
0000
0001
,
0001
0001
0001
0000
,
0010
0000
0001
0000
,
0100
0000
1000
0000
,
0010
0000
1000
0000
,
0100
0000
0001
0000
,
0010
0000
0100
0000
,
1000
0000
0001
0000
,
1000
0000
0001
0000
,
0100
0000
0010
0000
,
0200
0000
0000
0000
,
0000
0000
0000
0000
,
0300
0000
0000
0000
,
0000
0000
0000
0000
,
0010
0000
0000
0000
,
1000
0000
0000
0000
,
0001
0000
0000
0000
,
0100
0000
0000
0000
,
0001
0000
0001
0000
,
1000
0000
0010
0000
,
1000
0000
0100
0000
,
0010
0000
0001
0000
,
0100
0000
0010
0000
,
1000
1000
1000
0000
,
0001
0000
0010
0000
,
0001
0000
1000
0000
,
0100
0000
0000
0000
,
0110
0000
1001
0000
,
0001
0000
0010
0000
,
0100
0000
1000
0000
,
0010
0010
0010
0000
,
1000
0000
0001
0000
,
0100
0100
0000
0010
,
0000
1000
0000
0001
,
0001
0001
0000
0000
,
0010
0000
0100
0000
,
1000
1000
1000
0000
,
0010
0000
0100
0000
,
0010
0010
0010
0000
,
0100
0000
0001
0000
,
0010
0010
0000
0001
,
0000
0100
0100
0000
,
1000
0000
0001
0000
,
0010
0000
0100
0000
,
0110
0000
0000
0000
,
0001
0000
1000
0000
,
0100
0100
0000
1000
,
1000
0000
0010
0000
,
0100
0000
0001
0000
,
0010
0010
0010
0000
,
0001
0000
0000
1000
,
1000
1000
1000
0000
,
0010
0000
1000
0000
,
0100
0000
0001
0000
,
0010
0000
0001
0000
,
0100
0000
1000
0000
,
0010
0000
0100
0000
,
0001
0000
1000
0000
,
0010
0000
1000
0000
,
0001
0000
0100
0100
,
0000
0000
1001
0000
;

//---------------dance-single - ----------------
#NOTES:
     dance-single:
     :
     Easy:
     8:
     :
0000
0000
0000
0000
,
0000
0000
0000
0000
,
0000
0000
0000
0000
,
0000
0000
0000
0000
,
0000
0000
0000
0000
,
0000
0000
0000
0000
,
0000
0000
0000
0000
,
0000
0000
0000
0000
,
0000
0000
0000
0000
,
0010
0001
0100
0010
,
1000
0100
1000
0001
,
0010
0001
0100
0010
,
1000
0100
1000
0010
,
0100
0001
0010
0100
,
1000
0010
1000
0001
,
0010
0001
0100
1000
,
0010
0100
1001
0110
,
0001
0000
0000
0010
0000
0000
0001
0000
,
0000
1000
0001
0100
,
0010
0000
0000
1000
0000
0000
0100
0010
,
0000
0001
0000
0000
1000
0000
0001
0000
,
0100
0001
0010
0100
,
1000
0010
1000
0001
,
0200
0000
0000
0000
,
0000
0000
0000
0300
,
0110
0010
1000
0001
,
0010
0001
0100
0010
,
1000
0100
1000
0001
,
0010
0001
0100
1000
,
0010
0000
0000
1000
0001
0000
0000
0010
,
0000
0001
0000
0100
0000
0010
1000
0001
,
0100
0000
0010
0000
0000
1010
0000
0101
,
0000
0001
0000
1000
0000
1100
0000
0000
,
0010
0001
0010
0100
,
1000
0001
0010
0100
,
1000
0010
1000
0001
,
0010
0001
0100
0001
,
0010
0100
1000
0010
,
1000
0100
0010
0001
,
0010
0001
0100
0010
,
1000
0100
1000
0001
,
0200
0000
0000
0000
,
0000
0000
0000
0000
,
0300
0000
0000
0000
,
0000
0000
0000
0000
,
0010
0000
1000
0001
0000
0000
0000
0000
,
0000
0000
0000
0000
,
0010
0000
0000
0001
0000
0000
0100
0000
,
0010
0000
0000
1000
0000
0000
0100
0000
,
1001
0000
0000
0110
0000
0000
1000
0001
,
0000
0010
0000
0001
0000
0100
0000
0010
,
1000
0000
0000
0100
0000
1000
0000
0001
,
0000
0010
0001
0000
0100
0000
1000
0000
,
0010
1000
0100
0010
,
0001
0100
0001
0010
,
0100
1000
0010
0001
,
0200
0000
0000
0020
0000
0000
0330
0000
,
0200
0000
0000
0000
,
0301
0000
0010
0000
0001
1000
0100
0000
,
0011
0000
0000
1100
0000
0000
0010
0100
,
0000
0001
0000
0010
0000
0100
0000
1000
,
0001
0010
0001
0100
,
1000
0010
1000
0001
,
0010
0100
0010
0001
,
0100
1000
0010
0001
,
1000
0001
0010
0100
,
2000
0000
0000
3002
0000
0000
0203
0000
,
0310
1010
0001
0100
,
0001
0010
0001
1000
,
0101
0010
1000
0100
,
1000
0001
0010
0100
,
1000
0010
1000
0001
,
0010
0001
0100
0010
,
1010
1010
0011
0011
,
2000
0000
0000
0002
0000
0000
3003
0000
,
0220
0000
0000
0300
0000
1000
0000
0031
,
0000
0011
0001
0100
,
1000
0010
1000
0000
0000
0001
0000
1000
,
0000
0100
0000
0010
0000
0001
0000
0100
,
0010
0000
0000
1000
0001
0000
0000
0010
,
0000
0001
0000
1000
0000
0001
0100
0010
,
1000
0000
0000
1100
0000
1001
0000
0101
,
0000
0001
0000
1000
0000
0010
0000
1000
,
0001
0010
0001
0100
,
1000
0001
0010
0100
,
0010
0001
0100
0010
,
1000
0100
1000
0001
,
0010
0001
0100
0001
,
0010
0100
1000
0010
,
1000
0010
1000
0001
,
1000
0000
0100
0000
0001
0010
0100
2000
,
0000
3000
2002
0000
,
0000
0000
0000
0000
,
0000
0000
0000
0000
,
0000
0000
0000
0000
,
3003
0000
0000
0000
;

//---------------dance-single - ----------------
#NOTES:
     dance-single:
     :
     Medium:
     13:
     :
0000
0000
0000
0000
,
0000
0000
0000
0000
,
0000
0000
0000
0000
,
0000
0000
0000
0000
,
0000
0000
0000
0000
,
0000
0000
0000
0000
,
0000
0000
0000
0000
,
0000
0000
0000
0000
,
0000
0000
0000
0000
,
0010
0000
0001
0000
1000
0000
0000
0010
,
0000
0000
1000
0000
0001
0000
0000
0000
0100
0000
0000
0000
0000
0000
0001
1000
,
0001
0100
0010
0000
1000
0000
0000
0100
,
0010
0000
0001
0000
0000
1000
0000
0001
,
0100
0000
0010
0000
1000
0000
0000
0001
,
0000
0010
0001
0000
0100
0000
0000
0010
,
0000
1000
0001
0000
0010
0000
0000
0001
,
0100
0000
0000
0000
0001
1000
0001
0000
0100
0000
0000
0000
0100
0000
0000
0000
,
0010
1000
0010
0100
0000
0001
1000
0001
,
0000
0010
0001
0000
1000
0010
0100
0000
,
0001
0010
0001
1000
0000
0010
1000
0100
,
0000
1100
0000
0000
0002
0000
0203
0000
,
0310
1000
0100
0000
0010
0001
0100
0000
,
0001
0010
0100
1000
0010
0100
0001
1000
,
0200
0000
0000
0000
,
0000
0000
0000
0000
,
0310
0001
0100
0010
0000
1010
0000
0101
,
0000
0000
0011
0000
0000
0000
1001
0000
0000
0000
0110
0000
0000
0000
0001
0100
,
0001
0000
0010
0000
0001
1000
0010
0100
,
0000
0002
0000
0023
0000
0230
0000
1300
,
0020
0000
0000
0000
0030
0000
1000
0001
2000
0000
0000
0000
3000
0000
1100
0000
,
0000
0000
0110
0000
0000
0000
0011
0000
0000
0000
0010
0000
0001
1000
0001
1000
,
0001
0010
0200
0000
1300
1010
0000
1001
,
0000
0000
0101
0000
0000
0100
0010
0000
0000
1000
0001
0000
0010
0000
0100
0000
,
1000
0010
1000
0001
0000
0011
0000
1100
,
0000
0000
0010
0000
1000
0000
0100
0000
0000
0000
0010
0000
0001
0000
0100
0010
,
0100
0001
0010
0001
0000
0010
0100
1000
,
0000
0020
0000
2030
0000
3002
0000
1003
,
0100
0000
0010
0000
0001
0000
1000
0010
1000
0000
0100
0000
1000
0000
0001
0000
,
0000
0000
1001
0000
0000
0000
0110
0000
0000
0000
0001
0000
1000
0100
1000
0100
,
1000
0010
0100
0001
1000
0100
0010
0001
,
0000
0010
0001
0100
0000
0010
1000
0001
,
0200
0000
0000
0000
,
0320
0000
0000
0000
,
2030
0000
0000
0000
,
3000
0000
0000
0000
,
0001
0000
1000
0020
0000
0000
0000
0000
,
0000
0000
0000
0000
0130
0000
0001
1000
,
0001
0000
0010
0100
0000
0100
1000
0000
,
0010
0000
1000
0001
0000
0001
0100
0010
,
1000
0000
0000
0000
0000
0000
1001
0000
0000
0000
0000
0000
0001
0100
0001
0000
,
0000
0000
0010
0000
0000
0010
0000
0000
0010
0000
0000
0010
0000
0000
0010
0000
,
0001
0000
0000
0000
0000
0000
0110
0000
0000
0000
0000
0000
1000
0010
1000
0000
,
0000
0000
0100
0000
1000
0000
0001
0000
0100
0000
0000
0010
0000
0000
1000
0000
,
0001
0000
0010
0000
0001
0000
1000
0000
0000
0000
0100
0010
0100
0000
1000
0000
,
0000
0000
0001
1000
0002
0000
0000
0000
0013
0000
0000
0010
0000
0000
0010
0000
,
0001
0000
0000
0100
0000
0000
0001
0000
0010
0000
0000
0100
0000
0000
1000
0000
,
0002
0000
0000
2003
0000
0000
3010
1000
,
0200
0000
0000
0000
,
1300
0010
0100
0001
0010
0100
1000
0000
,
1100
0000
0000
0000
0000
0000
0011
0000
0000
0000
0000
0000
0100
0010
0100
0000
,
0000
0000
0001
0000
0000
1000
0000
0000
0010
0000
0000
1000
0000
0000
0001
0000
,
0100
0000
0010
0000
1000
0000
0000
0001
1000
0000
0100
0000
0010
0000
0001
0000
,
0000
0000
0100
0000
0001
0000
0010
0000
0001
0000
0000
1000
0000
0000
0100
0000
,
1000
0010
1000
0001
0000
0010
0001
0100
,
0000
0001
0010
1000
0000
0100
0010
0001
,
0100
0000
0010
0000
1000
0002
2000
0000
0000
0000
0000
0000
3003
0000
0000
0000
,
1010
0000
0000
0000
0000
0000
0101
0000
0000
0000
0000
0000
0010
0001
0010
0001
,
0010
0000
0100
0000
1000
0000
0010
0000
0000
0000
0100
0000
0000
0001
0000
0000
,
0010
0001
0010
0100
1000
0010
1000
0001
,
0100
0000
0000
0000
0010
0000
1000
0000
0000
0000
0001
0000
0000
1000
0000
0000
,
0100
0000
0010
0000
0001
0000
1000
0000
0010
0000
0000
0100
0000
0000
0001
0000
,
1000
0100
1000
0001
0000
0010
0001
0100
,
0000
0000
0001
1000
0002
0000
0000
0000
0103
0000
0000
0010
0000
0000
1000
0000
,
0100
0000
0000
1000
0000
0000
0001
0000
0010
0000
0000
0001
0000
0000
0100
0000
,
0020
0000
0000
2030
0000
0000
3001
0000
,
0110
0010
0100
0001
0000
0011
0000
1100
,
0000
0000
0000
0000
0001
0000
0100
0010
0100
0000
0000
0000
0001
0000
1000
0100
,
1000
0010
0200
0000
0300
0001
1000
0001
,
0000
0011
0000
1001
0000
1010
0000
0001
,
0100
0000
0010
0000
0100
0000
0001
1000
0001
0000
0010
0000
0100
0000
2000
0000
,
0000
3020
0000
2030
0000
3100
0010
0001
,
0100
0010
1000
0001
0000
1100
0000
0101
,
0000
0010
0001
0100
0010
1000
0001
1000
,
0100
0010
0001
0100
0000
0110
0000
1001
,
0000
0000
1000
0000
0000
0000
0001
0000
0000
0000
0010
0000
0001
0100
0001
0100
,
0001
0010
0100
1000
0000
1010
0000
1001
,
0000
0000
1100
0000
0000
0000
0110
0000
0000
0000
0011
0000
0000
0000
0100
0001
,
0100
0000
0010
0000
1000
0000
0001
0100
0001
0000
0010
0000
0100
0000
2000
0000
,
0000
0000
3020
0000
0000
0000
0230
0000
0000
0000
0301
0000
0010
0000
0001
1000
,
0001
0100
0010
0100
0001
0010
0100
1000
,
0010
1000
0001
1000
0100
0010
0001
0200
,
0000
0300
2002
0000
,
0000
0000
0000
0000
,
0000
0000
0000
0000
,
0000
0000
0000
0000
,
3003
0000
0000
0000
;

//---------------dance-single - ----------------
#NOTES:
     dance-single:
     :
     Hard:
     16:
     :
0000
0000
0000
0000
,
0000
0000
0000
0000
,
0000
0000
0000
0000
,
0000
0000
0000
0000
,
0000
0000
0000
0000
,
0000
0000
0000
0000
,
0000
0000
0000
0000
,
0000
0000
0000
0000
,
0000
0000
0000
0000
,
0010
0001
0100
0010
0000
1000
0001
1000
,
0100
0001
0100
0010
0001
0100
1000
0100
,
0001
0010
0001
1000
0000
0100
0010
0001
,
0100
0000
0010
1000
0010
0100
0001
1000
,
0100
0010
0001
0100
1000
0100
0010
0100
,
0001
0010
1000
0010
0100
0010
1000
0010
,
0100
0001
0100
0010
0001
0100
0010
1000
,
0001
0000
0000
0000
1000
0100
1000
0000
1100
0000
0000
0000
0101
0000
0000
0000
,
0010
0010
0001
0100
0000
1000
1000
1000
,
0000
0000
0010
0000
0100
0000
0001
1000
0000
0001
1000
0000
0100
0000
0010
0000
,
0001
0001
1000
0010
0000
0100
0100
0100
,
0000
0010
1000
0001
0200
0000
0320
0000
,
1030
1000
0100
0010
0010
0000
0001
0001
,
1000
0010
1000
0010
0100
0001
0100
0001
1000
0010
1000
0010
0100
0001
0100
0001
,
0020
0000
0000
0000
,
0000
0000
0000
0000
,
0031
0100
1000
0100
0010
0100
0001
0010
,
0100
0000
0001
0000
0100
0000
0010
0000
0100
0000
1000
0010
1000
0000
0001
0000
,
0100
0010
0001
0010
1000
0001
1000
0100
,
0001
0100
0010
0100
0001
0100
1000
0001
,
0100
0000
0010
0000
1000
0000
0001
0100
0001
0000
0010
0000
0100
0000
1000
0000
,
0010
0000
0100
0000
0010
0000
0001
0000
0010
0000
0100
0001
0010
0100
1000
0000
,
0010
1000
0100
0010
0001
1010
0000
0101
,
0000
0000
1000
0010
0000
0100
0001
0000
0010
0001
1000
0001
0100
0000
0010
0000
,
1000
0100
0001
0100
0010
0100
0001
0100
,
0010
0000
1000
0000
0010
0000
0100
0000
0010
0000
0001
0000
0100
0000
0010
1000
,
0001
0010
1000
0010
0100
0001
0100
0010
,
0100
0000
1000
0000
0010
0000
0001
0000
0010
0000
1000
0000
0100
0000
0010
0001
,
0100
0000
0010
0000
0100
0000
0001
1000
0010
0000
1000
0000
0010
0000
0100
0000
,
0001
0000
0100
0000
1000
0000
0001
0000
0010
0000
1000
0000
0010
0100
0010
0001
,
1000
0010
1000
0010
0100
0001
0100
0001
1000
0010
1000
0010
0100
0001
0100
0001
,
1000
0100
1000
0100
0010
0001
0010
0001
1000
0100
1000
0100
0010
0001
0010
0001
,
0200
0000
0000
0000
,
0000
0000
0000
0000
,
0000
0000
0000
0000
,
0300
0000
0000
0000
,
0010
0000
0001
1000
0000
0010
1000
0001
,
0000
0100
0010
0100
0001
0010
0001
1000
,
1000
0000
0100
0000
1000
0001
2000
0000
0000
0000
0020
0000
0000
0000
0000
0000
,
0000
0000
0000
0000
0000
0000
0000
0000
0000
0000
0000
0000
0000
0000
0000
0000
0000
0000
3030
0000
0000
0000
0000
0000
1000
0000
0000
0000
0100
0000
0000
0000
1000
0000
0000
0000
0001
0000
0000
0010
0000
0000
0001
0000
0000
1000
0000
0000
,
0010
0000
0000
0000
0000
0000
0110
0000
0000
0000
0000
0000
1000
0001
1000
0001
,
0000
0000
0011
0000
0000
1100
0000
0000
0101
0000
0000
1010
0000
0000
1000
0001
,
0100
0000
0000
0000
0000
0000
0101
0000
0000
0000
0000
0000
0001
0010
0001
0000
,
0000
0000
1100
0000
0001
0000
1010
0000
0010
0000
0100
0001
1000
0000
0100
1000
,
0001
0000
0010
0000
0001
0010
0100
0000
1000
0000
0010
1000
0001
0000
0100
0000
,
0010
0000
1000
0001
0010
0000
0001
1000
0100
0000
0010
0001
0100
0000
0010
0000
,
1000
0100
1000
0100
0010
0001
0010
0001
1000
0100
1000
0100
0010
0001
0010
0001
,
0200
0000
0000
0000
0000
0000
0320
0000
0000
0000
0000
0000
1030
0001
1000
0000
,
0200
0000
0000
0000
,
1300
0000
0100
1000
0010
0000
0100
0001
0010
0001
0010
0100
2000
0000
0000
0000
,
3001
0000
0100
0000
0001
0000
1001
0000
0000
0000
0010
0000
1000
0100
1000
0000
,
0000
0000
1000
0100
0000
0100
0010
0000
0010
0001
0000
0001
1000
0000
0100
0010
,
0001
0000
0100
0000
1010
0000
1000
0001
1000
0000
0100
0000
0010
0000
0001
0000
,
0100
0000
0010
0000
0100
0001
1000
0000
0100
0000
0010
0000
0001
0000
1000
0000
,
0010
0000
1000
0000
0100
0010
0001
0000
0000
0000
1000
0001
1000
0000
0010
0000
,
0000
0100
0001
0010
0100
1000
0010
1000
,
0001
0000
0010
0100
1000
0001
2000
0000
0010
0000
0010
0000
3010
0000
0100
0001
,
1000
0000
0100
0000
0010
0000
0012
0000
0000
0000
0103
0001
0100
0010
1000
0001
,
0010
0100
0001
0100
1000
0010
1000
0001
,
0100
0000
1000
0000
0100
0000
0010
0000
0100
0000
0001
0000
0010
0100
1000
0000
,
0010
0100
0001
0010
1000
0010
0100
0001
,
0100
0000
1000
0010
0100
0001
0010
0100
1000
0000
0000
0001
0000
0000
0100
0000
,
0001
0000
0010
0000
0001
1000
0100
0000
0010
0000
0001
0100
0001
0000
1000
0000
,
0010
0000
0100
0001
0010
0000
0100
1000
0010
0000
1000
0001
0000
0001
0100
0000
,
0010
0000
1000
0000
0100
0010
0100
0010
0001
0000
1000
0000
0010
0100
0010
0100
,
0002
0000
0000
0000
1003
0000
2100
0000
0000
0000
3001
0100
0001
0000
1000
0000
,
0110
0000
0010
0001
1000
1100
0000
0101
,
0000
0000
0010
0001
0010
0000
0100
1000
0010
0000
1000
0001
0100
0000
0010
1000
,
0001
0001
0001
0010
0100
1000
1000
1000
,
0000
0000
0010
1000
0100
0000
0010
0001
1000
0000
0010
0100
0001
0000
1000
0100
,
0010
0000
0001
0000
0001
0000
0100
0010
1000
0000
0100
0000
0100
0000
0100
0000
,
0000
0000
1000
0010
1000
0000
0100
0010
0001
0000
0100
0001
1000
0000
0001
0010
,
0100
0000
1000
0001
1000
0000
0010
0000
0000
0000
0100
0000
0100
0000
0100
0000
,
0000
0000
0001
0010
0001
0000
1000
0010
1000
0000
0100
0010
0001
0100
0001
1000
,
0010
0100
0010
0100
0001
0010
0001
1000
,
0000
0100
0010
0100
1000
0010
1000
0001
,
0100
0001
0010
0001
0100
0010
1000
0100
,
0000
1000
0010
1000
0100
0010
0001
1000
,
0010
0010
0100
0100
0001
0001
1000
1000
,
0100
0100
0010
0010
0001
0001
1000
1000
,
0001
0100
0001
0100
0010
1000
0010
1000
0001
0100
0001
0100
0010
1000
0010
1000
,
0001
0010
0001
0010
0100
1000
0100
1000
0001
0010
0001
0010
0100
1000
0100
1000
,
0000
0000
2002
0000
,
0000
0000
0000
0000
,
0000
0000
0000
0000
,
0000
0000
0000
0000
,
3003
0000
0000
0000
;
