#TITLE:Spring Pony;
#ARTIST:S-C-U;
#BANNER:Spring Pony-bn.png;
#BACKGROUND:Spring Pony-bg.png;
#JACKET:Spring Pony-jacket.png;
#MUSIC:Spring Pony.ogg;
#SAMPLESTART:64;
#SAMPLELENGTH:20;
#DISPLAYBPM:150;
#BPMS:0=150;
#BGCHANGES:;

//---------------dance-single - ----------------
#NOTES:
     dance-single:
     :
     Beginner:
     4:
     :
0000
0000
0000
0000
,
0000
0000
0000
0000
,
1000
0000
0001
0000
,
0100
0000
0010
0000
,
1000
0000
1000
0000
,
0001
0000
0001
0000
,
0010
0000
0001
0000
,
0100
0000
0010
0000
,
0100
0000
0100
0000
,
0010
0000
0010
0000
,
0100
0000
1000
0000
,
0010
0000
0100
0000
,
0001
0000
0010
0000
,
0001
0000
1000
0000
,
0010
0010
0010
0000
,
0110
0000
0000
0001
,
0001
0000
1000
0000
,
0010
0000
0100
0000
,
0010
0000
1000
0000
,
0100
0000
0010
0000
,
0001
0001
0001
0000
,
1001
0000
0000
0100
,
0100
0000
1000
0000
,
0001
0000
0100
0100
,
0000
0010
0010
0000
,
1000
0000
0001
0000
,
1000
1000
1000
0000
,
0100
0000
0010
0000
,
0001
0001
0001
0000
,
1000
1000
1000
0000
,
0010
0010
0010
0000
,
1001
0000
0110
0000
,
0000
1000
1000
0000
,
0100
0000
0010
0000
,
0001
0001
0001
0000
,
1000
0000
0010
0000
,
0200
0000
0300
0000
,
0020
0000
0030
0000
,
1000
1000
1000
1000
,
0000
0000
0000
0000
,
0001
0000
0010
0000
,
0001
0000
0100
0000
,
0010
0000
1000
0000
,
0100
0000
0010
0000
,
0100
0000
0100
0000
,
1000
0000
1000
0000
,
0010
0000
1000
0000
,
0100
0000
0010
0000
,
0001
0000
0001
0000
,
1000
0000
1000
0000
,
0010
0000
0010
0000
,
0100
0000
0100
0000
,
0001
0000
1000
0000
,
0010
0000
0100
0000
,
0010
0000
1000
0000
,
0100
0000
0010
0000
,
0001
0000
0000
0000
,
0000
0000
1000
1000
,
1000
0000
0010
0010
,
0010
0000
1000
0000
,
0001
0000
0010
0000
,
0100
0000
0010
0010
,
0010
0000
0100
0100
,
0100
0000
1000
0000
,
0001
0000
1000
0000
,
0100
0000
0010
0010
,
0010
0010
0000
0000
;

//---------------dance-single - ----------------
#NOTES:
     dance-single:
     :
     Easy:
     7:
     :
0000
0000
0000
0000
,
0000
0000
0000
0000
,
1000
0100
0001
0010
,
1000
0001
0100
0010
,
1000
0001
0010
0100
,
0000
1000
0010
1000
,
0001
0001
1000
0010
,
0100
0010
0100
0100
,
0001
0010
0100
0010
,
0000
0001
1000
0001
,
0100
0100
0010
1000
,
0001
0010
0001
0001
,
1000
0100
1000
0001
,
0010
0100
1000
0010
,
0100
0100
0010
1000
,
2002
0000
3003
0010
,
1000
0100
1000
0001
,
0010
0100
1000
0010
,
1000
0001
1000
0010
,
0100
0001
0010
0100
,
1000
0010
1000
0100
,
0220
0000
0330
0001
,
1000
0010
1000
0100
,
0010
0001
0100
0010
,
0000
0001
0001
0001
,
1000
0100
0020
0030
,
0100
0100
0100
1000
,
0010
1000
0002
0003
,
0010
0001
2002
3003
,
0010
1000
0100
0010
,
0001
0001
0220
0330
,
0010
0100
0010
0100
,
0000
1000
1000
1000
,
0010
0100
0002
0003
,
0010
0010
0010
0001
,
0100
0001
2000
3000
,
0010
0100
0220
0330
,
0001
1000
2002
3003
,
0010
1000
0001
0100
,
0000
0000
0000
0000
,
0001
0001
1000
0010
,
0100
0100
0010
1000
,
0100
0010
0001
0100
,
0010
0010
1000
0010
,
1000
1000
0100
0010
,
0001
0001
1000
0010
,
0100
0010
1000
0100
,
1000
1000
0001
0010
,
0002
0100
0010
0103
,
2000
0100
0010
3100
,
0020
1000
0100
1030
,
0002
0010
0100
0013
,
0002
1000
0010
1003
,
0200
0001
0010
1300
,
0020
0130
0002
1003
,
0200
0310
0001
1000
,
0020
0000
0000
0000
,
0000
0000
1030
0100
,
1000
1001
0001
0100
,
0010
0110
1000
0010
,
1000
0001
0010
0100
,
1000
0010
1000
0001
,
0100
0110
0010
1000
,
0001
1001
0010
1000
,
0100
1000
0001
0010
,
0100
1000
0010
0100
,
0110
1001
0000
0000
;

//---------------dance-single - ----------------
#NOTES:
     dance-single:
     :
     Medium:
     10:
     :
0000
0000
0000
0000
,
0000
0000
0000
0000
,
1000
0100
0000
0000
0001
0010
0000
0000
,
1000
0001
0100
0010
1000
0001
0100
0000
,
0010
1000
0100
0010
,
0001
0100
0001
1000
,
0010
0100
0001
0010
,
0100
0000
1000
0000
0001
0100
0001
0100
,
0010
1000
0100
0010
,
0001
1000
0001
0010
,
0100
1000
0010
0100
,
0001
0000
0010
0000
0001
1000
0001
1000
,
0010
1000
0100
1000
0001
0000
0010
0000
,
0100
1000
0010
1000
0001
0000
0010
0000
,
0001
0000
0000
0010
0000
0000
0100
0000
0000
0000
1000
0000
0000
0001
0000
0000
,
2000
0000
0000
0000
3000
0010
0100
0010
,
0100
0000
0001
0000
0010
0100
1000
0000
,
0010
0000
1000
0000
0001
0100
0010
0100
,
0001
1000
0010
1000
0001
0000
0100
0000
,
0010
1000
0100
1000
0001
0000
0010
0000
,
0001
0000
0000
0100
0000
0000
0010
0000
0000
0000
1000
0000
0000
0100
0000
0000
,
2000
0000
0000
0000
3000
0100
0010
0100
,
0010
0000
0001
0000
1000
0010
0100
0000
,
0010
0000
1000
0000
0100
0010
0001
0100
,
0000
0010
1000
0010
1000
0010
1000
0010
,
0100
0001
1000
0001
0200
0000
0300
0000
,
0001
0010
0001
0010
0001
0010
0001
0010
,
0100
1000
0010
1000
0200
0000
0300
0000
,
1000
0001
0100
0010
2000
0000
3000
0000
,
0001
0010
0001
1000
0010
0000
0100
0000
,
0001
0000
0000
1000
0000
0000
0020
0000
0000
0000
0000
0000
0030
0000
0000
0000
,
1000
0100
1000
0000
0001
0100
0001
0000
,
0000
1000
0100
1000
0100
1000
0100
1000
,
0001
0100
0010
0100
0002
0000
0003
0000
,
0100
0001
0100
0001
0100
0001
0100
0001
,
1000
0010
0100
0010
2000
0000
3000
0000
,
1001
0000
0001
1000
0020
0000
0030
0000
,
0110
0000
0010
0100
0002
0000
0003
0000
,
0010
0001
1000
0010
1000
0001
0010
0100
,
0000
2000
0000
0000
,
3010
1000
0100
0000
1100
0000
0101
0000
,
0010
0001
0100
0000
0011
0000
1010
0000
,
1000
0001
0100
0000
0010
1000
0001
0000
,
0010
0000
0010
0000
0001
0100
1000
0000
,
0010
1000
0001
0000
0101
0000
1010
0000
,
0100
1000
0001
0000
0011
0000
1100
0000
,
0010
1000
0100
0000
1000
0001
0010
0000
,
0001
0000
0001
0000
0100
0010
1000
0010
,
0100
0001
2000
0000
3200
0000
0320
0000
,
0031
1000
0020
0000
2030
0000
3200
0000
,
0310
0001
0200
0000
0302
0000
0023
0000
,
0031
1000
0200
0000
2300
0000
3020
0000
,
0130
0001
0020
0000
0130
1000
0002
0000
,
0013
0001
0200
0000
0310
1000
0002
0000
,
0013
0100
1000
0010
0100
0001
0010
0100
,
1000
0010
0100
0001
1000
0001
0100
0010
,
0200
0000
0000
0000
,
0302
0000
2003
0000
3001
0010
0100
0000
,
1100
0000
0101
0000
0010
1000
0001
0000
,
0011
0000
1010
0000
0100
0010
0000
1000
,
0001
0000
0010
0100
1000
0001
1000
0000
,
0010
0100
0001
0010
0001
1000
0100
0000
,
1010
0000
0101
0000
0010
1000
0001
0000
,
1100
0000
0011
0000
1000
0001
0000
0010
,
0100
0000
1000
0010
1000
0001
0100
0000
,
0010
1000
0010
0100
0001
0010
0001
0010
,
0001
0010
0001
1000
0000
0000
0000
0000
;

//---------------dance-single - ----------------
#NOTES:
     dance-single:
     :
     Hard:
     13:
     :
0000
0000
0000
0000
,
0000
0000
0000
0000
,
1000
0100
1000
0100
0000
0000
0000
0000
0001
0010
0001
0010
0000
0000
0000
0000
,
0100
0000
1000
0000
0010
0000
0100
0001
0000
0100
0001
0000
1000
0000
0010
0000
,
0100
0000
0001
0000
0000
0010
0000
0000
0001
0000
0000
1000
0000
0000
0100
0000
,
0000
0000
1000
0000
0000
0010
0000
0000
1000
0000
0000
0001
0000
0000
0100
0000
,
0010
0000
0000
0100
0000
0000
0001
0000
0000
1000
0000
0000
0100
0000
0010
0000
,
0100
0000
0000
1000
0000
0000
0001
0000
0010
0000
0010
0000
0100
0000
1000
0000
,
0001
0000
1000
0000
0000
0010
0000
0000
1000
0000
0000
0001
0000
0000
0100
0000
,
0000
0000
0010
0000
0000
1000
0000
0000
0100
0000
0000
0010
0000
0000
0001
0000
,
1000
0000
0000
0001
0000
0000
0010
0000
0000
0001
0000
0000
0100
0000
0010
0000
,
0100
0000
0000
0001
0000
0000
1000
0000
0010
0000
0010
0000
1000
0000
0100
0000
,
1000
0010
0100
0001
0010
0100
1000
0100
,
1000
0010
0100
0001
1000
0001
0010
0100
,
1000
0000
0000
0001
0000
0000
1000
0000
0000
0000
0010
0000
0000
0100
0000
0000
,
0001
0000
0000
0010
0000
0000
0100
0000
0000
0000
1000
0000
0010
0000
0100
0000
,
0010
1000
0100
1000
0001
0010
0100
1000
,
0010
0000
1000
0000
0100
0000
0010
0000
0001
1000
0000
0001
1000
0000
0010
0100
,
0010
1000
0010
0100
0001
0010
0001
1000
,
0100
0010
0100
1000
0010
0100
0001
0010
,
0100
0000
0000
1000
0000
0000
0001
0000
0000
0000
1000
0000
0000
0010
0000
0000
,
0100
0000
0000
0001
0000
0000
1000
0000
0000
0000
0100
0000
1000
0000
0010
0000
,
0100
0001
0010
0100
1000
0010
1000
0001
,
0010
0000
0100
0000
1000
0000
0010
0000
0100
0001
0000
0100
0001
0000
1000
0000
,
0000
0000
0010
0100
0010
0000
0000
0000
0100
0010
0100
0000
0000
0000
0010
0100
,
0010
0000
1000
0000
0100
0000
0010
0000
0001
0000
0100
0010
1000
0000
0000
0000
,
0100
0010
0100
0000
0000
0000
0010
0100
0010
0000
0000
0000
0100
0010
0100
0000
,
1000
0000
0010
0000
1000
0000
0001
0000
0100
0000
0010
1000
0001
0000
0000
0000
,
0010
0000
0001
0000
0100
0000
0010
2000
0000
0002
0000
0000
3003
0000
1000
0010
,
1000
0000
0100
0000
0010
0000
0001
0100
0000
0000
0010
0000
1000
0000
0001
0000
,
0010
0000
0000
0011
0000
0000
1100
0000
0000
0000
0001
0000
1000
0000
0100
0000
,
1000
0010
0100
0001
1000
0100
0010
0001
,
0000
0000
1000
0010
1000
0000
0000
0000
0010
1000
0010
0000
0000
0000
1000
0010
,
1000
0000
0100
0000
0010
0000
0001
0000
1000
0000
0001
0100
0010
0000
0000
0000
,
0100
0001
0100
0000
0000
0000
0001
0100
0001
0000
0000
0000
0100
0001
0100
0000
,
0010
0000
1000
0000
0001
0000
1000
0000
0100
0000
0010
0001
1000
0000
0000
0000
,
0010
1000
0000
1010
0000
1010
0000
2020
0000
0000
0000
0000
3030
0000
0000
0000
,
0001
0100
0000
0101
0000
0101
0000
0202
0000
0000
0000
0000
0303
0000
0000
0000
,
1000
0001
0000
0010
0000
0001
0000
1000
0000
0100
0000
1000
0001
0000
0100
0000
,
0000
0020
0000
0000
,
1030
0100
1000
0010
0100
0001
0010
0100
,
0010
0001
0100
0010
1000
0100
1000
0001
,
0010
0001
1000
0010
1000
0100
0010
0001
,
0100
0000
0000
0010
0000
0000
0100
0000
0001
0000
1000
0000
0001
0000
0010
0000
,
0100
1000
0001
1000
0010
0100
0001
0010
,
0100
0010
0001
1000
0100
0010
0100
1000
,
0010
1000
0001
1000
0100
0010
0001
0100
,
0010
0000
0000
1000
0000
0000
0001
0000
0010
0000
0100
0000
1000
0000
0010
0000
,
1000
0100
0010
0001
0100
0010
1000
0000
,
0001
0010
0001
1000
0100
0010
0001
0000
,
0100
0001
0010
0001
1000
0100
0010
0000
,
0001
0100
0001
0010
1000
0001
0100
0000
,
0010
1000
0100
0010
0001
0100
0001
0000
,
0010
0001
1000
0010
0100
0010
1000
0000
,
0100
1000
0001
0100
0001
1000
0100
1000
,
0001
0000
0100
0000
0001
0000
1000
0000
0010
0100
0010
0100
0010
0000
1000
0000
,
0002
0000
0000
0000
,
1003
0000
0001
0000
1000
0000
0001
0000
0010
0000
0100
0000
1000
0000
0000
1010
,
0000
0000
0001
0100
0001
0000
1000
0000
0100
0000
0010
0000
0001
0000
0000
0011
,
0000
0000
1000
0010
1000
0000
0100
0000
0010
0000
0000
0001
0000
0000
0100
0000
,
0000
0010
0000
0000
1000
0000
0100
0000
1000
0000
0010
0000
0100
0000
0001
0010
,
0000
0001
1000
0000
0010
0000
0100
0000
0010
0000
1000
0000
0100
0000
0000
1100
,
0000
0000
1000
0000
0001
0000
0010
0000
0001
0000
0100
0000
0010
0000
0000
0110
,
0000
0000
0100
0000
0001
0000
1000
0000
0100
0000
0000
0010
0000
0000
0001
0000
,
0000
1000
0000
0000
0010
0000
0100
0000
0001
0000
0010
0000
0100
0000
1000
0010
,
0000
1000
0001
0000
0100
0000
0010
0000
1000
0000
1000
0000
1000
0000
0100
1000
,
0000
1000
0000
1000
0001
0000
0001
0000
0000
0000
0000
0000
0000
0000
0000
0000
;

//---------------dance-single - ----------------
#NOTES:
     dance-single:
     :
     Challenge:
     17:
     :
0000
0000
0000
0000
,
0000
0000
0000
0000
,
1000
0100
1000
0100
0000
0000
0000
0000
0001
0010
0001
0010
0000
0000
0000
0000
,
1000
0001
0100
0000
0100
0000
0100
0010
0000
0010
0000
0010
1000
0001
1000
0001
,
0010
0000
0001
0000
0100
0010
0000
0010
1000
0000
1000
0100
0000
0100
1000
0000
,
0001
0000
0010
0000
0001
1000
0000
1000
0010
0000
0010
0100
0000
0100
0001
0000
,
0010
0000
0001
1000
0000
1000
0010
0000
0010
0100
0000
0100
0001
0000
1000
0000
,
0100
0000
0010
0001
0000
0001
1000
0000
1010
0000
1010
0000
0101
0000
1001
0000
,
0010
0000
1000
0000
0100
0010
0000
0010
0001
0000
0001
1000
0000
1000
0010
0000
,
0100
0000
0001
0000
0010
0100
0000
0100
1000
0000
1000
0001
0000
0001
0010
0000
,
0100
0000
1000
0010
0000
0010
0100
0000
0100
0001
0000
0001
1000
0000
0010
0000
,
0100
0000
0001
0010
0000
0010
0100
0000
1100
0000
0110
0000
0011
0000
0011
0000
,
1000
0000
0010
0000
0100
0000
0010
1000
0000
1000
0100
0010
0001
0100
0001
0000
,
0010
0000
0001
0000
0100
0000
0001
1000
0000
1000
0010
0100
0010
1000
0001
0000
,
0101
0000
0000
0101
0000
0000
1100
0000
0000
0000
0011
0000
0000
1100
0000
0000
,
0101
0000
0010
1000
0010
0000
0100
0001
0000
0100
0010
0000
0010
0000
0010
0000
,
2000
0000
3100
1000
0000
0001
0000
0100
0001
0000
1000
0000
0100
0010
0000
0010
,
0002
0000
1003
0010
0000
1000
0000
0100
0010
0001
0100
0001
1000
0010
0100
0001
,
1000
0000
0010
0000
0100
0000
0001
0010
0000
0001
1000
0001
0010
0100
1000
0000
,
0010
0000
0100
0000
0010
0000
1000
0100
0000
1000
0001
0010
0001
0100
0010
0000
,
1010
0000
0000
1010
0000
0000
0101
0000
0000
0000
1001
0000
0000
0101
0000
0000
,
0011
0000
1000
0001
1000
0000
0100
0010
0000
0010
0001
0000
0001
0000
0001
0000
,
0200
0000
0310
1000
0000
0100
0000
0010
0001
0000
0100
0000
0010
1000
0000
0001
,
0020
0000
0130
1000
0000
0001
0000
0100
0010
1000
0010
0100
0001
0010
0001
0100
,
0000
0000
0010
0100
0010
0100
0010
0000
0100
0010
0100
0010
0100
0000
0001
1000
,
0010
0000
1000
0100
0000
1100
0000
1100
0000
1000
0100
0010
0001
0000
0100
0001
,
0010
0100
0010
0100
0010
0000
0100
0010
0100
0010
0100
0000
1000
0001
1000
0001
,
0100
0000
0010
0000
1000
0001
0000
1000
0000
0010
1000
0001
0100
0000
0010
1000
,
0010
0000
0100
0000
0001
0000
0010
0100
0000
1000
0001
0000
0100
0000
0010
0100
,
0010
0000
1000
0000
0100
0000
0010
0001
0000
1000
0001
0000
0100
0000
0010
0000
,
1000
0000
0000
1001
0000
0000
0210
0000
0000
0310
1000
0010
0100
0000
0001
1000
,
0001
0010
0100
1000
0001
0010
0100
1000
0001
0100
0010
1000
0001
0100
0010
1000
,
0100
0000
1000
0010
1000
0010
1000
0000
0010
1000
0010
1000
0010
0000
0100
0001
,
1000
0000
0100
0010
0000
0011
0000
0011
0000
0001
0010
0100
1000
0000
0010
0100
,
0001
0010
0001
0010
0001
0000
0010
0001
0010
0001
0010
0000
0100
1000
0100
1000
,
0001
0000
1000
0000
0010
1000
0000
0100
0000
1000
0010
0100
0001
0000
0010
0100
,
1000
0010
0000
0110
0000
0110
0000
0110
0000
0100
0001
1000
0001
0000
0010
0100
,
1000
0001
0000
0101
0000
0101
0000
0101
0000
0010
0001
1000
0010
0000
0100
0001
,
0010
0100
0000
1100
0000
0110
0000
0011
0000
0101
0000
0001
1000
0000
1010
0000
,
0000
0202
0000
0300
,
0013
0000
0001
0000
0100
0000
0010
1000
0000
0100
0000
1000
0001
0000
0010
0000
,
0100
0000
1000
0000
0010
0000
1000
0001
0000
0100
0000
0001
0010
0000
1000
0000
,
0100
0000
0010
0000
0001
0100
0000
0010
0000
0010
1000
0000
0100
0000
1000
0001
,
0010
0000
0001
0100
0000
0001
0100
0000
0110
0000
0110
0000
1001
0000
1010
0000
,
0100
0000
1000
0000
0001
0000
0010
0100
0000
0010
0000
0001
1000
0000
0010
0000
,
0001
0000
0100
0000
0010
0000
0100
0001
0000
1000
0000
0100
1000
0000
0010
0000
,
0100
0000
0010
0000
1000
0100
0000
0010
0000
0010
0001
0000
1000
0000
0001
0100
,
0010
0000
1000
0100
0000
1000
0100
0000
1100
0000
1001
0000
0011
0000
0011
0000
,
0001
0000
0100
0010
2000
0000
3002
0000
0203
0000
0320
0000
0230
0000
0302
0000
,
1003
0000
0100
0010
0002
0000
0203
0000
0320
0000
2030
0000
3200
0000
2300
0000
,
3001
0000
0010
0001
2000
0000
3020
0000
2030
0000
3200
0000
0320
0000
0032
0000
,
0103
0000
0010
1000
0002
0000
2003
0000
3200
0000
0320
0000
0230
0000
2300
0000
,
3020
0000
1030
0100
1000
0000
0001
0000
0200
0000
0301
0010
0001
0000
1000
0000
,
0002
0000
0013
0100
0010
0000
0001
0000
2000
0000
3100
1000
0100
0000
0010
0000
,
0002
0000
0103
0010
1000
0000
0002
0000
0013
0001
1000
0000
0200
0000
0310
0001
,
1000
0000
0020
0000
1030
0100
0001
0000
0010
0001
0010
0100
2000
0000
3002
0000
,
0203
0000
0000
0000
,
0310
0100
0010
0100
0010
0100
0010
0100
0010
1000
0001
0010
0100
0000
1000
0001
,
0000
0010
0001
1000
0100
1000
0100
0010
0100
0000
1000
0001
0100
0000
0010
1000
,
0000
0001
1000
0100
1000
0001
0010
0100
1000
0010
1000
0100
0000
0010
0001
1000
,
0001
0010
0000
0001
0100
0010
0100
0001
1000
0100
0010
0100
1000
0000
0010
0100
,
0000
0001
0010
0001
0010
0100
1000
0001
0100
0010
0100
0001
1000
0000
0100
0010
,
0000
0100
1000
0010
1000
0100
0010
0001
0100
0000
0001
1000
0010
0000
1000
0100
,
0000
1000
0001
0010
0001
0100
0010
0100
0001
1000
0010
0100
0000
0001
0010
0001
,
1000
0010
0000
1000
0100
1000
0001
0010
0100
1000
0010
0100
0001
0000
1000
0001
,
0000
0010
0001
1000
0001
0010
0100
0000
1100
0000
1001
0000
0101
0000
0010
1000
,
0000
1000
0000
0001
0100
0000
0110
0000
0000
0000
0000
0000
0000
0000
0000
0000
;
