#TITLE:Splash Gold;
#ARTIST:BEMANI Sound Team "TAG underground";
#BANNER:Splash Gold.png;
#BACKGROUND:Splash Gold-bg.png;
#JACKET:Splash Gold-jacket.png;
#MUSIC:Splash Gold.ogg;
#SAMPLESTART:91.184;
#SAMPLELENGTH:20;
#DISPLAYBPM:75:300;
#BPMS:0=150,32=75,34=300,128=150,129=300,157=150,159=300,189=150,190=300,222=150,254=75,270=150,297=300,345=150,353=300;
#STOPS:288=0.4,291=0.4,296=1.2;
#BGCHANGES:;

//---------------dance-single - ----------------
#NOTES:
     dance-single:
     :
     Beginner:
     6:
     :
0000
0000
0000
0000
,
0000
0000
0000
0000
,
0000
0000
0000
0000
,
0000
0000
0000
0000
,
0000
0000
0000
0000
,
1000
0010
0000
0010
,
0001
0010
0000
0010
,
1000
0100
0001
0010
,
2002
3003
0010
0000
,
1000
0000
0010
0000
,
1000
0000
0010
0000
,
0100
0000
0010
0000
,
0100
0000
0001
0000
,
0100
0000
0001
0000
,
0100
0000
0001
0000
,
1000
0000
0001
0000
,
0001
0000
1000
0000
,
0100
0000
1000
0000
,
0100
0000
0010
0000
,
0100
0000
0010
0000
,
0100
0000
0010
0000
,
0001
0000
0010
0000
,
0001
0000
1000
0000
,
0001
0000
1001
0000
,
0000
0000
0001
0000
,
0010
0000
1000
0000
,
0100
0000
1000
0000
,
0010
0000
0001
0000
,
0100
0000
0001
0000
,
0010
0000
1000
0000
,
0100
0000
1000
0000
,
0010
0000
0001
0000
,
0000
2000
0000
0010
,
0000
0001
0000
3100
,
0000
0002
0000
0010
,
0000
1000
0000
0103
,
0000
2000
0000
0010
,
0000
0001
0000
3100
,
0000
1000
0000
0001
,
0000
2002
3003
0010
,
0000
0001
0000
0100
,
0000
0001
0000
0010
,
0000
1000
0000
0100
,
0000
1000
0000
0001
,
0000
0010
0000
1000
,
0000
0010
0000
0001
,
0000
0100
0000
1000
,
0000
0000
0100
0000
,
0001
0000
0010
0000
,
0001
0000
0100
0000
,
1000
0000
0010
0000
,
1000
0000
0001
0000
,
0100
0000
1000
0000
,
0100
0000
0001
0000
,
0010
0000
1000
0000
,
0001
0000
1001
0000
,
0000
0000
0000
0000
,
0000
0000
0000
0000
,
0000
0000
0000
0000
,
0000
0000
1000
1000
,
0100
0100
0001
0001
,
0010
0010
1000
1000
,
0100
0100
0001
0001
,
0010
0010
1000
0100
,
0001
0000
1000
0010
,
0001
0000
0001
0100
,
1000
0000
0001
0010
,
1000
0000
0002
0003
,
0200
0300
0020
0030
,
2000
3000
0200
0300
,
0020
0030
0002
0003
,
0200
0300
0010
0010
,
0000
1000
1000
0000
,
0001
1000
0001
1000
,
2002
3003
0000
0000
0010
0000
0000
0000
0000
0000
0000
0000
0001
0000
0000
0000
,
0000
0100
0000
0010
,
0000
0100
0000
0001
,
0000
0010
0000
0100
,
0000
1000
0000
0100
,
0000
0001
0000
0100
,
0000
1000
0000
0010
,
0000
0001
0000
0000
,
0000
1000
0000
0100
,
0000
0010
0000
0100
,
0000
0001
0000
0100
,
0000
0010
0000
0100
,
0000
2000
3000
0002
,
0003
2002
0000
0000
,
3003
0010
0000
0010
,
0000
1000
0000
1000
,
0000
0100
0000
0100
,
0000
0001
0000
0001
,
0000
0010
0000
0010
,
0000
1000
0000
1000
,
0000
0100
0000
0100
,
0000
0001
0000
0000
,
0000
0010
0000
0001
,
0000
0100
0000
0010
,
0000
1000
0000
0100
,
0000
0010
0000
0001
,
0000
0100
0000
0010
,
0000
1000
0000
0100
,
0000
0010
0000
0001
,
0000
1000
0000
0001
,
0000
1001
0000
0000
,
0000
0000
0000
0000
;

//---------------dance-single - ----------------
#NOTES:
     dance-single:
     :
     Easy:
     10:
     :
0000
0000
0000
0000
,
0000
0000
0000
0000
,
0000
0000
0000
0000
,
0000
0000
0000
0000
,
0000
0000
0000
0000
,
1001
0000
0000
0010
0000
0010
0000
0000
,
1001
0000
0000
0100
0000
0100
0000
0000
,
0001
0100
0001
0000
1000
0100
1000
0000
,
2002
3003
0001
0100
,
0001
0100
0010
1000
,
0001
0000
1000
0100
,
1000
0100
0010
0001
,
1000
0000
0010
0100
,
0010
0100
0001
0010
,
0100
0000
1000
0001
,
1000
0001
0100
0010
,
1000
0000
0001
0010
,
0100
0010
0001
0010
,
0100
0000
1000
0010
,
0100
0010
1000
0010
,
0100
0000
0001
0100
,
1000
0100
0001
0100
,
1000
0000
0100
0001
,
0010
0001
0100
0001
,
0010
0000
0000
0000
0001
0000
0000
0001
,
0000
0000
0010
0000
0000
0010
0000
0000
,
1000
0000
0000
0000
0001
0000
0000
0001
,
0000
0000
0100
0000
0000
0100
0000
0000
,
1000
0000
0000
0000
0001
0000
0000
0001
,
0000
0000
0010
0000
0000
0010
0000
0000
,
1000
0000
0000
0000
0001
0000
0000
0001
,
0000
0000
0100
0000
0000
0100
0000
0000
,
1000
0000
0010
0000
0000
1000
0000
0000
,
0010
0000
0000
1000
0000
0000
0100
0000
,
0100
0000
0010
0000
0000
0001
0000
0000
,
0010
0000
0000
0001
0000
0000
0100
0000
,
0100
0000
0010
0000
0000
1000
0000
0000
,
0010
0000
0000
1000
0000
0000
0100
0000
,
0100
0000
0010
0000
0000
0001
0000
0000
,
0010
0002
0003
0010
,
0001
0010
0001
1000
,
0001
1000
0001
1000
,
0100
1000
0100
1000
,
0010
1000
0010
0100
,
0001
0100
0001
1000
,
0001
1000
0001
0010
,
0100
0010
0100
1000
,
0001
2000
3001
0010
,
0001
0100
0010
1000
,
0001
0000
1000
0010
,
1000
0100
0010
0001
,
1000
0000
0100
0010
,
0001
0100
0010
1000
,
0001
0000
0110
0000
,
1001
0000
0100
0010
,
0001
1000
0002
0000
,
0000
0000
0000
0000
,
0000
0000
0000
0000
,
0000
0000
0000
0000
,
0003
0000
1000
1000
,
0100
0100
0001
0001
,
0010
0010
1000
0100
,
0001
0010
1000
0100
,
0001
0000
0010
0000
1000
0010
1000
0010
,
0200
0000
0310
0000
0001
0100
0001
0100
,
0020
0000
1030
0000
0001
1000
0001
1000
,
0200
0310
1000
0010
,
0001
0100
0001
0020
,
0100
0130
1000
0020
,
0100
0130
0001
0200
,
0010
0310
1000
0200
,
0010
0000
0310
0000
0001
0100
0001
0100
,
0000
0000
0010
1000
0010
1000
0000
0000
,
0001
0010
0001
0000
1000
0100
1000
0000
,
2002
3003
0000
0000
0010
0000
0000
0000
1000
0000
0000
0000
0100
0000
0000
0000
,
1000
0001
0100
0010
,
0000
1000
0100
0010
,
0001
1000
0001
0100
,
0000
0010
0100
0001
,
0010
0100
1000
0001
,
0000
1000
0100
0010
,
0001
0100
0010
0100
,
0000
0010
1000
0010
,
1000
0001
0100
0001
,
0100
0001
1000
0001
,
1000
0100
0010
0100
,
0010
0001
0100
1000
,
0010
0000
2002
0000
3003
0000
0010
0100
,
0010
1000
0010
1000
,
0100
1000
0010
1000
,
0000
0001
0010
0001
,
0100
0001
0010
0001
,
0000
1000
0100
0001
,
0100
1000
0100
0001
,
0000
0100
1000
0001
,
1000
0100
1000
0001
,
0000
1000
0100
1000
,
0100
0010
0001
0010
,
0001
1000
0001
1000
,
0001
0100
0010
0100
,
0010
1000
0010
1000
,
0010
0100
0001
0100
,
0001
1000
0100
0010
,
0001
1000
0010
0100
,
0001
1000
0000
0000
,
0000
0000
0000
0000
;

//---------------dance-single - ----------------
#NOTES:
     dance-single:
     :
     Medium:
     13:
     :
0000
0000
0000
0000
,
0000
0000
0000
0000
,
0000
0000
0000
0000
,
0000
0000
0000
0000
,
0000
0000
0000
0000
,
0110
0000
1000
0100
0000
0010
0001
0000
,
0100
0100
0010
1000
0000
0001
1000
0000
,
0001
0100
0001
0100
0001
0000
1000
0001
0000
1000
0001
0000
0100
0000
0010
0000
,
2002
0000
0000
3003
1000
0000
0100
0000
,
0010
0001
0010
0100
,
1000
0001
1000
0000
0010
0000
1000
0000
,
0001
0000
0010
0000
0100
0010
0100
0000
,
0010
0001
1000
0010
,
0001
1000
0100
0001
,
1000
0010
0001
1000
,
0100
0001
1000
0001
,
1001
0000
0001
0100
,
0010
1000
0010
0100
,
0001
1000
0001
0000
0010
0000
0001
0000
,
1000
0000
0010
0000
0100
0010
0100
0000
,
0010
1000
0001
0010
,
1000
0001
0100
1000
,
0001
0010
1000
0001
,
0100
1000
0001
1000
,
1001
0000
1001
0000
0001
0000
0000
0010
,
0000
0000
1000
0000
0000
0100
0000
0000
,
0010
0000
0110
0000
1000
0000
0000
0010
,
0000
0000
0001
0000
0000
0100
0000
0000
,
0010
0000
0110
0000
0001
0000
0000
0100
,
0000
0000
1000
0000
0000
0010
0000
0000
,
0100
0000
0110
0000
1000
0000
0000
0100
,
0000
0000
0001
0000
0000
0010
0000
0000
,
0200
0000
0310
0000
0001
0100
0000
0001
,
0100
0000
0001
0100
0000
0001
0100
0000
,
0100
0000
0010
0000
1000
0100
0000
1000
,
0100
0000
1000
0100
0000
1000
0100
0000
,
0100
0000
0010
0000
0001
0100
0000
0001
,
0100
0000
0001
0100
0000
0001
0100
0000
,
0100
0000
0010
0000
1000
0100
0000
1000
,
0100
0000
1000
0001
1000
0000
0010
0000
,
1000
0010
1000
0010
,
1000
0010
0110
0001
,
0100
0001
0100
0001
,
0100
0001
1001
1000
,
0100
1000
0100
1000
,
0100
1000
0110
0010
,
0001
0010
0001
0010
,
0001
0000
1000
0000
0001
0000
0010
0001
,
0010
0001
0100
0010
,
1000
0000
1010
0000
1000
0000
0010
1000
,
0010
1000
0100
0010
,
0001
0000
0011
0000
0001
0000
0100
0001
,
0100
0001
0010
0100
,
1000
0000
1100
0000
1000
0100
1000
0000
,
0001
0100
0001
0000
1000
0000
0100
0000
,
0010
0001
2000
0000
,
0000
0000
0000
0000
,
0000
0000
0000
0000
,
0000
0000
0000
0000
,
3000
0000
0001
0001
,
0010
0010
1000
1000
,
0100
0100
0001
0010
,
1000
0100
0001
0010
,
1000
0000
0100
0000
0002
0010
2003
0010
,
3002
0000
0000
1003
0000
0100
0010
0000
0002
0000
0100
0000
2003
0000
0100
0000
,
3002
0000
0000
1003
0000
0010
0100
0000
0002
0000
1000
0000
0203
0000
1000
0000
,
0302
0000
0000
1003
0000
0010
0100
0000
0002
0000
0000
0000
2003
0000
0000
0000
,
3200
0000
0000
0310
0000
0000
0001
0000
1000
0000
0010
0000
0200
0000
0000
0010
,
0000
0010
0000
0310
0000
0000
1000
0000
0001
0000
0010
0000
0200
0000
0000
0010
,
0000
0010
0000
0310
0000
0000
0001
0000
1000
0000
0100
0000
0020
0000
0000
0100
,
0000
0100
0000
0130
0000
0000
1000
0000
0001
0000
0100
0000
0020
0000
0000
0100
,
0000
0100
0000
0130
0000
0000
0001
0000
1000
0000
0100
0000
1000
0000
0100
0000
,
0000
0000
0001
0100
0001
0100
0000
0000
,
1000
0100
0010
0001
0100
0010
1000
0001
,
2000
3000
0000
0000
0010
0000
0000
0000
1000
0000
0000
0000
0001
0000
0000
0000
,
0100
0000
0010
0000
1000
0000
0001
1000
,
0001
0010
0001
1000
,
0100
0000
0010
0000
0001
0000
1000
0001
,
1000
0001
0100
0010
,
1000
0000
0001
0000
1000
0000
0100
0010
,
0100
1000
0100
0010
,
0001
1000
0001
0100
,
0000
0000
0010
1000
0010
0000
1000
0010
,
1000
0000
0010
1000
0010
0000
1000
0000
,
0001
0000
0010
0001
0010
0000
0001
0010
,
0001
0000
0010
0001
0010
0000
0001
0000
,
1000
0000
0000
0000
0001
0000
0000
0000
0020
0000
0000
0100
0000
0100
0000
0130
,
0000
1000
0002
0000
0000
0000
1003
0001
,
0100
0001
0010
0001
,
0100
0001
0010
0001
,
0101
0010
1000
0010
,
0100
0010
1000
0010
,
0110
1000
0010
1000
,
0100
1000
0010
1000
,
1100
0010
0001
0010
,
0100
1000
0001
1001
,
0000
0000
1000
0020
0000
0130
0020
0000
,
1030
0020
0000
0130
0020
0000
1030
0000
,
1001
0000
0001
0020
0000
0130
0020
0000
,
0031
0020
0000
0130
0020
0000
0031
0000
,
1001
0000
1000
0200
0000
0310
0200
0000
,
1300
0200
0000
0310
0200
0000
1300
0000
,
1001
0000
0001
0200
0000
0310
0200
0000
,
0301
0100
0001
0000
1000
0000
0100
0000
,
0010
0001
0000
0000
,
0000
0000
0000
0000
;

//---------------dance-single - ----------------
#NOTES:
     dance-single:
     :
     Hard:
     16:
     :
0000
0000
0000
0000
,
0000
0000
0000
0000
,
0000
0000
0000
0000
,
0000
0000
0000
0000
,
0000
0000
0000
0000
,
1001
0000
0100
0010
0000
0010
1000
0000
,
1100
0000
0100
0000
0010
0000
0001
0000
0000
0000
0001
0000
1000
0001
0000
0000
,
1000
0001
0100
0001
1000
0000
0010
1000
0000
0001
1000
0000
0100
0000
0110
0000
,
1002
0000
0000
0000
0000
0000
1003
1000
0001
0000
0100
0000
0001
0000
0000
0000
,
1001
1100
1010
0011
,
0100
0010
0100
0000
1001
0000
0001
0100
,
0010
0000
1000
0100
0010
0001
0010
0100
,
1000
0000
0110
0000
0001
0010
0001
0010
,
1000
0000
0010
0000
0001
0100
0001
0100
,
1000
0000
0100
0000
0001
0010
0000
0010
,
1000
0000
1000
0100
0000
0100
0001
0000
,
1000
0000
1001
0000
1000
0100
1000
0000
,
1001
0101
0011
1010
,
0100
0010
0100
0000
1001
0000
1000
0100
,
0010
0000
0001
0100
0010
1000
0010
0100
,
0001
0000
0110
0000
1000
0010
1000
0010
,
0001
0000
0010
0000
1000
0100
1000
0100
,
0001
0000
0100
0000
1000
0001
0100
0000
,
0001
1000
0100
0000
1000
0010
0100
0010
,
1000
0001
1000
0001
1000
0000
0001
0100
,
0000
0010
1000
0000
0001
0100
0000
0010
,
1000
0000
1001
0000
0001
0000
1000
0100
,
0000
0010
0001
0000
1000
0100
0000
0010
,
0001
0000
1001
0000
1000
0000
0001
0100
,
0000
1000
0100
0000
0001
0100
0000
1000
,
0100
0000
1001
0000
0001
0000
1000
0010
,
0000
0001
0010
0000
1000
0010
0000
0001
,
0020
0000
1030
0000
0002
0010
0003
0200
,
1000
0300
0002
0010
0003
0200
1000
0300
,
1001
0000
0001
0000
2000
0010
3000
0200
,
0001
0300
2000
0010
3000
0200
0001
0300
,
1001
0000
1000
0000
0002
0010
0003
2000
,
0010
3000
0002
0010
0003
2000
0010
3000
,
1001
0000
0001
0000
2000
0100
3000
0002
,
0100
0000
0003
0000
1000
0001
1000
0001
0200
0000
0000
0000
0310
0000
0000
0000
,
1000
0010
1000
0010
1000
0000
0010
0100
,
0010
0100
0010
0000
0110
0000
1000
0000
,
0001
0010
0001
0010
0001
0000
0010
0100
,
0010
0100
0010
0000
0110
0000
0001
0000
,
1000
0100
1000
0100
1000
0000
0100
0010
,
0100
0010
0100
0000
0110
0000
1000
0000
,
0001
0100
0001
0100
0001
0000
0100
0010
,
0100
0010
0100
0100
0110
0000
1000
0010
,
1000
0010
0200
0000
1300
0100
1000
0100
,
0010
0000
0110
0000
1010
0000
0001
0010
,
0001
0010
0200
0000
0301
0100
0001
0100
,
0010
0000
0110
0000
0011
0000
1000
0100
,
1000
0100
0020
0000
1030
0010
1000
0010
,
0100
0000
0110
0000
0010
0001
0100
0000
,
0010
1000
0100
0000
0010
0001
0100
0010
,
1000
0100
0010
0002
2000
0000
0000
0000
,
0000
0000
0000
0000
,
0000
0000
0000
0000
,
0000
0000
0000
0000
,
3003
0000
1000
1000
,
0010
0010
0001
0001
,
0100
0100
1000
0010
,
0001
0100
1000
0010
,
0001
0000
0100
0100
0020
2030
3002
0203
,
0302
0000
0000
2003
0000
3200
0320
0032
2003
0000
3020
0000
0032
0000
0023
0000
,
0230
0000
0000
0320
0000
2030
3200
0320
0032
0000
2003
0000
3002
0000
0203
0000
,
0302
0000
0000
0000
0000
0000
2003
0000
0000
0000
3200
0000
0320
0000
0032
0000
2003
0000
0000
0000
0000
0000
0000
0000
3002
0000
0000
0023
0000
0000
2030
0000
,
3020
0000
0000
0032
0000
0000
1003
1000
0001
0000
1000
0000
0001
0200
0000
0010
,
0000
0010
0000
0310
0000
0100
0010
0000
1000
0000
0001
0000
1000
0200
0000
0010
,
0000
0010
0000
0310
0000
0100
0010
0000
0001
0000
1000
0000
0001
0020
0000
0100
,
0000
0100
0000
0130
0000
0010
0100
0000
1000
0000
0001
0000
1000
0020
0000
0100
,
0000
0100
0000
0130
0000
0010
0100
0000
0001
1000
0100
1000
0001
1000
0100
2000
,
0000
3000
0000
0000
0010
1000
0010
0100
0010
1000
0010
0200
0000
0300
0000
0000
,
0001
0100
0001
1000
0100
1000
0001
0100
0001
1000
0100
1000
0001
1000
0001
1000
,
0020
0030
0000
0000
1000
0000
0000
0000
1001
0000
0000
0000
0010
0000
0001
0000
,
1000
0001
0000
0100
0010
1000
0000
0100
,
0010
0001
0010
0000
0110
0000
1000
0001
,
0100
0001
0000
1000
0010
0100
0000
0001
,
0100
0010
1000
0000
1001
0000
0010
1000
,
0001
1000
0000
0100
0010
0001
0000
0100
,
0010
1000
0010
0000
0110
0000
0001
1000
,
0100
1000
0000
0001
0010
0100
0000
1000
,
0100
0010
0001
0100
0001
0100
0010
0100
,
0010
0100
1000
0100
1000
0100
0010
0100
,
0010
0100
0001
1000
0001
1000
0100
0010
,
0100
0010
1000
0010
1000
0010
0001
0010
,
0001
0000
0010
0000
0001
0000
1000
0000
0001
0200
0000
0010
0000
0010
0000
0310
,
0000
1000
0001
1000
0002
0000
0000
0000
0000
0000
0000
0000
0013
0000
0010
0000
,
0100
0010
0100
0000
1000
0000
0100
0000
0010
0000
0001
0000
1000
0000
0100
0000
,
0010
0001
1000
0100
0010
0001
1000
0100
,
0010
0001
1000
0010
0100
0001
1000
0010
,
0100
0001
1000
0010
0100
0001
1000
0010
,
0100
0001
1000
0100
0010
0001
1000
0100
,
0010
0001
1000
0100
0010
0001
1000
0100
,
0010
0001
1000
0010
0100
0001
1000
0010
,
0100
0001
1000
0000
1001
0000
0001
1000
,
0001
0000
0020
0001
1030
0020
1000
0031
,
0020
0001
1030
0020
1000
0031
0010
1000
,
0010
0001
0200
0001
1300
0200
1000
0301
,
0200
0001
1300
0200
1000
0301
0100
1000
,
0100
0001
2000
0010
3100
2000
0100
3010
,
2000
0010
3100
2000
0100
3010
1000
0100
,
0010
0100
0002
0100
0013
0002
0010
0103
,
0002
0103
1000
0010
1000
0001
1000
0100
,
1000
0001
1000
0000
0000
0000
0000
0000
;

//---------------dance-single - ----------------
#NOTES:
     dance-single:
     :
     Challenge:
     20:
     :
0000
0000
0000
0000
,
0000
0000
0000
0000
,
0000
0000
0000
0000
,
0000
0000
0000
0000
,
0000
0000
0000
0000
,
1010
0000
0100
0000
0001
0000
0011
0010
0000
1000
1100
0000
0001
0000
1000
0000
,
0101
0000
0010
0000
1000
0000
1001
0001
0000
0100
0110
0000
0100
0001
0010
0000
,
1000
0010
0001
0100
1000
0000
0001
0010
0000
0100
1000
0000
0010
0100
0001
1000
,
1100
0000
0001
0000
0100
0000
0010
1000
0000
1000
0100
0000
1000
0010
0100
0001
0010
0000
0000
0000
0010
0000
0000
0000
0001
0000
0000
0000
0100
0000
0000
0000
,
0100
0010
1000
1000
0001
1000
1000
0010
,
0100
0001
1000
0010
0001
0001
1000
0100
,
0100
0010
1000
1000
0100
0010
0010
0001
,
0100
0010
1000
0001
0100
0100
0010
1000
,
1000
0100
0001
0001
0010
0001
0001
1000
,
0100
0001
0100
0010
1000
1000
0001
0100
,
0100
0010
1000
1000
0100
0010
0001
0100
,
1000
0010
1000
0100
0001
0001
0010
1000
,
1000
0100
1000
1000
0001
0010
0010
0100
,
1000
1000
0010
0010
1000
1000
0001
0010
,
0010
1000
0100
0100
1000
0001
0001
0010
,
0100
0100
1000
1000
0010
0010
0100
0001
,
0001
0010
1000
1000
0100
0001
0001
0010
,
1000
1000
0100
0100
1000
1000
0001
0010
,
0010
0000
0001
0000
0100
0000
0100
0000
0010
0000
1000
0001
1000
0000
0100
0000
,
0010
0010
0001
1000
1010
0010
0100
0001
,
0000
0010
0011
0010
0100
1000
0000
0010
,
1000
0100
1000
0001
1001
0010
1000
0100
,
0000
0010
0110
1000
0001
0010
0000
0100
,
1000
0010
0001
0100
0101
0010
0100
0001
,
0000
0010
1100
0001
1000
0100
0000
1000
,
0010
0100
0010
0001
1000
0010
0001
0100
,
0010
0001
0010
0100
1000
0010
1000
0001
,
1000
0100
0010
0001
0010
0100
1000
0000
0000
0010
0000
0000
0001
0000
0000
0100
0000
0000
0010
0000
0000
1000
0000
0000
,
0100
0001
1000
0001
1000
0010
0001
0100
,
0010
0001
0100
1000
0010
1000
0100
0001
,
0010
0001
0100
0010
0100
1000
0100
0001
,
1000
0100
0010
0100
0010
0001
0100
1000
,
0010
1000
0001
0010
1000
0010
1000
0100
,
0001
1000
0100
0010
0100
1000
0010
0001
,
0100
0000
0000
1000
0000
0000
0010
0000
0010
0000
0010
0000
1001
0000
0000
0000
0000
0000
1010
0000
0000
0000
0000
0000
,
0100
1000
0100
0001
0100
1000
0100
0010
,
0100
1000
0100
0010
0100
1000
0100
0001
,
0100
0010
0100
0001
0010
1000
0010
0100
,
0010
1000
0010
0100
0010
1000
0010
0001
,
0010
1000
0010
0100
0001
0100
0010
0100
,
0001
0100
1000
0010
0001
0010
0100
0010
,
0001
0010
1000
0001
0010
1000
0010
0001
,
0010
0000
0000
1000
0000
0000
0010
0001
0100
0010
1000
0100
0001
0000
0000
0010
0000
0000
1000
0000
0000
0100
0000
0000
,
1000
0001
0010
0001
0100
0010
0100
0001
,
0010
1000
0100
0001
1000
0010
0001
1000
,
0010
1000
0100
0010
0001
0100
0001
0010
,
1000
0100
0001
1000
0100
0010
0100
0001
,
0010
0100
0001
1000
0100
0010
0001
0100
,
0010
0100
0001
0010
1000
0100
0010
1000
,
0001
0000
0010
0000
1000
0000
0100
0000
0010
0000
0001
1000
0001
1000
0001
1000
,
0001
0100
0010
1000
0021
0000
0100
0000
,
1000
0000
0000
0000
0001
0000
0001
0000
0001
0000
0000
1000
0000
0000
0001
0000
,
0000
1000
0000
0000
0100
0000
0100
0000
0100
0000
0000
1000
0000
0000
0001
0000
,
0000
1000
0000
0000
0001
0000
0100
0000
0100
0000
0000
0001
0000
0000
1000
0000
,
1000
0000
0000
0001
0000
0000
0130
0000
0110
0000
0000
0000
0011
0000
0000
0000
,
0110
1100
1010
1001
,
0101
0011
1100
0101
,
1100
0000
0000
0000
0000
0000
0000
0000
0000
0000
0000
0000
0101
0000
0000
0000
0000
0000
0000
0000
0000
0001
1000
0001
1000
0000
0000
0010
0000
0000
0000
0000
0000
1001
0000
0000
0000
0000
0000
0000
0000
0000
0001
0000
0000
0100
0000
0000
,
1000
0000
0100
0000
0001
0000
0000
0000
1010
0000
0000
0000
0101
0000
0000
0000
1000
0010
1000
0010
1000
0000
0001
0100
0010
0000
1000
0001
0100
0000
0001
0010
,
0100
0000
0000
1100
0000
0000
1001
0000
1001
0000
0010
0100
0010
0000
1000
0001
1000
0000
0100
0010
0001
0000
1000
0001
0010
0000
0100
1000
0010
0000
1000
0001
,
0100
0000
0000
0110
0000
0000
1010
0000
1010
0000
0001
0100
0001
0000
1000
0100
1000
0000
0010
1000
0001
0000
0010
0100
1000
0000
0001
0100
0010
0000
1000
0100
,
0001
0000
0000
0000
0000
0000
0000
0000
0000
0000
0000
0000
0000
0000
0000
0000
0000
0000
0011
0000
0000
0000
0000
0000
0000
0000
0000
0000
0000
0000
0000
0000
0000
0000
0000
0000
1100
0000
0000
0000
0000
0000
0000
0000
0000
0000
0000
0000
1100
0000
0000
0000
0000
0000
0000
0000
0000
0000
0000
0000
0001
0000
0000
0000
0000
0000
1000
0000
0000
0000
0000
0000
0001
0000
0000
0000
0000
0000
0000
0000
0000
0000
0000
0000
1000
0000
0000
0000
0000
0000
0001
0000
0000
0000
0000
0000
1000
0000
0000
0000
0000
0000
0000
0000
0000
0000
0000
0000
0010
0000
0000
0000
0000
0000
0100
0000
0000
0000
0000
0000
0001
0000
0000
0000
0000
0000
0000
0000
0000
0000
0000
0000
0010
0000
0000
0000
0000
0000
0100
0000
0000
0000
0000
0000
1000
0000
0000
0000
0000
0000
0000
0000
0000
0000
0000
0000
0001
0000
0000
0000
0000
0000
0100
0000
0000
0000
0000
0000
0000
0000
0000
0000
0000
0000
0001
0000
0000
0000
0000
0000
0100
0000
0000
0000
0010
0000
0000
0000
1000
0000
0000
0000
,
0001
0101
0000
1010
0000
0000
0100
0010
1000
1000
0001
0001
1000
1000
0001
0001
0100
0000
0000
0000
0001
0000
0010
0000
1000
0000
0001
0000
0100
0000
1000
0000
,
0000
1001
0000
0110
0000
0001
0010
0100
1000
0000
0001
0010
1000
0001
0100
1000
,
0000
0110
0000
0110
0000
0010
0001
1000
0100
0000
1000
0010
0001
1000
0100
0001
,
0000
0011
0000
0011
0000
0010
0100
1000
0001
0000
1000
0100
0001
1000
0010
0001
,
0000
1100
0000
1100
0010
1000
0100
0001
1000
0010
0001
0100
1000
0010
0001
0100
,
2020
0000
0000
3000
0031
0010
1000
0100
0001
0010
1000
0100
0022
0000
0000
0030
,
1003
0000
0000
0000
0000
0000
0001
0000
0000
0000
0000
0000
1000
0000
0000
0000
0000
0000
0001
0000
0000
0000
0000
0000
1000
0000
0000
0000
0000
0000
0001
0000
0000
0000
0000
0000
1000
0000
0000
0000
0000
0000
0001
0000
0000
0000
0000
0000
1000
0000
0000
0000
0000
0000
0000
0000
0100
0000
0000
0000
0000
0000
0000
0000
0010
0000
0000
0000
0000
0000
0000
0000
0001
0000
0000
0000
0000
0000
0000
0000
0010
0000
0000
0000
0000
0000
0000
0000
0100
0000
0000
0000
0000
0000
0000
0000
1000
0000
0000
0000
0000
0000
0000
0000
0000
0000
0000
0000
0000
0000
0000
0000
0000
0000
0000
0000
0000
0000
0000
0000
0001
0000
0000
0000
0000
0000
0010
0000
0000
0000
0000
0000
1000
0000
0000
0000
0000
0000
0010
0000
0000
0000
0000
0000
0001
0000
0000
0000
0000
0000
0000
0000
0000
0000
0000
0000
0000
0000
0000
0000
0000
0000
0000
0000
0000
0000
0000
0000
1000
0000
0000
0000
0000
0000
0100
0000
0000
0000
0000
0000
0001
0000
0000
0000
0000
0000
0100
0000
0000
0000
0000
0000
,
1000
0000
1001
0000
0010
1000
0100
0001
,
0010
0001
0100
0010
1000
0100
0001
0010
,
1000
0100
0110
0000
0001
0010
1000
0100
,
0010
1000
0100
0001
0010
1000
0001
0100
,
0001
0010
1100
0000
0010
1000
0100
0001
,
0010
0100
0010
0001
0100
0010
1000
0100
,
0001
0010
0011
0001
0101
0001
1001
0001
,
0010
1000
0010
0100
1000
0010
0001
0100
,
0001
1000
0010
0010
1000
1000
0100
0100
,
0001
0001
1000
1000
0001
0001
0010
0010
,
0100
0100
0001
0001
0100
0100
0010
0010
,
1000
1000
0100
0100
0001
0001
1000
1000
,
0010
0000
0010
0000
0100
0000
0001
0010
1000
0001
0100
1000
0000
0110
0000
1001
,
0000
0000
0000
1000
0000
0000
0010
0000
0000
0001
0000
0000
0100
0010
0100
0010
0100
0010
0100
0010
0100
0010
0100
0010
0100
0000
0000
0010
0000
0000
0100
0000
0000
0010
0000
0000
0001
0000
0000
0100
0000
0000
1000
0000
0000
0010
0000
0000
,
0001
0010
1000
0100
0001
0000
0010
0000
1000
0000
0001
0000
0010
0000
0100
0000
,
0001
1000
0010
0001
1000
0100
0001
0010
,
0001
0100
1000
0001
0010
0100
0001
1000
,
0100
0001
1000
0001
1000
0100
0010
1000
,
0100
0001
0010
0001
0100
0010
1000
0100
,
1000
0001
0010
0001
0100
0010
1000
0100
,
0001
1000
0010
0100
0001
0010
1000
0100
,
0001
0000
0000
0010
0000
0000
1000
0100
1000
0000
0000
0000
0001
0100
0001
0000
0000
0000
1000
0100
1000
0001
0100
0001
,
1000
0000
0100
0000
1000
0000
0001
0000
0100
0000
0001
0000
0010
0000
0000
0100
0000
0000
1000
0000
0000
0100
0000
0000
0010
0000
0000
0000
0000
0000
0001
0000
0000
0100
0000
0000
0010
0000
0000
1000
0000
0000
0001
0000
0000
0000
0000
0000
,
0010
0100
1000
0010
0001
0000
0100
1000
0001
0010
0001
0000
1000
0100
1000
0000
,
0001
0100
0001
0000
0010
0001
0010
0100
1000
0000
0001
1000
0100
0001
0010
0000
,
0001
1000
0100
1000
0010
0000
1000
0100
0001
0100
1000
0000
0010
0100
0001
0000
,
0010
0100
1000
0000
0001
0100
0010
0100
0001
0000
1000
0100
0010
0100
1000
0000
,
0001
1000
0010
0100
1000
0000
0001
0010
0001
0100
1000
0000
0001
0100
1000
0000
,
0001
0010
1000
0000
0100
0010
0001
0010
0100
0000
1000
0010
1000
0001
0100
0000
,
0010
1000
0100
0010
0001
0000
0001
0000
0001
0000
0001
0000
0001
0000
0001
0000
,
0001
0001
1001
0000
0000
0000
0000
0000
;

//---------------dance-double - ----------------
#NOTES:
     dance-double:
     :
     Easy:
     11:
     :
00000000
00000000
00000000
00000000
,
00000000
00000000
00000000
00000000
,
00000000
00000000
00000000
00000000
,
00000000
00000000
00000000
00000000
,
00000000
00000000
00000000
00000000
,
00011000
00000000
00000000
01000000
00000000
01000000
00000000
00000000
,
00011000
00000000
00000000
00000100
00000000
00000100
00000000
00000000
,
00000010
00000001
00000100
00001000
,
00022000
00033000
00100000
00010000
,
00100000
01000000
10000000
00010000
,
10000000
00000000
00100000
10000000
,
00100000
01000000
00001000
00010000
,
00001000
00000000
00010000
00000010
,
00001000
00000001
00001000
00000100
,
00000010
00000000
00000001
00001000
,
00000001
00000100
00000010
00001000
,
00000010
00000000
00010000
00001000
,
00100000
00010000
10000000
01000000
,
00100000
00000000
00010000
01000000
,
00100000
10000000
01000000
00100000
,
00010000
00000000
01000000
00001000
,
00010000
00000100
00000010
00000001
,
00000100
00000000
00000010
00001000
,
00000100
00001000
00000010
00001000
,
00000100
00000000
00000000
00000000
00001000
00000000
00000000
00000010
,
00000000
00000000
00000001
00000000
00000000
00000010
00000000
00000000
,
00001000
00000000
00000000
00000000
00010000
00000000
00000000
00100000
,
00000000
00000000
10000000
00000000
00000000
00100000
00000000
00000000
,
00010000
00000000
00000000
00000000
00001000
00000000
00000000
00000010
,
00000000
00000000
00000001
00000000
00000000
00000010
00000000
00000000
,
00001000
00000000
00000000
00000000
00010000
00000000
00000000
00100000
,
00000000
00000000
10000000
00000000
00000000
00100000
00000000
00000000
,
00010000
00000000
10000000
00000000
00000000
01000000
00000000
00000000
,
00100000
00000000
00000000
01000000
00000000
00000000
00010000
00000000
,
00001000
00000000
00010000
00000000
00000000
00001000
00000000
00000000
,
00000010
00000000
00000000
00000100
00000000
00000000
00000010
00000000
,
00000001
00000000
00000100
00000000
00000000
00000010
00000000
00000000
,
00000100
00000000
00000000
00001000
00000000
00000000
00010000
00000000
,
00001000
00000000
00010000
00000000
00000000
00100000
00000000
00000000
,
01000000
00200000
00300000
01000000
,
00100000
01000000
00100000
10000000
,
01000000
10000000
01000000
00010000
,
00001000
00010000
00001000
00000100
,
00000001
00000100
00000001
00000010
,
00000100
00000010
00000100
00010000
,
00001000
00010000
00001000
01000000
,
00010000
01000000
00010000
10000000
,
00010000
20000000
30010000
01000000
,
00100000
10000000
01000000
00100000
,
01000000
00000000
00010000
00001000
,
00010000
00000010
00001000
00000001
,
00001000
00000000
00000100
00000010
,
00000001
00000100
00000010
00001000
,
00000001
00000000
00000101
00000000
,
00001100
00000000
00000010
00010000
,
00001000
00100000
02000000
00000000
,
00000000
00000000
00000000
00000000
,
00000000
00000000
00000000
00000000
,
00000000
00000000
00000000
00000000
,
03000000
00000000
10000000
10000000
,
01000000
01000000
00010000
00010000
,
00001000
00001000
00000100
00000100
,
00000001
00000001
00000010
00000010
,
00000100
00000000
00000100
00000000
00000010
00000001
00001000
00000001
,
00000200
00000000
00000310
00000000
00000100
00001000
00000100
00001000
,
00020000
00000000
00031000
00000000
01000000
10000000
01000000
10000000
,
00020000
10030000
00100000
01000000
,
00100000
00010000
00001000
00200000
,
01000000
01300000
00001000
02000000
,
00100000
03100000
00010000
00000020
,
00000100
00000130
00010000
00000200
,
00000010
00000000
00000310
00000000
00000001
00000010
00000001
00000010
,
00000000
00000000
00000100
00001000
00000100
00001000
00000000
00000000
,
00000010
00001000
00000010
00000000
00010000
00001000
00010000
00000000
,
00022000
00033000
00000000
00000000
01000000
00000000
00000000
00000000
00010000
00000000
00000000
00000000
10000000
00000000
00000000
00000000
,
00100000
01000000
00010000
00100000
,
00000000
00010000
10000000
01000000
,
00100000
00001000
00010000
00001000
,
00000000
00010000
00000100
00000010
,
00000001
00001000
00000010
00000100
,
00000000
00000001
00000010
00000100
,
00010000
00001000
00010000
00001000
,
00000000
00010000
00100000
00010000
,
00100000
10000000
01000000
10000000
,
01000000
00010000
00001000
00010000
,
00001000
00000010
00000001
00000010
,
00000001
00001000
00000010
00000001
,
00000100
00000000
00002002
00000000
00003003
00000000
00000100
00000010
,
00000100
00000001
00000100
00000010
,
00001000
00000100
00010000
00001000
,
00000000
01000000
00010000
10000000
,
01000000
00100000
00010000
01000000
,
00000000
00100000
10000000
01000000
,
00100000
00001000
00010000
00001000
,
00000000
00010000
00000100
00001000
,
00000001
00000010
00000100
00000010
,
00000000
00000001
00000100
00000001
,
00000100
00001000
00010000
00001000
,
00010000
01000000
10000000
01000000
,
10000000
00100000
00010000
00100000
,
00010000
00001000
00010000
00001000
,
00010000
00001000
00000010
00001000
,
00000010
00000001
00001000
00000001
,
00001000
00000001
00000100
00000010
,
00010000
00001000
00000000
00000000
,
00000000
00000000
00000000
00000000
;

//---------------dance-double - ----------------
#NOTES:
     dance-double:
     :
     Medium:
     13:
     :
00000000
00000000
00000000
00000000
,
00000000
00000000
00000000
00000000
,
00000000
00000000
00000000
00000000
,
00000000
00000000
00000000
00000000
,
00000000
00000000
00000000
00000000
,
00000110
00000000
00000001
00000100
00000000
00000100
00000010
00000000
,
00010000
00001000
00010000
01000000
00000000
01000000
10000000
00000000
,
00100000
01000000
00100000
01000000
00100000
00000000
10000000
00010000
00000000
10000000
00010000
00000000
00100000
00000000
01000000
00000000
,
02200000
00000000
00000000
03300000
10000000
00000000
01000000
00000000
,
00100000
00001000
00010000
00000100
,
00001000
00000100
00001000
00000000
00000001
00000000
00000100
00000000
,
00000010
00010000
00001000
01000000
,
00010000
01000000
00010000
00000000
10000000
00000000
00100000
00000000
,
01000000
00001000
00010000
00000010
,
00001000
00000010
00001000
00000000
00000001
00000000
00000010
00000000
,
00000100
00010000
00001000
00100000
,
00101000
00000000
00010000
10000000
,
01000000
00010000
00001000
00000010
,
00000100
00000010
00000100
00000000
00001000
00000000
00000001
00000000
,
00000100
00001000
00010000
00100000
,
01000000
00100000
01000000
00000000
00010000
00000000
10000000
00000000
,
00100000
00010000
00001000
00000100
,
00000010
00000100
00000010
00000000
00001000
00000000
00000001
00000000
,
00000010
00001000
00010000
01000000
,
10000000
00000000
10000000
00000000
00010000
00000000
00000000
00100000
,
00000000
00000000
10000000
00000000
00000000
00100000
00000000
00000000
,
00001000
00000000
00010000
00000000
00001000
00000000
00000000
00000010
,
00000000
00000000
00000001
00000000
00000000
00000010
00000000
00000000
,
00001000
00000000
00010000
00000000
00001000
00000000
00000000
00000100
,
00000000
00000000
00000001
00000000
00000000
00000100
00000000
00000000
,
00001000
00000000
00010000
00000000
00001000
00000000
00000000
00010000
,
00000000
00000000
01000000
00000000
00000000
10000000
00000000
00000000
,
00200000
00000000
01300000
00000000
00100000
10000000
00000000
00100000
,
10000000
00000000
00100000
10000000
00000000
00100000
10000000
00000000
,
01000000
00000000
00010000
00000000
00001000
00010000
00000000
00001000
,
00010000
00000000
00001000
00010000
00000000
00001000
00010000
00000000
,
00001000
00000000
00000010
00000000
00000001
00000100
00000000
00000001
,
00000100
00000000
00000001
00000100
00000000
00000001
00000100
00000000
,
00000010
00000000
00001000
00000000
00000001
00001000
00000000
00000001
,
00001000
00000000
00000100
00000010
00000100
00000000
00000010
00000000
,
00000001
00000010
00000001
00000100
,
00000001
00000100
00000001
00000100
,
00001000
00010000
01000000
10000000
,
00100000
01000000
00100000
10000000
,
00100000
10000000
00100000
10000000
,
01000000
10000000
01000000
00010000
,
00001000
00000100
00000001
00000010
,
00000001
00001000
00000001
00000100
,
00000010
00001000
00000100
00010000
,
00001000
00010000
00001000
00000000
01000000
00000000
00010000
00000000
,
10000000
00100000
01000000
00100000
,
10000000
00010000
10000000
00000000
01000000
00000000
00100000
00000000
,
00010000
01000000
00001000
00010000
,
00001000
00010000
00001000
00000000
00100000
00010000
00100000
00000000
,
00001000
00010000
00001000
00000000
00010000
00000000
01000000
00000000
,
10000000
00010000
20000000
00000000
,
00000000
00000000
00000000
00000000
,
00000000
00000000
00000000
00000000
,
00000000
00000000
00000000
00000000
,
30000000
00000000
00100000
00100000
,
10000000
10000000
01000000
01000000
,
00010000
00010000
00001000
00000010
,
00000001
00000100
00001000
00010000
,
00001000
00000000
00000000
00000000
00020000
00000010
00032000
00003010
,
00000002
00000000
00000000
00000103
00000000
00000010
00010000
00000000
00002000
00000000
00100000
00000000
00023000
00000000
00130000
00000000
,
20000000
00000000
00000000
31000000
00000000
00100000
00001000
00000000
00020000
00000000
00000100
00000000
00032000
00000000
00003100
00000000
,
00000002
00000000
00000000
00000013
00000000
00000100
00010000
00000000
00002000
00000000
00000000
00000000
00023000
00000000
00000000
00000000
,
00230000
00000000
00000000
01300000
00000000
00000000
00010000
00000000
01000000
00000000
00100000
00000000
20000000
00000000
00000000
01000000
,
00000000
01000000
00000000
31000000
00000000
00000000
00100000
00000000
00001000
00000000
00010000
00000000
00000020
00000000
00000000
00000100
,
00000000
00000100
00000000
00000130
00000000
00000000
00000010
00000000
00001000
00000000
00000100
00000000
00000020
00000000
00000000
00000100
,
00000000
00000100
00000000
00000130
00000000
00000000
00010000
00000000
00001000
00000000
01000000
00000000
00200000
00000000
00000000
01000000
,
00000000
01000000
00000000
01300000
00000000
00000000
00100000
00000000
10000000
00000000
01000000
00000000
10000000
00000000
01000000
00000000
,
00000000
00000000
00100000
00010000
00100000
00010000
00000000
00000000
,
01000000
00001000
00010000
00000010
00001000
00000100
00000010
00000001
,
00002000
00003000
00000000
00000000
00000001
00000000
00000000
00000000
00000100
00000000
00000000
00000000
00000010
00000000
00000000
00000000
,
00001000
00000000
00010000
00000000
01000000
00000000
00100000
01000000
,
00100000
10000000
00010000
00100000
,
00010000
01000000
00010000
10000000
,
10010000
10000000
01000000
00100000
,
00010000
00000000
00001000
00000000
00000100
00000000
00000010
00000100
,
00000010
00000001
00001000
00000010
,
00001000
00000100
00001000
00000001
,
00000000
00000000
00001000
00000100
00001000
00000000
00000100
00001000
,
00000100
00000000
00001000
00000100
00001000
00000000
00000100
00000000
,
00000000
00000000
00010000
00001000
00010000
00000000
00001000
00010000
,
00001000
00000000
00010000
00001000
00010000
00000000
00001000
00000000
,
00000000
00000000
00000000
00000000
00010000
00000000
00000000
00000000
00200000
00000000
00000000
01000000
00000000
01000000
00000000
01300000
,
00000000
00010000
20000000
00000000
00000000
00000000
30100000
10000000
,
01000000
10000000
00100000
01000000
,
00010000
00100000
00001000
00010000
,
00011000
00000100
00000010
00000001
,
00000100
00000010
00001000
00000001
,
00001001
00000010
00000100
00010000
,
00001000
00100000
00010000
10000000
,
10010000
00100000
01000000
00100000
,
10000000
01000000
00100000
01100000
,
00000000
00000000
00001000
00200000
00000000
01300000
00200000
00000000
,
00301000
00200000
00000000
01300000
00200000
00000000
00301000
00000000
,
00011000
00000000
00010000
00000020
00000000
00000130
00000020
00000000
,
00010030
00000020
00000000
00000130
00000020
00000000
00010030
00000000
,
00011000
00000000
00001000
02000000
00000000
03100000
02000000
00000000
,
03001000
02000000
00000000
03100000
02000000
00000000
03001000
00000000
,
00011000
00000000
00010000
00000200
00000000
00000310
00000200
00000000
,
00010300
00000100
00010000
00000000
00001000
00000000
00000100
00000000
,
00000001
00001000
00000000
00000000
,
00000000
00000000
00000000
00000000
;

//---------------dance-double - ----------------
#NOTES:
     dance-double:
     :
     Hard:
     16:
     :
00000000
00000000
00000000
00000000
,
00000000
00000000
00000000
00000000
,
00000000
00000000
00000000
00000000
,
00000000
00000000
00000000
00000000
,
00000000
00000000
00000000
00000000
,
01100000
00000000
10000000
01000000
00000000
00010000
00001000
00000000
,
00011000
00000000
00000100
00000000
00000001
00000000
00001000
00000000
00000000
00000000
00001000
00000000
00000100
00001000
00000000
00000000
,
00000001
00000100
00000001
00000100
00000010
00000000
00010000
00001000
00000000
01000000
00010000
00000000
10000000
00000000
00100000
00000000
,
02000000
00000000
00000000
00000000
00000000
00000000
03100000
00100000
10000000
00000000
00010000
00000000
10000000
00000000
00000000
00000000
,
11000000
01010000
00011000
00001010
,
00000100
00000010
00000100
00000000
00000001
00000000
00001000
00000100
,
00000010
00000000
00000001
00000100
00000010
00001000
00000010
00001000
,
00000001
00000000
00001000
00000000
00000010
00010000
00000010
00010000
,
00001000
00000000
00100000
00000000
00010000
10000000
00010000
10000000
,
00100000
00000000
01000000
00000000
00100000
10000000
00000000
10000000
,
01000000
00000000
01000000
00010000
00000000
00010000
00001000
00000000
,
00000010
00000000
00000110
00000000
00000001
00001000
00000001
00000000
,
00000101
00001100
00011000
00110000
,
01000000
00100000
01000000
00000000
10000000
00000000
00010000
01000000
,
00100000
00000000
10000000
01000000
00100000
00010000
00100000
00010000
,
10000000
00000000
00010000
00000000
00100000
00001000
00100000
00001000
,
00010000
00000000
00000010
00000000
00001000
00000001
00001000
00000001
,
00000010
00000000
00000100
00000000
00001000
00000100
00001000
00000000
,
00000001
00000100
00000001
00000000
00001000
00000001
00000100
00000010
,
00010000
00001000
00010000
00001000
00010000
00000000
00100000
10000000
,
00000000
10000000
01000000
00000000
01000000
00010000
00000000
00010000
,
00001000
00000000
00011000
00000000
00001000
00000000
00000100
00000001
,
00000000
00000001
00000010
00000000
00000010
00001000
00000000
00001000
,
00010000
00000000
00011000
00000000
00010000
00000000
01000000
10000000
,
00000000
10000000
00100000
00000000
00100000
00010000
00000000
00010000
,
00001000
00000000
00011000
00000000
00001000
00000000
00000010
00000001
,
00000000
00000001
00000100
00000000
00000100
00001000
00000000
00001000
,
00020000
00000000
00031000
00000000
00100000
01000000
00000000
00100000
,
10000000
00000000
00100000
01000000
00000000
00100000
00001000
00000000
,
00011000
00000000
00010000
00000000
00000010
00000100
00000000
00000010
,
00000001
00000000
00000010
00000100
00000000
00000010
00010000
00000000
,
00011000
00000000
00001000
00000000
01000000
00100000
00000000
01000000
,
10000000
00000000
01000000
00100000
00000000
01000000
00001000
00000000
,
00011000
00000000
00010000
00000000
00000100
00000010
00000000
00000100
,
00000001
00000000
00000000
00000000
00000100
00001000
00000100
00001000
00000002
00000000
00000000
00000000
00000103
00000000
00000000
00000000
,
00000010
00001000
00000010
00001000
00000100
00000000
00010000
00001000
,
00010000
00001000
00100000
00000000
00110000
00000000
01000000
00000000
,
10000000
01000000
10000000
01000000
00100000
00000000
00010000
01000000
,
00010000
01000000
00100000
00000000
01100000
00000000
10000000
00000000
,
01000000
00100000
01000000
00100000
00001000
00000000
00010000
00001000
,
00010000
00001000
00010000
00000000
00011000
00000000
00000100
00000000
,
00001000
00000100
00001000
00000100
00001000
00000000
00000001
00000010
,
00000001
00000010
00000001
00000001
00001000
00000000
00000001
00001000
,
00000001
00001000
00000010
00000000
00000100
00000001
00000100
00000001
,
00001000
00000000
00000110
00000000
00000001
00000000
00001000
00000100
,
00001000
00000100
00010000
00000000
00001000
00100000
00001000
00100000
,
00010000
00000000
10010000
00000000
01000000
00000000
00100000
10000000
,
00100000
10000000
00010000
00000000
10000000
01000000
10000000
01000000
,
00100000
00000000
00110000
00000000
00001000
00010000
00001000
00000000
,
00100000
00010000
00100000
00000000
00001000
00010000
00000100
00001000
,
00000001
00000010
00000100
00002000
00000002
00000000
00000000
00000000
,
00000000
00000000
00000000
00000000
,
00000000
00000000
00000000
00000000
,
00000000
00000000
00000000
00000000
,
00003003
00000000
00000010
00000001
,
00000100
00001000
00010000
01000000
,
10000000
00100000
10000000
01000000
,
00010000
00001000
00000100
00000001
,
00000010
00000000
00000100
00000100
00000020
00000032
00002003
00003020
,
00000230
00000000
00000000
00002300
00000000
00023000
02030000
23000000
30200000
00000000
02300000
00000000
03200000
00000000
20300000
00000000
,
30020000
00000000
00000000
00230000
00000000
00320000
00032000
00003200
00000320
00000000
00000032
00000000
00000203
00000000
00000302
00000000
,
00002003
00000000
00000000
00000000
00000000
00000000
00003002
00000000
00000000
00000000
00000023
00000000
00002030
00000000
00023000
00000000
00032000
00000000
00000000
00000000
00000000
00000000
00000000
00000000
00023000
00000000
00000000
02030000
00000000
00000000
23000000
00000000
,
30200000
00000000
00000000
02300000
00000000
00000000
03100000
00100000
10000000
00000000
01000000
00000000
00100000
02000000
00000000
00100000
,
00000000
00100000
00000000
03100000
00000000
00001000
00010000
00000000
00000100
00000000
00001000
00000000
00000100
00000020
00000000
00000100
,
00000000
00000100
00000000
00000130
00000000
00000010
00000001
00000000
00001000
00000000
00000010
00000000
00001000
00000002
00000000
00000100
,
00000000
00000100
00000000
00000103
00000000
00000010
00001000
00000000
00000100
00000000
00010000
00000000
00001000
02000000
00000000
00010000
,
00000000
00010000
00000000
03010000
00000000
10000000
00100000
00000000
10000000
01000000
10000000
01000000
00010000
01000000
00010000
01000000
,
00000000
00000000
00000000
00000000
00010000
00001000
00010000
00001000
00000010
00000100
00000010
00000100
00000000
00000000
00000000
00000000
,
00000010
00000001
00000010
00000001
00000100
00000001
00000100
00000001
00000100
00001000
00000100
00001000
00010000
00001000
00010000
00001000
,
00020000
00030000
00000000
00000000
00001000
00000000
00000000
00000000
00100000
00000000
00000000
00000000
00010000
00000000
10000000
00000000
,
00000000
10100000
00000000
01010000
00000000
10100000
00000000
10000000
,
01000000
00100000
00010000
00000000
10000000
00000000
00010000
01000000
,
00000000
00011000
00000000
00001010
00000000
00000110
00000000
00000001
,
00001000
00000100
00000010
00000000
00000100
00000000
00000010
00000001
,
00000000
00000101
00000000
00001100
00000000
00011000
00000000
00100000
,
00010000
10000000
00100000
00000000
01000000
00000000
00100000
10000000
,
00000000
10000000
01000000
00000000
10000000
00000000
00010000
10000000
,
00010000
00000000
10000000
01000000
00100000
00010000
10000000
00010000
,
01000000
00001000
00010000
00000010
00001000
00000001
00001000
00000100
,
00000010
00000100
00001000
00000001
00000100
00000010
00001000
00000001
,
00001000
00000100
00010000
00001000
00100000
00010000
10000000
00010000
,
01000000
00000000
00010000
00000000
10000000
00000000
00100000
00000000
01000000
00200000
00000000
10000000
00000000
10000000
00000000
10300000
,
00000000
01000000
00100000
00010000
20000000
00000000
00000000
00000000
00000000
00000000
00000000
00000000
30010000
00000000
01000000
00000000
,
00001000
00010000
00001000
00000000
00010000
00000000
00100000
00000000
00010000
00000000
00100000
00000000
10000000
00000000
00100000
00000000
,
10000000
00100000
10000000
01000000
10000000
01000000
00010000
01000000
,
00010000
01000000
00010000
00001000
00010000
00001000
00000010
00000001
,
00000010
00000001
00000100
00000001
00000100
00000001
00000100
00001000
,
00000100
00001000
00010000
00001000
00010000
00001000
00010000
01000000
,
00010000
01000000
10000000
01000000
10000000
01000000
10000000
00100000
,
10000000
00100000
00010000
00100000
00010000
00100000
00010000
00001000
,
00010000
00001000
00010000
00000000
00010000
00000000
00001000
00010000
,
00001000
00000000
00010000
00000010
00001000
00000001
00000010
00000100
,
00001000
00000001
00000100
00000010
00010000
00001000
00100000
00010000
,
01000000
00000000
00001000
00100000
00010000
10000000
00100000
01000000
,
00010000
10000000
01000000
00100000
00001000
00010000
00000010
00001000
,
00000100
00000000
00010000
00000100
00001000
00000001
00000100
00000010
,
00001000
00000001
00000010
00000100
00010000
00001000
01000000
00010000
,
00100000
00000000
00001000
01000000
00010000
10000000
01000000
00100000
,
00010000
10000000
00010000
01000000
00001000
00010000
00000010
00001000
,
00000001
00000100
00000010
00000000
00000000
00000000
00000000
00000000
,
00000000
00000000
00000000
00000000
;
