#VERSION:0.83;
#TITLE:Spin Around;
#SUBTITLE:;
#ARTIST:nc ft. Yasushi Asada;
#TITLETRANSLIT:;
#SUBTITLETRANSLIT:;
#ARTISTTRANSLIT:;
#GENRE:;
#ORIGIN:;
#TAGS:;
#CREDIT:;
#BANNER:Spin Around-bn.png;
#BACKGROUND:Spin Around-bg.png;
#PREVIEWVID:;
#JACKET:Spin Around-jacket.png;
#CDIMAGE:;
#DISCIMAGE:;
#LYRICSPATH:;
#CDTITLE:;
#MUSIC:Spin Around.ogg;
#OFFSET:0.000000;
#SAMPLESTART:51.789001;
#SAMPLELENGTH:20.000000;
#SELECTABLE:YES;
#DISPLAYBPM:190.000000;
#BPMS:0.000000=190.000000;
#STOPS:;
#DELAYS:;
#WARPS:;
#TIMESIGNATURES:0.000000=4=4;
#TICKCOUNTS:0.000000=4;
#COMBOS:0.000000=1;
#SPEEDS:0.000000=1.000000=0.000000=0;
#SCROLLS:0.000000=1.000000;
#FAKES:;
#LABELS:0.000000=Song Start;
#BGCHANGES:;
#KEYSOUNDS:;
#ATTACKS:
;

//---------------dance-single - ----------------
#NOTEDATA:;
#CHARTNAME:;
#CHARTHASH:857384567:
#STEPSTYPE:dance-single;
#BANNER:;
#DESCRIPTION:;
#CHARTSTYLE:;
#DIFFICULTY:Hard;
#METER:14;
#METERF:0.000000;
#RADARVALUES:0.776422,0.972916,0.374456,0.920091,0.267468,508.000000,473.000000,35.000000,86.000000,0.000000,0.000000,0.000000,0.000000,0.000000,0.776422,0.972916,0.374456,0.920091,0.267468,508.000000,473.000000,35.000000,86.000000,0.000000,0.000000,0.000000,0.000000,0.000000;
#CREDIT:;
#DISPLAYBPM:190.000000;
#NOTES:
0000
0000
0000
0000
,
0000
0000
0000
0000
,
0000
0000
0000
0000
,
0000
0000
0000
0000
,
0000
0000
0000
0000
,
0001
0010
0000
1000
1000
0001
0100
0010
,
0000
1000
1000
0001
0020
0100
0230
0000
,
1300
0001
0000
0100
0100
0010
1000
0001
,
0100
0000
0100
0000
1001
0000
0000
0000
0010
0000
0010
0000
1000
0000
0100
0010
,
0001
1000
0000
0010
0010
1000
0100
0010
,
0000
0001
0001
1000
0020
0100
0230
0000
,
0310
1000
0000
0001
0001
1000
0100
0000
,
1001
0000
0010
0000
1000
0000
0001
0000
0010
0000
0100
1000
0002
0000
0000
0000
,
0103
0010
0000
1000
1000
0100
0010
0001
,
0000
0010
0010
0001
0200
0001
0302
0000
,
1003
0010
1000
0001
0010
0100
2000
0000
,
3010
0000
0010
0000
1001
0000
0000
0000
0100
0000
0100
0000
0001
1000
0001
1000
,
0001
0100
0010
2000
0000
3001
0000
1010
,
0010
0100
0001
2000
0000
3100
0001
0000
,
0011
0001
1000
0020
0000
0130
0000
0101
,
0000
0000
0000
1000
0000
0000
1000
0000
0000
1000
0000
0000
0010
0000
0100
0000
0010
0000
0200
0000
0000
0000
0000
0000
,
0301
1000
0100
0020
0000
0031
0000
1100
,
0000
1000
0001
0020
0000
0130
1000
0000
,
0101
0010
0100
0002
0000
1003
0000
0110
,
0000
0001
0001
0001
0011
0000
0101
0000
,
2001
0000
0010
3020
0000
0230
0000
0302
,
1000
1000
1003
0010
1000
0100
0010
0001
,
0200
0001
0301
2000
0000
3020
0000
2030
,
0000
0000
3002
0000
0100
0000
0103
0000
0020
0000
1000
0000
1030
0000
0000
0001
,
2000
0000
0100
3200
0000
0320
0000
0032
,
0100
0100
0103
0010
1000
0001
1000
0100
,
2000
0000
3002
0000
2003
0000
3020
0000
0000
0130
0000
0000
,
0110
0000
0001
1000
0000
0010
0100
0000
0001
0000
0001
0000
1000
0000
1000
0000
,
0020
1000
1030
0200
0010
0310
0002
0000
,
1003
0100
0001
0100
1000
0100
0010
0001
,
0200
0000
0310
0010
1000
0100
0010
0001
,
0200
0000
0000
0320
0000
0000
1030
0000
0002
0000
0000
0000
1003
0000
0000
0000
,
1200
0000
1300
0002
0100
0103
0020
0000
,
1030
0100
0001
0100
1000
0100
0001
0100
,
0020
0000
0001
0001
0031
1000
0100
0010
,
0001
1000
1010
0000
0010
0100
0101
0000
,
2000
0000
3002
0000
0103
0010
1000
0010
,
0100
0000
0000
0000
0101
0000
0000
0000
2100
0000
0000
0000
3001
0000
0100
0010
,
2000
0000
3002
0000
0013
1000
0010
0001
,
0200
0000
0010
0000
0310
0000
1000
0100
2000
0000
0001
0000
3001
0000
0100
0010
,
2000
0000
3020
0000
0130
1000
0100
0001
,
0010
0000
0000
0000
1001
0000
0000
0000
0210
0000
0000
0000
0301
0000
1000
0100
,
0020
0001
0031
0100
0010
1000
0001
1000
,
0020
0000
0100
0000
0130
0000
0001
1000
0002
0000
0010
0000
0013
0100
1000
0001
,
0200
0000
0320
0000
1030
0100
0010
0001
,
0011
0000
0000
0000
0110
0000
0000
0000
1200
0000
0000
0000
0310
0000
0100
1000
,
0002
0000
0203
0000
0310
1000
0010
0100
,
0002
0000
1000
0000
1003
0000
0010
0100
0020
0000
0000
0000
1030
0000
0100
0000
,
2000
0000
3002
0000
0013
0100
0001
0100
,
1000
1001
1010
1100
,
0002
0000
0100
0000
0103
0000
0010
0000
1000
0000
1000
0000
1000
0100
0010
0001
,
0200
0000
0000
0000
0300
0000
0000
0002
2000
0000
0000
0000
3003
0000
0000
0000
,
2100
0000
0000
0000
3001
0000
0200
0000
0000
0000
0010
0000
0310
0000
0010
1000
,
0002
0000
1003
0001
1000
0100
0022
0000
,
0030
0000
1000
0000
1003
0000
0001
0000
0010
0100
0010
0000
0001
0000
1000
0000
,
2010
0000
0000
0000
3001
0000
0210
0000
0000
0000
0301
0100
0001
0000
1000
0000
,
0200
0000
1300
0010
1000
0100
0010
0001
,
1000
0100
1000
0100
1000
0100
0010
0001
0010
0001
0010
0001
,
0100
0010
0100
0010
1000
0010
1000
0001
1000
0001
0100
0001
,
1000
0000
0010
0000
1001
0000
0000
0000
0100
0000
0010
0000
0100
0000
0001
1000
,
0002
0010
0013
0200
1000
1000
1000
0000
,
0001
0000
0001
0000
0301
0000
0100
1000
0100
0000
1000
0001
1000
0000
0010
0100
,
0010
1000
0010
0001
0010
0100
0010
0001
,
0010
0000
1000
0000
0100
0000
0001
0000
0100
0010
0100
0010
0002
0000
0000
0000
,
1003
0000
0202
0000
0003
0010
0310
0100
,
0001
0000
0010
0000
0100
0000
2000
0000
0000
0000
0010
0000
3010
0000
1000
0001
,
0200
0000
0310
2010
0000
3001
0100
1000
,
0010
0010
1001
0000
0100
0100
1001
0000
;

//---------------dance-single - ----------------
#NOTEDATA:;
#CHARTNAME:;
#CHARTHASH:0:
#STEPSTYPE:dance-single;
#BANNER:;
#DESCRIPTION:;
#CHARTSTYLE:;
#DIFFICULTY:Medium;
#METER:11;
#METERF:0.000000;
#RADARVALUES:0.573146,0.661583,0.320962,1.027079,0.058843,375.000000,345.000000,30.000000,96.000000,0.000000,0.000000,0.000000,0.000000,0.000000,0.573146,0.661583,0.320962,1.027079,0.058843,375.000000,345.000000,30.000000,96.000000,0.000000,0.000000,0.000000,0.000000,0.000000;
#CREDIT:;
#DISPLAYBPM:190.000000;
#NOTES:
0000
0000
0000
0000
,
0000
0000
0000
0000
,
0000
0000
0000
0000
,
0000
0000
0000
0000
,
0000
0000
0000
0000
,
0001
0010
0000
1000
0000
0010
0100
0000
,
0000
0001
0000
1000
0010
0100
0020
0000
,
1030
0100
0000
0010
0000
0001
0100
0000
,
0001
1000
1001
0000
0010
0100
0110
0000
,
1000
0010
0000
0100
0000
1000
0001
0000
,
0000
0010
0000
0001
1000
0100
2000
0000
,
3010
0100
0000
0001
0000
0010
1000
0000
,
0100
0010
0000
0010
0001
0100
2000
0000
,
3010
1000
0000
0100
0000
0001
0010
0000
,
0000
0001
0000
0100
0020
0000
1030
0000
,
0102
0000
0000
2003
0000
3002
0000
0000
,
0103
0010
1001
0000
1000
0001
0110
0000
,
0001
0010
0000
2000
0000
3100
0000
1100
,
0000
0001
0000
2000
0000
3001
0200
0000
,
0310
1000
0000
0002
0000
0103
0000
0110
,
0000
1000
0001
1000
0002
0000
2003
0000
,
3010
0100
0000
0002
0000
1003
0000
0011
,
0000
0100
0000
0020
0000
1030
0002
0000
,
1003
0100
0000
0020
0000
0031
0000
0101
,
0000
0100
0010
0100
0020
0000
0130
0000
,
1001
0000
0010
2000
0000
3002
0000
0203
,
0000
0000
0000
0000
0301
0010
0100
1000
,
0020
0000
1030
0020
0000
0230
0000
0302
,
0000
2003
0000
3002
0200
0000
0303
0000
,
0010
0100
0010
2000
0000
3002
0000
0023
,
0000
0000
0000
0000
0031
0010
0100
1000
,
0001
0000
0100
0000
0001
0000
2000
0000
0000
3020
0000
0000
,
0230
0000
0000
1000
0000
0000
0301
1000
,
0002
0000
1003
0200
0000
1300
0002
0000
,
0023
0230
2300
3002
,
2003
0000
0010
0000
0000
3010
1000
0001
,
1000
0000
0000
0100
0000
0000
0010
0000
0002
0000
0000
0000
2003
0000
0000
0000
,
3200
0000
1300
0020
0000
0130
0002
0000
,
0023
0230
2300
3001
,
2020
0000
0000
0030
0000
0000
0100
0000
0000
0000
3001
0000
1000
0000
0001
0000
,
0010
0001
0101
0000
1000
0100
0110
0000
,
0002
0000
0203
0000
0301
0100
1000
0100
,
0001
0000
0000
0000
2010
0000
0000
0000
0200
0000
0000
0000
3300
0000
1000
0001
,
2000
0000
3020
0000
1030
0010
0001
0010
,
2000
3001
0201
0310
,
2000
0000
3200
0000
0301
0100
1000
0100
,
0010
0000
0000
0000
2001
0000
0000
0000
0002
0000
0000
0000
3003
0000
0100
0010
,
0200
0000
0000
0301
1000
0010
0100
0001
,
0020
0000
0000
0000
0030
0000
0001
0100
0002
0000
0000
0000
0003
0000
0000
0000
,
0002
0000
2003
0000
3010
0100
0010
0100
,
0010
0000
0000
0000
2100
0000
0000
0000
0020
0000
0000
0000
3030
0000
1000
0001
,
2000
0000
3020
0000
1030
0100
0001
0100
,
2000
0001
0000
0100
0100
0000
3010
0000
,
0200
0000
0302
0000
1003
0010
0001
0010
,
1000
0011
1100
0101
,
0120
0000
0001
0001
0000
1000
1030
0000
,
2200
0300
0002
3003
,
1001
0000
0000
0000
0010
0000
0200
0000
0000
0000
0000
0000
0000
0000
0301
1000
,
0002
0000
0003
0022
,
0030
1000
1003
0001
0100
0010
1000
0001
,
0200
0000
0000
0000
0000
0000
0320
0000
0000
0000
1030
0001
1000
0000
0010
0000
,
0200
0000
0000
0001
0000
0000
0310
0000
,
1000
0100
1000
0100
0010
0001
0010
0001
,
1000
0010
1000
0010
0100
0001
0100
0001
,
0020
0000
0000
0000
0031
0100
1000
0100
,
0002
0000
1003
2020
0000
0000
0030
0000
,
0001
0001
0000
3100
1000
0001
1000
0100
,
0010
0001
0010
0001
0100
0010
1000
0001
,
1000
0100
0010
0001
0010
0100
2000
0000
,
3001
0000
0000
0000
0220
0000
0000
0030
0000
0000
0301
0000
1000
0000
0100
0000
,
1000
0010
0100
0002
0000
1003
0010
0000
,
0101
0000
0000
1200
0000
1300
0001
0100
,
0010
0100
1001
0000
0010
0100
1001
0000
;

//---------------dance-single - ----------------
#NOTEDATA:;
#CHARTNAME:;
#CHARTHASH:0:
#STEPSTYPE:dance-single;
#BANNER:;
#DESCRIPTION:;
#CHARTSTYLE:;
#DIFFICULTY:Easy;
#METER:7;
#METERF:0.000000;
#RADARVALUES:0.397382,0.544833,0.460046,0.909392,0.000000,260.000000,217.000000,43.000000,85.000000,0.000000,0.000000,0.000000,0.000000,0.000000,0.397382,0.544833,0.460046,0.909392,0.000000,260.000000,217.000000,43.000000,85.000000,0.000000,0.000000,0.000000,0.000000,0.000000;
#CREDIT:;
#DISPLAYBPM:190.000000;
#NOTES:
0000
0000
0000
0000
,
0000
0000
0000
0000
,
0000
0000
0000
0000
,
0000
0000
0000
0000
,
0000
0000
0000
0000
,
0001
0000
0000
0010
0000
0000
1000
0000
,
0000
0010
0000
0000
0100
0000
0001
0000
,
1000
0000
0000
0001
0000
0000
0100
0000
,
0010
1001
0100
1001
,
1000
0000
0000
0010
0000
0000
0100
0000
,
0000
0001
0000
0000
0010
0000
1000
0000
,
0001
0000
0000
1000
0000
0000
0100
0000
,
1000
0010
0000
0100
0001
0000
2000
0000
,
3010
0000
0000
0001
0000
0000
0100
0000
,
0000
0010
0000
0000
1000
0000
0001
0000
,
2100
0000
0000
0001
0000
3001
0000
0000
,
0010
1001
0100
1001
,
0110
0000
0000
1000
0000
0001
0000
0011
,
0000
0000
0000
0100
0000
1000
0000
0000
,
1010
0000
0000
0010
0000
0100
0000
0101
,
0000
1000
2000
3001
,
1001
0000
0000
0010
0000
0100
0000
0101
,
0000
0000
0000
0001
0000
1000
0000
0000
,
1100
0000
0000
0100
0000
0010
0000
0011
,
0000
1000
2000
3001
,
1001
0000
0000
0100
0000
0010
0000
2000
,
0000
0000
3001
1000
,
0010
0000
0000
1000
0000
0001
0000
0100
,
0000
0020
0000
0000
2030
0000
0000
0000
,
3100
0000
0000
0010
0000
0001
0000
2000
,
0000
0000
3001
0100
,
1000
0001
0200
0310
,
2000
0001
0001
3001
,
0020
0000
0000
0032
0000
0000
2003
0000
,
0010
0100
0010
0100
,
3020
0000
0000
0130
,
0101
1100
0002
2003
,
3002
0000
0000
0203
0000
0000
0320
0000
,
1000
0001
1000
0001
,
0230
0000
0000
0310
,
2002
3003
0220
0330
,
2000
3002
0023
0130
,
1100
1001
2002
3003
,
0200
0320
2030
3001
,
0022
0030
0200
0303
,
0002
2003
3020
0130
,
0101
1010
2020
3030
,
0220
0330
0001
0100
,
2000
0000
3000
0001
0200
0000
0300
0000
,
0020
2030
3002
0103
,
0011
1100
2200
3300
,
0020
0230
0302
1003
,
2020
0030
0002
3003
,
2000
3200
0320
0031
,
0101
1100
0101
1100
,
0012
0000
0000
0010
0000
0000
1003
0000
,
0220
0030
0020
0330
,
2000
0000
0000
0002
0000
0000
3003
1000
,
0200
0000
0300
2002
,
0003
3002
1000
0103
,
0020
0000
0000
0230
0000
0000
0301
0000
,
0020
0000
0000
0030
,
1000
0100
0001
0010
,
1000
0100
0001
0010
,
2000
0000
3010
0100
,
2010
0000
3001
2000
0000
0000
0000
0000
,
0000
0000
0010
3010
,
2000
3002
2003
3020
,
0230
2300
3200
0302
,
0013
2200
3300
0001
,
0100
0010
2000
3000
,
1001
0000
0000
0110
0000
1000
0001
1000
,
0000
1001
0000
1001
;

//---------------dance-single - ----------------
#NOTEDATA:;
#CHARTNAME:;
#CHARTHASH:0:
#STEPSTYPE:dance-single;
#BANNER:;
#DESCRIPTION:;
#CHARTSTYLE:;
#DIFFICULTY:Beginner;
#METER:4;
#METERF:0.000000;
#RADARVALUES:0.243014,0.311333,0.128385,0.085590,0.000000,159.000000,147.000000,12.000000,8.000000,0.000000,0.000000,0.000000,0.000000,0.000000,0.243014,0.311333,0.128385,0.085590,0.000000,159.000000,147.000000,12.000000,8.000000,0.000000,0.000000,0.000000,0.000000,0.000000;
#CREDIT:;
#DISPLAYBPM:190.000000;
#NOTES:
// measure 0
0000
0000
0000
0000
,  // measure 1
0000
0000
0000
0000
,  // measure 2
0000
0000
0000
0000
,  // measure 3
0000
0000
0000
0000
,  // measure 4
0000
0000
0000
0000
,  // measure 5
0001
0000
0000
0100
,  // measure 6
0000
0000
0010
0010
,  // measure 7
0010
0000
1000
0000
,  // measure 8
0000
1001
0000
0100
,  // measure 9
0100
0000
0000
0010
,  // measure 10
0000
0000
1000
1000
,  // measure 11
1000
0000
0001
0000
,  // measure 12
0110
0000
0100
0000
,  // measure 13
0010
0000
0000
1000
,  // measure 14
0000
0000
0001
0001
,  // measure 15
0002
0000
0000
0003
,  // measure 16
0000
1001
0000
1001
,  // measure 17
0000
0000
0100
0100
,  // measure 18
0000
0000
0010
0010
,  // measure 19
0000
0000
1000
1000
,  // measure 20
0000
0000
0001
0001
,  // measure 21
0001
0000
0100
0100
,  // measure 22
0000
0000
0010
0010
,  // measure 23
0000
0000
1000
1000
,  // measure 24
0000
0000
0100
0100
,  // measure 25
0100
0000
0010
0000
,  // measure 26
0001
0000
1000
1000
,  // measure 27
1000
0000
0010
0000
,  // measure 28
0100
0100
0100
0000
,  // measure 29
0010
0000
1000
0000
,  // measure 30
0001
0000
1000
1000
,  // measure 31
1000
0000
0001
0000
,  // measure 32
0200
0000
0300
0000
,  // measure 33
0010
0000
0010
0000
,  // measure 34
1000
1000
1000
1000
,  // measure 35
2000
0000
3000
0000
,  // measure 36
0001
0000
0001
0000
,  // measure 37
0100
0000
0100
0000
,  // measure 38
0010
0010
0010
0010
,  // measure 39
0020
0000
0030
0000
,  // measure 40
0110
0000
0110
0000
,  // measure 41
1000
0000
0001
0000
,  // measure 42
0100
0100
0100
0000
,  // measure 43
0001
0000
0010
0000
,  // measure 44
2000
0000
3000
0000
,  // measure 45
0100
0000
0010
0000
,  // measure 46
0001
0001
0001
0000
,  // measure 47
0100
0000
0001
0000
,  // measure 48
0010
0000
1001
0000
,  // measure 49
0100
0100
0100
0000
,  // measure 50
0010
0010
0010
0000
,  // measure 51
1000
1000
1000
0000
,  // measure 52
0002
0000
0003
0000
,  // measure 53
1000
1000
1000
0000
,  // measure 54
0010
0010
0010
0000
,  // measure 55
2000
0000
3000
0000
,  // measure 56
0020
0000
0030
0000
,  // measure 57
0110
0000
0001
0000
,  // measure 58
0100
0000
0000
1000
,  // measure 59
0000
0001
0001
0000
,  // measure 60
1000
0000
0010
0000
,  // measure 61
0110
0000
0000
0000
,  // measure 62
0001
0000
0001
0000
,  // measure 63
1000
0000
0001
0000
,  // measure 64
0100
0000
0010
0010
,  // measure 65
0010
0010
0000
0000
,  // measure 66
0000
0000
1000
1000
,  // measure 67
1000
0000
0001
0000
,  // measure 68
0100
0100
0100
0100
,  // measure 69
0000
0110
0000
1000
,  // measure 70
1000
1000
1000
0000
,  // measure 71
0001
0000
0001
0001
,  // measure 72
0000
1001
0000
1001
;
