#TITLE:Spiderwebs;
#ARTIST:No Doubt;
#BANNER:Spiderwebs-bn.png;
#BACKGROUND:Spiderwebs-bg.png;
#JACKET:Spiderwebs-jacket.png;
#MUSIC:Spiderwebs.ogg;
#OFFSET:-0.045;
#SAMPLESTART:88.844;
#SAMPLELENGTH:20;
#DISPLAYBPM:143:146;
#BPMS:0=143,108=143.25,120=143.5,140=143,172=143.3,188=143.5,192=143.75,196=146,197=143,244=143.5,268=143;
#BGCHANGES:;

//---------------dance-single - ----------------
#NOTES:
     dance-single:
     :
     Beginner:
     3:
     :
0000
0000
0000
0000
,
0000
0000
0000
0000
,
0000
0000
0000
0000
,
0000
0000
0000
0000
,
0000
0000
0000
0000
,
0001
0001
0000
0000
,
1000
0000
0001
0000
,
0100
0000
0000
0000
,
0010
0010
0010
0010
,
0000
1000
0000
1000
,
0000
1000
0000
1000
,
0000
0001
0000
0001
,
0000
0001
0000
0100
,
0100
0000
0010
0000
,
1000
0000
0000
0000
,
0100
0000
0010
0000
,
0001
0000
0000
0000
,
1000
0000
0001
0000
,
0010
0000
0000
0000
,
0001
0000
0100
0000
,
0110
0000
1001
0000
,
0110
0000
0000
0000
,
0001
0000
0000
0000
,
1000
0000
0000
0000
,
0100
0000
0000
0000
,
1000
0000
0010
0000
,
1001
0000
0000
0000
,
0001
0000
0001
0000
,
0010
0000
0010
0000
,
0001
0000
0100
0000
,
1000
0000
0000
0000
,
0010
0000
1000
0000
,
0010
0000
1000
0000
,
0100
0000
0010
0000
,
0001
0000
0000
0000
,
0000
0100
0000
0100
,
0000
0100
0000
0100
,
0000
0010
0000
0010
,
0000
0010
0000
1000
,
1000
0000
0001
0000
,
0010
0000
0000
0000
,
0001
0000
0100
0000
,
0010
0000
0000
0000
,
1000
0000
0001
0000
,
0100
0000
0000
0000
,
0010
0000
0100
0000
,
1001
0000
0110
0000
,
1001
0000
0000
0000
,
0100
0000
0000
0000
,
0010
0000
1000
0000
,
0001
0000
0000
0000
,
0001
0000
0100
0000
,
0110
0000
0000
0000
,
0010
0000
1000
0000
,
0001
0000
1000
0000
,
0100
0000
0100
0000
,
0100
0000
0000
0000
,
0010
0000
0001
0000
,
0100
0000
0010
0000
,
1000
0000
1000
0000
,
1000
0000
0000
0000
,
0020
0000
0030
0000
,
0010
0000
1000
0000
,
0002
0000
0003
0000
,
1000
0000
0100
0000
,
2000
0000
3000
0000
,
0010
0000
0010
0000
,
0200
0000
0300
0000
,
0001
0000
1000
0000
,
0010
0000
0000
0000
;

//---------------dance-single - ----------------
#NOTES:
     dance-single:
     :
     Easy:
     6:
     :
0000
0000
0000
0000
,
0000
0000
0000
0000
,
0000
0000
0000
0000
,
0000
0000
0000
0000
,
0000
0000
0000
0000
,
0010
0100
0000
0001
,
1000
0001
0010
0100
,
1000
0001
0000
0100
,
0010
0010
0010
0010
,
1000
0001
0000
0100
,
0000
0010
0000
1001
,
0000
0100
0000
0001
,
0000
0010
0000
0110
,
1000
0001
1000
0010
,
0100
0001
0000
0011
,
1000
0001
0010
0100
,
0010
0001
0000
1100
,
0010
0100
0010
1000
,
0001
0010
0000
0101
,
1000
0001
0010
0100
,
1000
1000
0001
0001
,
2002
0003
0100
3001
,
0202
0003
1000
0310
,
0220
0300
1000
0031
,
2200
0300
0010
3000
,
0001
1000
0100
0010
,
2002
0000
0000
3003
,
0001
0100
0001
0010
,
0100
1000
0010
0001
,
1000
0001
0010
0100
,
1000
0010
0100
0001
,
0010
0100
1000
0010
,
1000
0001
0010
1000
,
0001
1000
0010
0100
,
1000
0010
0100
0001
,
0010
0100
0000
1000
,
0000
0001
0000
0101
,
0000
0010
0000
0100
,
0000
0001
0000
1100
,
1000
0001
0010
0100
,
0001
1000
0000
0110
,
0010
1000
0100
0010
,
0001
0100
0000
0011
,
1000
0001
0010
1000
,
0010
0100
0000
1010
,
0001
0010
0100
1000
,
0010
0010
0100
0100
,
0202
0300
0010
1003
,
2200
3000
0010
1300
,
0022
0003
0100
0031
,
2020
3000
0031
0000
,
1000
0010
0001
0100
,
0220
0000
0000
0330
,
0010
1000
0001
0100
,
0001
0010
1000
0010
,
0100
1000
0010
0001
,
0100
0001
0010
0100
,
1000
0010
0100
1000
,
0001
0010
1000
0001
,
0100
0010
0100
1000
,
0001
0010
0100
1000
,
0001
0001
0001
0001
,
1000
0010
1000
0010
,
0100
0100
0100
0100
,
0010
0100
0001
0010
,
1000
1000
1000
1000
,
0100
1000
0010
0100
,
0010
0010
0010
0010
,
0001
1000
0010
0100
,
0001
0000
0000
0000
;

//---------------dance-single - ----------------
#NOTES:
     dance-single:
     :
     Medium:
     9:
     :
0000
0000
0000
0000
,
0000
0000
0000
0000
,
0000
0000
0000
0000
,
0000
0000
0000
0000
,
0000
0000
0000
0000
,
2000
0000
3002
0000
0003
0100
0001
1000
,
0010
1000
0001
0000
0200
0000
0320
0000
,
1030
0000
0001
0000
1000
0010
0100
0000
,
0001
1000
0001
1000
0010
0100
0010
0100
,
0001
0000
1000
0010
0000
0000
0100
0001
,
0000
0000
0010
0100
0000
1000
0002
0000
,
0013
0000
0001
1000
0000
0000
0010
0100
,
0000
0000
0001
0010
0000
0100
2000
0000
,
3010
0000
0000
0010
0000
0000
0010
0000
0000
0000
1000
0000
0000
0000
0001
0000
,
0000
0000
0010
0100
0000
1000
0020
0000
,
0130
0000
0000
0100
0000
0000
0100
0000
0000
0000
0001
0000
0000
0000
0010
0000
,
0000
0000
0100
1000
0000
0001
0200
0000
,
0301
0000
0000
0001
0000
0000
0001
0000
0000
0000
1000
0000
0000
0000
0001
0000
,
0000
0000
1000
0010
0000
1000
0200
0000
,
1300
0000
0000
1000
0000
0000
1000
0000
0000
0000
0001
0000
0000
0000
0100
0000
,
0001
0000
0000
0001
0000
0000
0001
0000
1000
0000
0000
1000
0000
0000
1000
0000
,
0020
0000
1030
0000
0010
0100
0001
0000
,
2000
0000
3001
0000
0010
0100
1000
0000
,
0002
0000
0013
0000
0001
1000
0100
0000
,
0020
0000
0130
0000
0010
0001
1000
0000
,
0010
1000
0000
0001
0000
0100
0000
0010
,
2002
0000
0000
3003
,
0010
1000
0001
0000
0010
0100
1000
0000
,
0001
0100
1000
0000
0001
0010
1000
0000
,
0100
0010
0001
0000
1000
0010
0001
0000
,
0100
0010
0100
0010
1000
0001
1000
0001
,
0010
0000
0001
0100
0000
0010
1000
0000
,
0100
0000
0010
0001
0000
1000
0001
0000
,
1000
0010
0100
0000
1000
0010
0001
0000
,
0010
0001
0010
0001
1000
0100
1000
0100
,
0010
0000
0001
1000
0000
0000
0001
0100
,
0000
0000
0001
1000
0000
0100
0020
0000
,
0130
0000
1000
0001
0000
0000
0010
1000
,
0000
0000
0100
0001
0000
1000
0020
0000
,
1030
0000
0000
1000
0000
0000
1000
0000
0000
0000
0010
0000
0000
0000
0100
0000
,
0000
0000
0100
0001
0000
0010
2000
0000
,
3010
0000
0000
0010
0000
0000
0010
0000
0000
0000
0001
0000
0000
0000
0100
0000
,
0000
0000
0100
1000
0000
0100
0002
0000
,
0103
0000
0000
0100
0000
0000
0100
0000
0000
0000
0001
0000
0000
0000
0010
0000
,
0000
0000
1000
0001
0000
0100
2000
0000
,
3001
0000
0000
0001
0000
0000
0001
0000
0000
0000
0010
0000
0000
0000
1000
0000
,
0010
0000
0000
0010
0000
0000
0010
0000
0100
0000
0000
0100
0000
0000
0100
0000
,
0020
0000
1030
0000
0100
0010
0001
0000
,
2000
0000
3001
0000
0010
1000
0100
0000
,
0002
0000
0103
0000
0010
1000
0001
0000
,
0200
0000
0310
0000
1000
0100
0001
0000
,
0010
0001
0000
0100
0000
1000
0000
0001
,
0220
0000
0000
0330
,
0010
0001
0100
0000
1000
0001
0010
0000
,
0001
0100
1000
0000
0010
0100
1000
0000
,
0001
0010
1000
0000
0100
0010
0001
0000
,
1000
0010
1000
0010
0100
0001
0100
0001
,
0010
0000
0100
1000
0000
0001
0100
0000
,
0001
0000
1000
0010
0000
1000
0100
0000
,
0010
0001
1000
0001
0010
1000
0100
0000
,
0010
1000
0010
1000
0001
0100
0001
0100
,
0020
1000
0001
0130
,
1000
0000
0001
0010
0000
0100
1000
0000
,
0002
1000
0010
0103
,
0001
0000
1000
0100
0000
0010
0001
0000
,
2000
0010
0100
3001
,
0010
0000
0001
1000
0000
0010
0100
0000
,
0200
1000
0001
0310
,
0001
0010
0001
0010
0100
1000
0100
1000
,
0010
0000
0000
0000
;

//---------------dance-single - ----------------
#NOTES:
     dance-single:
     :
     Hard:
     13:
     :
0000
0000
0000
0000
,
0000
0000
0000
0000
,
0000
0000
0000
0000
,
0000
0000
0000
0000
,
0000
0000
0000
0000
,
1010
0000
0101
0000
0000
0001
0010
0100
,
1000
0000
0010
0100
0010
0000
0000
0000
2000
0000
0000
0000
3002
0000
0000
0000
,
0013
0000
0011
0000
0001
0100
0010
1000
,
0100
0100
0010
0010
0001
0001
1000
1000
,
0010
0000
0001
1000
0000
0010
1000
0100
,
0000
0010
0001
1000
0000
0010
0210
0000
,
0301
0000
0010
0100
0000
1000
0001
0010
,
0000
0100
0010
0001
0000
1000
1020
0000
,
0130
0000
0000
0100
0001
0000
1000
0000
0000
0000
0010
0000
1000
0000
0100
0000
,
0000
0010
0001
1000
0000
0001
2001
0000
,
3100
0000
0000
1000
0001
0000
0100
0000
0000
0000
0010
0000
1000
0000
0100
0000
,
0000
1000
0001
0010
0000
0100
1200
0000
,
0301
0000
0000
0100
1000
0000
0001
0000
0000
0000
1000
0000
0010
0000
0100
0000
,
0000
0001
0010
0100
0000
1000
1002
0000
,
0013
0000
0000
0010
0001
0000
0100
0000
0000
0000
0001
0000
1000
0000
0010
0100
,
0010
0000
0000
1000
0000
0000
0001
0000
0010
0000
0000
0100
0000
0000
1000
0000
,
0101
0000
0010
1000
0100
0010
0001
0000
,
1000
0001
0010
1000
0010
0100
1000
0000
,
1010
0000
0100
0001
0010
0100
1000
0000
,
0001
0100
1000
0100
0010
1000
0001
0000
,
1000
0010
0001
0100
0010
1000
0001
0010
,
2002
0000
0000
3003
,
0010
1000
0100
0001
0100
0010
0100
1000
,
0010
0001
0010
1000
0100
0010
1000
0001
,
0010
0001
0100
0010
1000
0001
0010
0100
,
0001
0001
0100
0100
0010
0010
1000
1000
,
0100
0001
0010
0001
0100
0010
1000
0001
,
0010
1000
0010
0100
0010
0001
0100
1000
,
0100
0010
1000
0001
0010
0100
1000
0001
,
0010
0010
0100
0100
1000
1000
0001
0001
,
0100
0000
0010
1000
0000
0100
0010
0001
,
0000
1000
0001
0100
0000
0010
0120
0000
,
0031
0000
1000
0100
0000
0010
0001
0100
,
0000
0001
1000
0010
0000
0100
0102
0000
,
0013
0000
0000
0001
0010
0000
0100
0000
0000
0000
1000
0000
0001
0000
0100
0000
,
0000
1000
0001
0010
0000
1000
2010
0000
,
3100
0000
0000
0010
0001
0000
1000
0000
0000
0000
0001
0000
1000
0000
0010
0000
,
0000
1000
0100
0001
0000
0010
0021
0000
,
0130
0000
0000
0001
1000
0000
0010
0000
0000
0000
1000
0000
0100
0000
0010
0000
,
0000
0100
1000
0001
0000
0100
0201
0000
,
1300
0000
0000
0100
0001
0000
0010
0000
0000
0000
0100
0000
1000
0000
0001
0100
,
0001
0000
0000
0010
0000
0000
0100
0000
1000
0000
0000
0010
0000
0000
0100
0000
,
1010
0000
0001
1000
0010
1000
0100
0000
,
0010
1000
0010
0100
1000
0001
0100
0000
,
0011
0000
1000
0001
0010
1000
0100
0000
,
0010
1000
0100
0001
0010
0100
1000
0000
,
0001
1000
0010
0100
0001
0010
0100
1000
,
0220
0000
0000
0330
,
0001
1000
0100
0001
0100
0010
0100
0001
,
1000
0010
0001
0010
0100
1000
0100
0010
,
0100
0001
0010
0100
1000
0001
0100
0010
,
1000
1000
0100
0100
0010
0010
0001
0001
,
0010
1000
0010
0001
0100
0010
0001
0100
,
0010
1000
0100
0001
0100
0010
1000
0001
,
0010
0001
0100
1000
0100
0001
1000
0100
,
0010
0010
0001
0001
1000
1000
0100
0100
,
1000
0000
0000
0000
1000
0000
0000
0001
0010
0000
0100
0000
1000
0000
0000
0000
,
0001
0100
0010
1000
0100
0010
0001
0000
,
0100
0000
0000
0000
0100
0000
0000
0010
1000
0000
0001
0000
0100
0000
0000
0000
,
0001
1000
0010
0100
0001
0010
1000
0000
,
0001
0000
0000
0000
0001
0000
0000
1000
0010
0000
0100
0000
0001
0000
0000
0000
,
0010
0001
1000
0001
0100
0010
1000
0000
,
0100
1000
0001
0010
0100
1000
0010
0000
,
0001
0001
1000
1000
0010
0010
0100
0100
,
1001
0000
0000
0000
;
