#TITLE:Somebody Told Me;
#ARTIST:The Killers;
#BANNER:Somebody Told Me-bn.png;
#BACKGROUND:Somebody Told Me-bg.png;
#JACKET:Somebody Told Me-jacket.png;
#MUSIC:Somebody Told Me.ogg;
#OFFSET:-0.05;
#SAMPLESTART:65.05;
#SAMPLELENGTH:20;
#DISPLAYBPM:138;
#BPMS:0=138;
#BGCHANGES:;

//---------------dance-single - ----------------
#NOTES:
     dance-single:
     :
     Beginner:
     3:
     :
0000
0000
0000
0000
,
0000
0000
0000
0000
,
0000
0000
0000
0000
,
0000
0000
0000
0000
,
0000
0001
0000
0001
,
0000
1000
0000
1000
,
0000
0010
0000
0010
,
0000
0100
0000
0100
,
0000
0001
0000
0010
,
0000
0100
0000
1000
,
0000
0010
0000
0100
,
0000
0001
0000
0000
,
1000
0000
0001
0000
,
0100
0000
0110
0000
,
0010
0000
1000
0000
,
0100
0000
0010
0000
,
1001
0000
0000
0000
,
0001
0000
1000
0000
,
0001
0000
0010
0000
,
1000
0000
0100
0000
,
1000
0000
0001
0000
,
0100
0000
0110
0000
,
0010
0000
1000
0000
,
0100
0000
0001
0000
,
0100
0000
1001
0000
,
0010
0000
0100
0000
,
0001
0000
1001
0000
,
0010
0000
0100
0000
,
0010
0000
0110
0000
,
1000
0000
0001
0000
,
0000
1000
0000
0100
,
0000
0000
0100
0000
,
0010
0000
0000
1000
,
1000
0000
0001
0000
,
0010
0000
0001
0000
,
0100
0000
0010
0000
,
1001
0000
0110
0000
,
1000
1000
0000
0000
,
0001
0000
0001
0000
,
0010
0000
0010
0000
,
0100
0000
0100
0000
,
1000
0000
1000
0000
,
0010
0000
1000
0000
,
0100
0000
1000
0000
,
0001
0000
0010
0000
,
0001
0000
0100
0000
,
0010
0000
0010
0000
,
0100
0000
0100
0000
,
1000
0000
0001
0000
,
1000
0000
0001
0000
,
0010
0000
0001
0000
,
0010
0000
0001
0000
,
0100
0000
1000
0000
,
0100
0000
1000
0000
,
0010
0000
0010
0000
,
1000
0000
1000
0000
,
0100
0000
0100
0000
,
0001
0000
0001
0000
,
1001
0000
0010
0000
,
0110
0000
0100
0000
,
0001
0000
0100
0000
,
0010
0000
0110
0000
,
1001
0000
0000
0000
;

//---------------dance-single - ----------------
#NOTES:
     dance-single:
     :
     Easy:
     7:
     :
0000
0000
0000
0000
,
0000
0000
0000
0000
,
0000
0000
0000
0000
,
0000
0000
0000
0000
,
1000
1000
1000
1000
,
0001
0001
0001
0001
,
0100
0100
0100
0100
,
0010
0010
0010
0010
,
1000
1000
0100
0100
,
0010
0010
0001
0001
,
0100
0100
0010
0010
,
1000
1000
0001
0001
,
1000
0100
1001
0100
,
0001
0010
2000
3000
,
0100
0010
0110
1000
,
0010
0100
0001
1000
,
0200
0300
0020
0030
,
0002
0003
2000
3000
,
0010
1000
0101
0001
,
0010
0001
0200
0300
,
0010
1000
1100
0010
,
1000
0100
0002
0003
,
0010
0001
0110
1000
,
0010
1000
0100
0010
,
0001
0100
0002
0003
,
2000
3000
0020
0030
,
1000
0100
1100
0001
,
0010
0100
1000
1001
,
0010
0100
0101
0010
,
0001
0100
1000
0000
,
0000
0001
1000
0100
,
1000
0001
0100
0010
,
2000
3000
0001
1000
,
0202
0300
0020
0033
,
1000
0001
1100
0010
,
0100
0010
1000
0100
,
1000
0001
0100
0000
,
1001
0110
0001
0001
,
0010
0001
0100
1000
,
0010
1000
0100
0001
,
1000
0100
0010
0001
,
0100
0010
0100
0001
,
0010
0001
0100
1000
,
0010
1000
0010
0100
,
0010
1000
0100
0010
,
0001
0100
0010
1000
,
1100
0001
1000
0100
,
0110
0010
0001
0100
,
1001
0001
0010
1000
,
0101
0010
0001
0100
,
1000
1000
0010
1000
,
0100
0100
0010
0001
,
1000
0001
0100
0010
,
1100
0101
1000
0001
,
1001
0010
1000
0100
,
0110
0010
0001
0100
,
0001
0010
0100
1000
,
0010
1100
0010
0101
,
1000
0001
0010
0010
,
0001
0100
1000
1000
,
0010
0100
0110
0001
,
1000
1001
0010
0100
,
0001
0000
0000
0000
;

//---------------dance-single - ----------------
#NOTES:
     dance-single:
     :
     Medium:
     9:
     :
0000
0000
0000
0000
,
0000
0000
0000
0000
,
0000
0000
0000
0000
,
0000
0000
0000
0000
,
0000
0000
0001
1000
0000
0000
0010
0100
,
0000
0000
0000
0000
0001
0010
0001
0000
0000
0000
0000
0000
0100
0000
0010
0000
,
0000
0000
1000
0100
0000
0000
0010
0001
,
0000
0000
0100
0001
0000
0000
1000
0010
,
0000
0000
1000
1000
0000
0000
0001
0001
,
0000
0000
0100
0100
0000
0000
0010
0010
,
0000
0000
1000
0001
0000
0000
0010
0100
,
0000
0000
0000
0000
1000
0000
0000
1000
0001
0000
0000
0001
1000
0000
0000
1000
,
0001
0100
0010
0000
0110
0000
0010
1000
,
0100
0020
0000
0032
0000
0000
0003
0000
,
0010
0001
0100
0000
1001
0000
0010
1000
,
0100
1000
0000
0001
0000
0100
0000
0010
,
2000
0000
3001
0100
0002
0000
0013
0000
,
0001
0100
0001
0000
1000
0100
1000
0000
,
0001
1000
0100
0000
1100
0000
0010
0100
,
0010
0002
0000
2003
0000
0000
3000
0100
,
1000
0001
0010
0000
0011
0000
0001
0100
,
0001
2000
0000
3200
0000
0000
0300
0000
,
0010
0001
0100
0000
0101
0000
1000
0001
,
0000
1100
0000
0010
0000
0100
0000
0001
,
0020
0000
0031
0100
2000
0000
3000
0000
,
0200
0000
1300
0001
0200
0000
0300
0010
,
1000
0100
1000
0000
1001
0000
0001
0010
,
0001
0100
0000
0010
0000
1000
0001
0000
,
0010
0001
0100
0000
0110
0000
0001
0010
,
0001
1000
0000
0100
0000
1000
0001
0000
,
1010
0000
0001
1000
0020
0000
0230
0000
,
0301
0010
2000
0000
3200
0000
0310
0001
,
0010
0100
0000
1000
0000
0001
1000
0000
,
0201
0010
0302
1003
,
0010
1000
0200
0000
0320
0000
0031
0100
,
0001
2000
0000
3020
0000
2030
0000
3200
,
0000
0320
0000
0032
0000
0000
0003
0000
,
0011
0000
1100
0000
0001
0100
0010
1000
,
0000
0101
0000
0000
0001
0010
0100
1000
,
0000
1100
0000
0010
1000
0100
1000
0001
,
0000
0011
0000
0001
0010
0100
1000
0001
,
0000
1001
0000
0110
0000
1000
0100
0001
,
0000
1010
0000
0001
0010
0001
0100
0010
,
0000
1010
0000
0000
0100
0010
1000
0001
,
0000
0011
0000
0000
0001
0100
0010
1000
,
0100
0010
0001
0000
1000
0001
0100
0010
,
0000
0101
0000
0000
0010
0001
0100
1000
,
0000
1100
0000
0100
1000
0010
0100
0001
,
0000
1001
0000
0010
0001
0010
0100
1000
,
0000
0110
0000
0011
0000
0010
0001
1000
,
0000
0101
0000
1000
0100
1000
0001
1000
,
0000
1001
0000
0000
0010
0100
0001
1000
,
0000
1010
0000
0000
1000
0100
0010
0001
,
0100
0010
1000
0000
0010
0100
0001
1000
,
0000
1100
0000
0000
1000
0100
0010
0001
,
0000
0110
0000
0100
0001
1000
0001
0010
,
0000
1100
0000
1000
0010
0100
0001
0010
,
0000
1001
0000
0011
0000
0010
0100
1000
,
0000
0000
1010
0000
0000
0000
1000
0000
0001
0000
0000
0100
0000
0000
0010
0000
,
1000
0000
0100
0000
0000
0000
0000
0000
1000
0000
0000
0001
0000
0000
0010
0000
,
0001
1000
0000
0000
0001
0010
0100
0010
,
0001
0100
1000
0000
0110
0000
0101
0000
,
0001
1000
0000
0000
0000
0000
0000
0000
;

//---------------dance-single - ----------------
#NOTES:
     dance-single:
     :
     Hard:
     13:
     :
0000
0000
0000
0000
,
0000
0000
0000
0000
,
0000
0000
0000
0000
,
0000
0000
0000
0000
,
1000
0100
0010
0010
0001
0100
0010
0010
,
1000
0000
0001
0000
0010
0100
0010
0000
0001
0000
1000
0000
0100
0000
0100
0000
,
0010
0001
1000
1000
0010
0100
0001
0001
,
0010
0100
1000
1000
0001
0100
0010
0010
,
1000
0100
0020
0032
0103
0010
2000
3002
,
0013
0001
0020
0230
1300
0001
2000
3200
,
0310
0100
2000
3020
1030
0001
0200
0302
,
0013
0000
0100
0000
0001
0000
1000
0100
1000
0000
0000
0001
0010
0000
0000
0001
,
0100
0010
1000
0000
1100
0000
0001
0100
,
0010
0001
0010
1000
0100
0010
0001
0000
,
0100
0001
0010
0000
0011
0100
1000
0001
,
0100
1000
0100
0010
0001
0010
1000
0001
,
0102
0000
0013
0100
2000
0000
3001
0100
,
0010
1000
0100
1000
0001
0100
0001
0010
,
0100
1000
0001
0000
1010
0000
0010
0100
,
0010
0001
0010
1000
0100
0010
0001
1000
,
0010
0100
0001
0000
1001
0100
0010
1000
,
0100
0001
0010
0001
0100
0010
1000
0000
,
0100
1000
0010
0000
0110
0000
1000
0001
,
0010
0100
1000
0010
0100
0010
1000
0001
,
0012
0000
0013
1000
0201
0000
0301
0100
,
2010
0000
3100
1000
2100
0000
3001
0010
,
0100
1000
0001
0000
0110
0000
0001
0100
,
0001
0010
0100
1000
0000
0010
0100
0100
,
0001
0010
1000
0000
1001
0000
0100
1000
,
0010
0100
0001
1000
0010
0100
0100
0000
,
1010
0000
0001
1000
0020
0000
0230
0000
,
0301
0010
2000
0000
3200
0000
1300
0001
,
0010
0100
0010
0001
0100
0010
1000
0000
,
0102
0000
1003
0001
0200
0010
0310
0000
,
1000
0001
0010
0000
1001
0001
0100
1000
,
0010
1000
0100
0020
0000
0032
0000
1003
,
0010
1000
0100
1000
0001
0000
0100
0010
,
0101
0000
1010
1000
0100
0010
0001
0100
,
0010
1000
0100
0001
0100
0010
0100
0001
,
0100
0010
0100
1000
0100
0001
0100
1000
,
0100
0001
0100
0010
0001
0100
1000
0100
,
0000
0110
0000
1001
0000
0001
0100
1000
,
0000
1100
0001
0100
0010
0001
0010
1000
,
0100
0001
0100
0010
0100
0001
0100
1000
,
0010
0100
0010
1000
0002
0100
0103
2000
,
0010
3010
0100
0100
0001
1000
0001
0100
,
0010
0001
0010
1000
0100
0001
0100
0010
,
0100
0001
0100
0010
0100
0001
0100
1000
,
0010
0001
0010
0100
0010
0001
0010
1000
,
0000
1100
0000
0011
0000
0010
0001
1000
,
0000
0011
0100
0001
0010
1000
0010
0100
,
0010
1000
0010
0001
0010
0100
0010
1000
,
0010
0001
0010
0100
2000
0001
3001
0020
,
1000
1030
0100
0000
0110
0001
0010
0100
,
1000
0010
0100
0010
1000
0100
0010
0001
,
0100
0010
0100
1000
0100
0001
0010
0100
,
0010
1000
0010
0001
0100
0010
0100
0001
,
0000
1001
0000
0110
0000
0001
0010
1000
,
0000
0000
0100
0000
0010
0000
0001
0000
0011
0000
0000
0110
0000
0000
1100
0000
,
0001
0000
1000
0000
0010
0000
0100
0000
0101
0000
0000
1001
0000
0000
1010
0000
,
1000
0100
0001
0010
0200
1000
1300
0002
,
0100
0000
0103
0000
1000
0010
1000
0000
0100
0000
0010
0000
0001
0000
0100
0000
,
0101
1100
0000
0000
0000
0000
0000
0000
;
