#TITLE:Soft Paws;
#ARTIST:Ryu*;
#BANNER:Soft Paws-bn.png;
#BACKGROUND:Soft Paws-bg.png;
#JACKET:Soft Paws-jacket.png;
#MUSIC:Soft Paws.ogg;
#OFFSET:0.937;
#SAMPLESTART:30.938;
#SAMPLELENGTH:20;
#DISPLAYBPM:128;
#BPMS:0=128;
#BGCHANGES:;

//---------------dance-single - ----------------
#NOTES:
     dance-single:
     :
     Beginner:
     3:
     :
0000
0000
0000
0000
,
0000
0000
0000
0000
,
0000
0000
0000
0000
,
0000
0000
0000
0000
,
0000
0000
0000
0000
,
0010
0000
0100
0000
,
0010
0000
1000
0000
,
0010
0000
0001
0000
,
0010
0000
0000
0000
,
1000
1000
0000
0001
,
0000
0000
0000
0010
,
0000
0000
0000
0100
,
0000
0000
0010
0010
,
0000
0000
0000
0001
,
0000
0000
0000
1000
,
0000
0000
0000
0010
,
0000
0000
1000
1000
,
1000
0000
0010
0000
,
0100
0100
0000
0000
,
0001
0000
0010
0000
,
0001
0001
0000
1000
,
1000
0000
0001
0000
,
0010
0010
0000
0000
,
0100
0000
0010
0000
,
0001
0000
0100
0100
,
0100
0000
0010
0000
,
1000
0000
0001
0000
,
1000
0000
0100
0000
,
0010
0000
0001
0000
,
0100
0000
0010
0000
,
0100
0000
0001
0000
,
1000
0000
0010
0000
,
1000
0000
0001
0001
,
0000
0000
0000
0010
,
0000
0000
0000
0010
,
0000
0000
0000
0010
,
0000
0000
0001
0001
,
0000
0000
0000
0100
,
0000
0000
0000
0100
,
0000
0000
0000
0100
,
0000
0000
0010
0010
,
0000
0000
0000
1000
,
1000
0000
0100
0000
,
1000
1000
0000
0000
,
0010
0000
0100
0000
,
0001
0001
0000
1000
,
1000
0000
0100
0000
,
0010
0010
0000
0000
,
0100
0000
1000
0000
,
0001
0000
0100
0100
,
0100
0000
0010
0000
,
1000
1000
1000
0000
,
0001
0000
0010
0000
,
0100
0100
0000
0010
,
0010
0000
0001
0000
,
0100
0100
0100
0000
,
0010
0000
1000
0000
,
0001
0000
0100
0100
,
0100
0000
0000
0000
;

//---------------dance-single - ----------------
#NOTES:
     dance-single:
     :
     Easy:
     7:
     :
0000
0000
0000
0000
,
0000
0000
0000
0000
,
0000
0000
0000
0000
,
0000
0000
0000
0000
,
0000
0000
0000
0000
,
0010
0010
0100
0100
,
0010
0010
1000
1000
,
0010
0010
0001
0001
,
1001
0110
1001
0110
,
0000
0000
0000
0000
0000
0000
0000
0000
0000
0000
1000
0100
1000
0100
1000
0000
,
0000
0000
0000
0000
0000
0000
0000
0000
0000
0000
0001
0100
0001
0100
0001
0000
,
0000
0000
0000
0000
0000
0000
0000
0000
0000
0000
0100
0010
0100
0010
0100
0000
,
0000
0000
0000
0000
0001
0010
0100
1000
,
0000
0000
0000
0000
0000
0000
0000
0000
0000
0000
0001
0010
0001
0010
0001
0000
,
0000
0000
0000
0000
0000
0000
0000
0000
0000
0000
1000
0010
1000
0010
1000
0000
,
0000
0000
0000
0000
0000
0000
0000
0000
0000
0000
0001
1000
0001
1000
0001
0000
,
0000
0000
0000
0000
0100
0010
0100
0000
,
0001
0010
0001
1000
,
0100
0000
0000
1000
0000
0000
0020
0000
0000
0000
0000
0000
0000
0000
0000
0000
,
0130
0010
1000
0010
,
1000
0000
0000
0001
0000
0000
0010
0000
0000
0000
0001
0000
1000
0000
0001
0000
,
0100
0001
0010
0100
,
1000
0000
0000
0001
0000
0000
0200
0000
0000
0000
0000
0000
0000
0000
0000
0000
,
0310
0100
0010
1000
,
0001
0000
0010
0000
0001
1000
0100
0000
,
0010
0001
0100
1000
,
0010
0100
0010
1000
,
0100
0010
0001
0100
,
0001
0000
0010
0000
0001
1000
0010
0100
,
0001
0010
0001
0100
,
1000
0001
0010
1000
,
0100
0010
0100
1000
,
0010
0000
0100
0000
0010
1000
0001
0000
,
0000
0000
0000
0000
0000
0000
0000
0000
0000
0000
0010
0001
0010
0001
0010
0000
,
0000
0000
0000
0000
0000
0000
0000
0000
0000
0000
0100
1000
0100
1000
0100
0000
,
0000
0000
0000
0000
0000
0000
0000
0000
0000
0000
1000
0001
1000
0001
1000
0000
,
0000
0000
0000
0000
1000
0100
0010
0001
,
0000
0000
0000
0000
0000
0000
0000
0000
0000
0000
0100
0001
0100
0001
0100
0000
,
0000
0000
0000
0000
0000
0000
0000
0000
0000
0000
0010
1000
0010
1000
0010
0000
,
0000
0000
0000
0000
0000
0000
0000
0000
0000
0000
0010
0100
0010
0100
0010
0000
,
0000
0000
0000
0000
1000
0001
0100
0000
,
1001
0000
0110
0000
0000
0010
0100
0010
,
0100
0001
0010
0100
,
1000
0000
0000
0010
0000
0000
2000
0000
0000
0000
0000
0000
0000
0000
0000
0000
,
3001
0010
0001
1000
,
0010
0000
0000
0100
0000
0000
0001
0000
0000
0000
1000
0000
0100
0000
1000
0000
,
0001
0010
0100
0010
,
0100
0000
0000
1000
0000
0000
0002
0000
0000
0000
0000
0000
0000
0000
0000
0000
,
0013
0001
0100
1000
,
0010
0000
1000
0000
0001
0100
0010
0000
,
1000
0001
0010
0100
,
1000
0000
0000
0000
0010
0000
0000
0000
0000
0000
1000
0001
1000
0001
1000
0000
,
0010
0100
0010
1000
,
0100
0000
0000
0010
0000
0000
0001
0000
0000
0000
1000
0000
0001
0000
0100
0000
,
0010
0100
0001
1000
,
0001
0000
0000
0000
0010
0000
0000
0000
0000
0000
0100
0010
0100
0010
0100
0000
,
1000
0010
0100
0001
,
0010
0000
0001
0000
0100
0001
2000
0000
,
0200
0000
3000
0000
,
0000
0000
0300
0000
;

//---------------dance-single - ----------------
#NOTES:
     dance-single:
     :
     Medium:
     10:
     :
0000
0000
0000
0000
,
0000
0000
0000
0000
,
0000
0000
0000
0000
,
0000
0000
0000
0000
,
0000
0000
0000
0000
,
0010
0000
0010
0000
0100
0001
0100
0001
,
0010
0000
0010
0000
0100
1000
0100
1000
,
0010
0000
0010
0000
0100
0010
0100
0010
,
2000
3200
0320
0032
,
0103
0010
0100
0010
0000
1000
0001
1000
,
0000
0010
1000
0010
0000
0100
0001
0100
,
0000
0001
0010
0001
0000
1000
0100
1000
,
0000
0001
0000
1000
0010
1000
0001
0100
,
0010
0100
0001
1000
0000
0100
0010
0001
,
0000
0100
0010
1000
0000
0001
1000
0100
,
0000
1000
0001
0010
0000
0100
1000
0100
,
0010
0000
0010
0000
0001
1000
0001
0000
,
1000
0000
0010
0000
1000
0000
0010
0000
0100
0000
0000
0100
0000
0000
0100
0000
,
0001
0000
1000
0001
0000
1000
0002
0000
0000
0000
0000
0000
0000
0000
0000
0000
,
0013
0000
0001
0000
0010
0000
0001
0000
1000
0000
0000
1000
0000
0000
1000
0000
,
0100
0000
0010
0100
0000
0010
0100
0000
0000
0000
0010
0000
0001
0000
1000
0000
,
0001
0000
0100
0000
0001
0000
0100
0000
0010
0000
0000
0010
0000
0000
0010
0000
,
1000
0000
0100
1000
0000
0100
2000
0000
0000
0000
0000
0000
0000
0000
0000
0000
,
3001
0000
1000
0000
0001
0000
1000
0000
0010
0000
0000
0010
0000
0000
0010
0000
,
0100
0000
0000
0100
0000
0000
0100
0000
0001
0000
1000
0000
0001
0000
0000
0000
,
0010
0001
0010
0000
1000
0100
1000
0000
,
0001
0100
0010
0000
1000
0001
0100
0000
,
0001
0010
0100
0000
0010
0001
1000
0000
,
0010
0100
0001
0000
1000
0100
1000
0001
,
1000
0010
1000
0000
0001
0100
0010
0000
,
0100
0001
1000
0000
0001
0010
0100
0000
,
0010
0001
0100
0000
1000
0010
0001
0000
,
0100
0000
0000
0100
0000
0000
0100
0000
0001
0000
1000
0000
0001
0000
0000
0000
,
0000
0010
0000
0001
0000
0100
0010
1000
,
0000
0001
0000
1000
0000
0010
0100
0010
,
0000
0100
0000
0001
0000
0010
0001
1000
,
0000
0100
0000
0010
0001
0100
0001
1000
,
0001
0000
1000
0000
0000
0010
1000
0100
,
0010
0000
0001
0000
0000
1000
0001
0100
,
0010
0000
1000
0000
0000
0100
1000
0001
,
0010
0001
0100
0000
0010
1000
0001
0000
,
1001
0000
0110
0000
0000
0001
0100
1000
,
0010
0000
1000
0000
0010
0000
1000
0000
0100
0000
0000
0100
0000
0000
0100
0000
,
0010
0000
0001
1000
0000
0001
2000
0000
0000
0000
0000
0000
0000
0000
0000
0000
,
3100
0000
1000
0000
0100
0000
1000
0000
0001
0000
0000
0001
0000
0000
0001
0000
,
0100
0000
0010
1000
0000
0010
1000
0000
0000
0000
0001
0000
1000
0000
0100
0000
,
0010
0000
0001
0000
0010
0000
0001
0000
1000
0000
0000
1000
0000
0000
1000
0000
,
0001
0000
0100
0010
0000
0100
0020
0000
0000
0000
0000
0000
0000
0000
0000
0000
,
0130
0000
0001
0000
0100
0000
0001
0000
0010
0000
0000
0010
0000
0000
0010
0000
,
0001
0000
0000
0001
0000
0000
0001
0000
1000
0000
0100
0000
1000
0000
0000
0000
,
0010
0000
1000
0000
0100
0000
0010
0000
0001
0000
0000
0100
0000
0000
0001
0000
,
0010
0000
0100
1000
0000
0100
2000
0000
0000
0000
0000
0000
0000
0000
0000
0000
,
3010
0000
1000
0000
0001
0000
1000
0000
0100
0000
0000
0010
0000
0000
0001
0000
,
0100
0000
0010
1000
0000
0010
1000
0000
0000
0000
0001
0000
0100
0000
0001
0000
,
1000
0000
0001
0000
0010
0000
0100
0000
0010
0000
0000
0001
0000
0000
1000
0000
,
0001
0000
0100
0010
0000
0100
0020
0000
0000
0000
0000
0000
0000
0000
0000
0000
,
1030
0000
0100
0000
0010
0000
0001
0000
1000
0000
0000
0001
0000
0000
0100
0000
,
0010
0000
0000
1000
0000
0000
0001
0000
0100
0000
0010
0000
1000
0000
0002
0000
,
0200
0000
0000
0000
,
0000
0000
0303
0000
;

//---------------dance-single - ----------------
#NOTES:
     dance-single:
     :
     Hard:
     13:
     :
0000
0000
0000
0000
,
0000
0000
0000
0000
,
0000
0000
0000
0000
,
0000
0000
0000
0000
,
0000
0000
0000
0000
,
0010
1000
0010
0001
0100
1000
0100
0001
,
0010
1000
0010
0001
0100
1000
0100
0001
,
0010
1000
0010
0001
0100
1000
0100
0001
,
1001
1010
1001
0011
,
0001
0000
0100
0000
0010
0000
1000
0000
0100
0000
0010
0001
0010
0000
0100
0000
,
1000
0010
1000
0000
0001
0000
0100
0000
0010
0000
1000
0001
1000
0000
0100
0000
,
0010
0001
0010
0000
1000
0000
0010
0000
0100
0000
1000
0001
1000
0000
0100
0000
,
0010
0100
0010
0000
0001
0000
1000
0100
1000
0000
0001
0000
0100
0000
0010
0000
,
0001
0000
0010
0000
1000
0000
0010
0000
0100
0000
0001
1000
0001
1000
0001
0000
,
0100
0000
0010
0000
0001
0000
0010
0000
1000
0000
0001
0100
0001
0100
0001
0000
,
1000
0000
0010
0000
0100
0000
1000
0000
0100
0000
0001
0010
0001
0000
1000
0000
,
0010
0100
0010
0000
1000
0000
0001
0000
0100
0000
0110
0000
0110
0000
0000
0000
,
1000
0000
1000
0000
0001
0000
0001
0000
0200
0000
0000
0010
0000
0000
0001
0000
,
0301
0000
1000
0100
0000
0100
0020
0000
0000
0000
0031
1000
0001
1000
0001
0000
,
0100
0000
0100
0000
0010
0000
0010
0000
2000
0000
0000
0001
0000
0000
0010
0000
,
3010
0000
0100
0001
0000
0001
2000
0000
0000
0000
3100
0000
1000
0000
0010
0000
,
1000
0000
1000
0000
0100
0000
0100
0000
0020
0000
0000
0001
0000
0000
0100
0000
,
0130
0000
0010
0001
0000
0001
2000
0000
0000
0000
3010
0100
0010
0100
0010
0000
,
0100
0000
0100
0000
0001
0000
0001
0000
2000
0000
0000
0010
0000
0000
0001
0000
,
3001
0000
0100
0010
0000
0010
1000
0000
1100
0000
0110
0000
0011
0000
0000
0000
,
0100
0000
0010
0000
0100
0000
1000
0000
0100
0000
0001
0010
0001
0000
1000
0000
,
0100
0000
0010
0000
0001
1000
0001
0000
0100
0000
0010
0000
1000
0100
1000
0000
,
0100
0000
0001
0000
0100
0000
0010
0000
1000
0000
0010
0001
0010
0000
0100
0000
,
1000
0000
0010
0000
0100
0001
0100
0000
0010
0000
1000
0000
0001
0000
1000
0000
,
0100
0000
0001
0000
0100
0000
1000
0000
0010
0000
0100
0001
0100
0000
1000
0000
,
0100
0000
0010
0000
0100
0001
0100
0000
0010
0000
1000
0001
1000
0000
0100
0000
,
0001
0000
0100
0000
0010
0000
0100
0000
1000
0000
0001
0010
0001
0000
1000
0000
,
0010
0000
0100
0000
0001
1000
0001
0000
0011
0000
0110
0000
1100
0000
0000
0000
,
1000
0000
0001
0000
1000
0000
0010
0000
0000
0000
0100
0001
0100
0001
0100
0000
,
0010
0000
0001
0000
0010
0000
1000
0000
0000
0000
0100
1000
0100
1000
0100
0000
,
0010
0000
0100
0000
1000
0000
0001
0000
0000
0000
1000
0010
1000
0010
1000
0000
,
0001
0000
0100
0000
0010
0000
1000
0001
1000
0000
0100
0000
0010
0000
0001
0000
,
0010
1000
0010
0001
0100
1000
0100
0001
,
0010
1000
0010
0001
0100
1000
0100
0001
,
0010
1000
0010
0001
0100
1000
0100
0001
,
1001
0000
1010
0000
1100
0100
0001
0000
,
0012
0000
1000
0000
0000
1000
1000
1003
,
0010
0000
0010
0000
0100
0000
0100
0000
0002
0000
0000
1000
0000
0000
0010
0000
,
0013
0000
0001
0100
0000
0010
2000
0000
0000
0000
3100
0010
0001
0010
0100
0000
,
1000
0000
1000
0000
0001
0000
0001
0000
0020
0000
0000
0100
0000
0000
1000
0000
,
1030
0000
0010
0001
0000
1000
0200
0000
0000
0000
0301
0000
0100
0000
0010
0000
,
0001
0000
0001
0000
0100
0000
0100
0000
0020
0000
0000
1000
0000
0000
0001
0000
,
0031
0000
0010
1000
0000
0001
0200
0000
0000
0000
0310
1000
0100
1000
0010
0000
,
1000
0000
1000
0000
0100
0000
0100
0000
2000
0000
0000
0010
0000
0000
0001
0000
,
3001
0000
0010
0001
0000
1000
0100
0000
1001
0000
0110
0000
1001
0000
0000
0000
,
0010
0000
1000
0000
0100
0000
1000
0000
0001
0000
0010
0001
0000
0001
0100
0000
,
0010
0000
1000
0100
0000
0100
0020
0000
0000
0000
0031
1000
0001
1000
0001
0000
,
0100
0000
1000
0000
0100
0000
0010
0000
0100
0000
0001
0010
0000
0001
1000
0000
,
0010
0000
1000
0001
0000
1000
0002
0000
0000
0000
0100
0000
0103
0000
0010
0000
,
1000
0000
0001
0000
0010
0000
1000
0000
0010
0000
0001
0100
0000
0100
1000
0000
,
0010
0000
0100
0001
0000
0100
0002
0000
0000
0000
1003
0010
1000
0010
1000
0000
,
0100
0000
0100
0000
0010
0000
0010
0000
0002
0000
0000
2003
0000
0000
3100
1000
,
0010
0000
0000
0001
0000
0000
1000
0000
1001
0000
0101
0000
0011
0000
0100
0020
,
0200
0000
0000
0000
,
0000
0000
0330
0000
;
