#TITLE:Snow Crystal;
#ARTIST:soyomogi;
#BANNER:Snow Crystal-bn.png;
#BACKGROUND:Snow Crystal-bg.png;
#JACKET:Snow Crystal-jacket.png;
#MUSIC:Snow Crystal.ogg;
#SAMPLESTART:37.808;
#SAMPLELENGTH:20;
#DISPLAYBPM:146;
#BPMS:0=146;
#BGCHANGES:;

//---------------dance-single - ----------------
#NOTES:
     dance-single:
     :
     Beginner:
     6:
     :
0000
0000
0000
0000
,
0000
0000
0000
0000
,
0000
0000
0000
0000
,
0000
0000
0000
0000
,
0001
0000
0100
0000
,
1000
0000
0010
0000
,
1000
0000
0001
0000
,
0100
0010
0100
0010
,
0100
0000
0001
0000
,
1000
0100
1000
0000
,
0001
0000
0100
0000
,
0001
0010
0001
1000
,
0010
0100
0100
0001
,
0001
1000
0100
0010
,
0001
0000
1000
0000
,
0010
0010
0010
0100
,
0001
0000
1000
0000
,
0010
1000
0100
0000
,
0010
0000
0001
0000
,
0100
0010
1000
0001
,
1000
0000
0100
0000
,
1000
0000
0100
0000
,
0010
0001
0100
0000
,
0110
0000
1000
0000
,
0001
0000
0100
0000
,
0010
0000
1000
0000
,
0001
0000
1001
0000
,
0010
0000
0100
0000
,
0001
0000
1000
0000
,
0010
0000
1000
0000
,
0100
0000
0010
0000
,
0001
0000
1000
0001
,
1000
0000
0010
0100
,
0010
0000
0110
0000
,
0001
0100
1000
0000
,
0010
1000
0001
0000
,
0100
0000
1001
0000
,
0010
0000
0002
0000
,
0003
0000
1000
0000
,
0100
0000
0010
0000
,
0110
0000
1001
0000
,
0010
0000
2000
0000
,
3000
0000
0001
0000
,
0100
0000
0010
0000
,
0110
0000
1001
0000
,
0010
1000
0100
1000
,
0001
0010
0001
0000
,
0100
0010
1000
0010
,
0100
0001
1000
0000
,
0110
0000
0110
0000
,
1001
0000
1001
0000
,
0001
0010
0100
1000
,
0010
0100
0001
0000
,
1000
0000
0001
0000
,
1000
0000
0001
0000
,
0100
0000
0010
0000
,
1000
1000
1000
0000
,
0010
0100
0010
0100
,
0010
0000
1000
0000
,
0100
0000
0001
0000
,
0010
0000
0001
0000
,
0100
0000
1000
0000
,
0010
0010
0100
0100
,
1000
0001
1000
0001
,
0010
0001
1000
0100
,
1000
0010
0100
0001
,
0010
0000
0001
0000
,
1000
0100
0001
0000
,
0010
0010
0100
0000
,
1000
0010
0100
0001
,
0010
0000
0100
0000
,
1000
1000
0001
0000
,
0100
0010
1000
1000
,
0100
0010
0001
0001
,
0100
0000
0010
0000
,
1000
0000
0001
0000
,
1001
0000
0110
0000
,
1000
0001
1000
0100
,
0010
0010
0010
0000
;

//---------------dance-single - ----------------
#NOTES:
     dance-single:
     :
     Easy:
     9:
     :
0000
0000
0000
0000
,
0000
0000
0000
0000
,
0000
0000
0000
0000
,
0000
0000
0000
0000
,
0001
0100
0010
1000
,
1000
0100
0010
0001
,
1000
0001
0100
0010
,
1001
0110
1001
0110
,
1000
0100
0001
0010
,
0001
0100
1000
0020
,
1030
0001
1000
0100
,
0010
0001
0100
0010
,
1000
0001
1001
0010
,
0110
0002
2003
3200
,
1300
0020
0130
0002
,
1003
0001
0110
1001
,
0010
1000
0100
0010
,
0001
1000
0001
0200
,
0310
0100
0001
1000
,
0100
0010
0110
1001
,
0010
1000
0001
0100
,
0002
2003
3020
1030
,
0002
0023
0230
2300
,
3010
0000
0100
0000
0001
0000
1000
0000
0100
0000
1000
0000
,
0001
0000
0100
0000
0010
0000
1000
0000
0001
0000
0100
0000
,
0010
0000
1000
0000
0001
0000
1000
0000
0100
0000
0010
0000
,
0001
0000
0100
0000
0001
0000
1000
0000
1000
0000
1000
0000
,
0010
0000
1000
0000
0100
0000
0010
0000
0100
0000
1000
0000
,
0001
0000
0100
0000
0010
0000
1000
0000
0000
0000
0001
0000
,
0000
0000
0100
0000
0010
0000
1000
0000
0001
0000
0100
0000
,
0001
0000
0010
0000
0001
0000
2000
0000
0000
3000
0000
0000
,
0010
0000
1000
0000
0010
0000
0100
0000
0000
0002
0000
0000
,
0013
0000
0001
0000
0100
0000
0020
0000
0000
2030
0000
0000
,
3001
1000
1001
0110
,
0010
0110
1001
0000
,
0200
0000
0000
0320
0000
0000
0031
0000
0100
0000
0001
0000
,
1000
0000
0010
0000
1000
0000
0100
0000
0010
0000
0001
0000
,
1000
0000
0001
0000
0100
0000
0110
0000
0220
0000
0000
0000
,
0300
0000
1030
0000
0010
0000
1000
0000
0001
0000
0200
0000
,
0020
0000
0000
0330
0000
0000
1000
0000
0100
0000
0001
0000
,
0011
0000
0011
0000
0011
0000
1100
0000
1100
0000
1100
0000
,
0001
0000
0100
0000
1000
0000
1001
0000
2002
0000
0000
0000
,
0003
0000
3010
0000
0100
0000
0001
0000
1000
0000
0100
0000
,
0010
0000
0001
0000
0100
0000
0001
0000
1000
0000
0010
0000
,
1010
0000
0000
0000
0001
0000
0101
0000
0100
0000
0010
0000
,
1000
0000
0100
0000
1000
0000
0001
0000
0100
0000
0001
0000
,
1000
0000
0010
0000
1000
0000
1001
0000
0000
0110
0000
0000
,
0001
0000
0010
0000
0001
0000
1000
0000
0001
0000
1000
0000
,
0010
0000
0100
0000
0010
0000
2000
0000
0002
0000
3003
0000
,
0010
0000
1000
0000
0100
0000
0010
0000
0001
0000
0100
0000
,
0001
0000
1000
0000
0010
0000
1000
0000
0001
0000
0100
0000
,
0010
0000
0010
0000
0010
0000
0100
0000
0100
0000
0100
0000
,
0001
0000
0001
0000
0001
0000
1000
0000
1000
0000
1000
0000
,
0002
0000
0000
0000
0000
0000
1003
0000
0010
0000
1000
0000
,
0001
0000
0100
0000
0010
0000
2000
0000
0000
0000
0000
0000
,
3020
0000
0000
0000
0000
0000
1030
0000
0100
0000
1000
0000
,
0001
0000
1000
0000
0010
0000
0200
0000
0000
0300
0000
0000
,
1001
0110
1001
0110
,
0001
0100
0001
0100
,
0001
0100
0001
0200
,
0310
1000
0010
1000
,
0010
1000
0010
2000
,
3001
0100
1001
0010
,
0110
1000
1100
0101
,
2000
3020
0230
0302
,
0013
0100
0110
1001
,
0010
1000
0001
0100
,
0001
0010
0100
2000
,
3010
0100
0001
1000
,
0020
2030
3002
0203
,
0301
0011
0110
1100
,
0010
1010
1001
0101
,
0001
1000
0010
0100
,
0001
0010
0100
1000
,
1000
0000
0001
0000
0100
0000
0020
0000
0000
0000
0000
0000
,
1030
0000
0100
0000
0010
0000
0002
0000
0000
0003
0000
0000
,
1001
0000
0110
0000
1001
0000
0020
0000
0000
0230
0000
0000
,
0302
0010
1000
0103
,
1001
0100
0010
0000
;

//---------------dance-single - ----------------
#NOTES:
     dance-single:
     :
     Medium:
     13:
     :
0000
0000
0000
0000
,
0000
0000
0000
0000
,
0000
0000
0000
0000
,
0000
0000
0000
0000
,
0001
0000
0100
0010
0000
0100
0001
0000
0000
1000
0000
0000
,
1000
0000
0100
0010
0000
0100
1000
0000
0000
0001
0000
0000
,
1000
0000
0010
0100
0000
0001
1000
0000
0000
0001
0000
0000
,
0011
1100
1010
0101
,
0020
0000
0000
0230
0000
0000
0302
0000
0000
1003
0100
1000
,
0200
2300
3002
0003
,
0020
0000
0000
0230
0000
0000
2300
0000
0000
3001
0100
0001
,
0200
0000
0000
0320
0000
0000
2030
0000
0000
3001
1000
0001
,
1000
0000
0000
0110
0000
0000
1001
0000
0000
0010
0100
0010
,
0100
0000
0000
0001
0000
1000
0100
0000
0000
1100
0000
0000
,
0101
0000
0000
0010
0001
0010
0001
0000
0000
1000
0010
1000
,
0010
0000
0100
0000
0001
0000
2000
0000
0000
3200
0000
0000
,
0310
0000
0000
0001
0000
0000
0100
0000
0000
0001
0010
0001
,
1000
0000
0000
0010
0000
0000
0100
0000
0001
2000
0000
0000
,
3100
0000
0000
0010
0000
0000
0100
0000
0000
1000
0001
1000
,
0010
0000
0100
0000
0001
0000
2000
0000
0000
3020
0000
0000
,
0230
0000
0000
0301
0010
0100
1000
0000
0000
1010
0000
0000
,
0011
0000
0000
0100
0010
1000
0001
0000
0000
1001
0000
0000
,
0110
0000
0000
1000
0001
0100
0020
0000
0000
0230
0000
0000
,
0301
0000
0010
0000
0001
0000
0100
0000
0010
0000
1000
0000
,
0100
0000
0000
0000
1000
0000
0000
0000
0001
0000
0000
0000
0100
0000
0000
0100
0010
0000
0000
0010
1000
0000
0000
0000
,
0001
0000
1000
0000
0100
0000
1000
0000
0001
0000
0010
0000
,
0001
0000
0000
0001
0100
0000
0000
0100
0010
0000
0000
0000
1010
0000
0000
0000
1010
0000
0000
0000
0101
0000
0000
0000
,
0101
0000
0000
0000
1000
0000
0000
0100
0010
0000
0000
0001
0100
0000
0000
0000
0010
0000
0000
0000
1000
0000
0000
0000
,
0100
0000
0000
0000
1000
0000
0000
0000
0001
0000
0000
0000
0100
0000
0000
0001
0000
0000
0000
1000
0100
0000
0000
0000
,
0000
0000
0000
0000
0010
0000
0000
0010
0001
0000
0000
0001
2000
0000
0000
0000
3002
0000
0000
0000
0203
0000
0000
0000
,
0310
0000
0000
0010
1000
0000
0000
1000
0001
0000
0000
0000
0200
0000
0000
0020
0000
0000
0300
0000
0000
0030
0000
0000
,
1000
0000
0000
1000
0100
0000
0000
0100
0010
0000
0000
0010
0001
0000
0000
0000
0000
0000
0101
0000
0000
0000
0000
0000
,
1000
0000
0000
1000
0010
0000
0000
0010
0100
0000
0000
0100
0001
0000
0000
0000
0000
0000
0011
0000
0000
0000
0000
0000
,
1001
0000
0000
0110
0000
0000
1000
0001
0000
0110
0000
0000
,
0010
0000
0000
1000
0000
0000
0000
1100
0000
0000
0000
1000
0002
0000
0000
0000
0000
0000
0000
0000
0103
0000
0000
0010
,
0100
0000
0000
0000
0000
0000
0101
0000
0000
0000
0000
0000
1000
0000
0000
0000
0001
0000
0000
0000
0010
0000
0000
0001
,
0100
0000
0000
0100
0010
0000
0000
0010
1000
0000
0000
1000
0002
0000
0000
0000
0023
0000
0000
0000
0031
0000
0000
0100
,
0001
0000
0000
0000
1000
0000
0000
0010
0000
0000
0000
0100
0002
0000
0000
0000
2000
0000
0000
0000
0000
0000
0000
0000
,
3003
0000
0000
0000
0010
0000
0000
0000
1000
0000
0000
0001
0100
0000
0000
0001
0100
0000
0000
0000
0110
0000
0000
0000
,
1001
0000
0001
0000
0001
0000
1000
0000
0001
0000
0001
0000
,
0100
0000
0000
0100
0010
0000
0000
0010
1000
0000
0000
0000
0001
0000
0000
0001
1000
0000
0000
1000
0100
0000
0000
0000
,
0010
0000
0000
0000
0001
0000
0000
1000
0000
0000
0000
0010
2000
0000
0000
0000
0200
0000
0000
0000
0000
0000
0000
0000
,
3300
0000
0000
0000
1000
0000
0000
0000
0001
0000
0000
0001
0100
0000
0000
0100
0010
0000
0000
0000
1010
0000
0000
0000
,
1100
0000
0000
0000
0000
0000
0000
0000
0001
0000
0000
0000
0000
0000
0100
0000
0001
0000
0000
0000
0000
0000
0100
0000
0001
0000
0000
0000
0000
0000
0100
0000
0000
0000
0000
0000
0000
0000
0000
0000
0010
0000
0000
1000
0000
0000
0010
0000
,
1000
0000
0000
0000
0001
0000
0000
1000
0100
0000
0000
0000
1001
0000
0000
0000
0020
0000
0000
0000
0230
0000
0000
0000
,
0301
0000
0000
0000
0100
0000
0000
0000
0001
0000
0000
1000
0010
0000
0000
0000
0100
0000
0000
0000
0010
0000
0000
1000
,
0100
0000
0000
0000
0000
0000
0000
0000
0010
0000
0000
0000
0000
0000
0000
0000
0001
0000
0000
0100
0000
0000
0001
0000
0100
0000
0000
0000
0000
0000
0000
0000
0000
0000
0000
0000
1010
0000
0000
0000
0000
0000
0000
0000
0000
0000
0001
0000
,
1000
0000
0000
0000
0100
0000
0000
0000
1000
0000
0000
1000
0001
0000
0000
0000
0100
0000
0000
0000
0001
0000
0000
0000
,
0010
0000
0000
0000
0011
0000
0000
0000
0001
0000
0000
1000
0020
0000
0000
0000
0200
0000
0000
0030
0000
0300
0000
0000
,
0001
0000
0010
0000
0001
0100
0010
0000
1000
0000
0100
1000
,
0001
0000
1000
0000
0010
0100
0010
0000
1000
0000
0001
0000
,
0100
0010
1000
0010
0100
0001
1000
0000
0001
0000
1000
0100
,
0020
0000
0032
0000
0203
0000
0320
0000
2030
0000
3200
0000
,
1300
0000
1000
0000
1000
0000
0001
0000
0001
0000
0001
0000
,
0100
0000
0100
0000
0100
0000
0010
0000
0010
0000
0010
0000
,
1000
0000
0100
0000
1000
0000
0001
0000
0100
0000
0001
0000
,
1000
0100
1000
0001
0100
0001
1000
0000
0000
0000
0000
0000
,
1010
0101
0011
1100
,
0001
0000
0000
0001
0000
0000
0001
0000
0000
1000
0010
1000
,
0010
0010
0010
0000
,
1000
0000
0000
1000
0000
0000
1000
0000
0000
0010
0100
0010
,
0100
0000
0000
0100
0000
0000
0100
0000
0000
0001
1000
0001
,
1000
0000
0000
1100
0000
0000
0011
0000
0000
0100
0010
0100
,
0010
0000
0000
1010
0000
0100
1000
0000
0000
0101
0000
0000
,
0001
0000
0010
0001
0000
1000
0020
0000
0000
0230
0000
0000
,
0301
0000
1000
0000
0001
0000
0200
0000
0000
0320
0000
0000
,
1030
0000
0000
0001
0000
0000
1000
0000
0000
0010
0100
0001
,
2000
3200
0320
0030
,
0001
0000
0000
1000
0000
0000
0001
0000
0100
0000
0010
0000
,
1000
0000
0100
0000
0010
0000
0002
0000
0000
2003
0000
0000
,
3010
0000
0000
1010
0000
0001
0100
0000
0000
0011
0000
1000
,
0100
0000
0000
1001
0000
0000
0110
0000
0000
1000
0100
0010
,
0001
0000
0000
0100
0010
0100
0010
0000
0000
1010
0000
0000
,
1100
0000
0000
0001
1000
0001
1000
0000
0000
0011
0000
0000
,
0100
0000
0010
0000
1000
0000
0001
0000
0100
0000
0001
0000
,
1000
0000
0100
0000
0010
0000
0001
0000
1000
0000
0001
0000
,
1001
0000
0110
0000
1001
0000
1000
0000
0010
0000
0100
0000
,
0002
0000
0000
0013
0001
1000
0200
0000
0000
1300
0010
0100
,
0002
0000
0000
1003
0001
0100
0010
0000
0000
0000
0000
0000
;

//---------------dance-single - ----------------
#NOTES:
     dance-single:
     :
     Hard:
     17:
     :
0000
0000
0000
0000
,
0000
0000
0000
0000
,
0000
0000
0000
0000
,
0000
0000
0000
0000
,
0001
0100
0010
0100
0010
0100
0001
0000
0000
1000
0000
0000
,
1000
0100
0010
0100
0010
0100
1000
0000
0000
0001
0000
0000
,
1000
0100
0010
0001
0010
0100
1000
0000
1000
0001
0000
0000
,
0011
1100
1010
0101
,
0020
0000
0000
1030
0010
0100
0002
0000
0000
1003
0100
0010
,
0002
0000
0000
0103
0010
0100
0010
0000
1000
0002
0000
0000
,
0023
0000
0000
0031
1000
0010
0100
0000
0100
0001
1000
0001
,
0200
0000
0000
0310
1000
0001
0100
0010
0100
0010
1000
0001
,
0100
0000
0000
0110
0000
0000
1001
0000
0000
1000
0010
0001
,
0100
0010
0100
0010
0000
0010
1000
0000
1000
0001
0000
0000
,
0011
0000
0000
1000
0001
0100
0010
0000
0000
1000
0100
1000
,
0002
0000
0023
0000
0032
0000
2003
0000
0000
3200
0000
0000
,
0310
0000
0000
0010
0001
1000
0100
0000
0000
0100
1000
0010
,
0100
0000
0000
0100
0001
1000
0001
0000
0001
0020
0000
0000
,
0031
0000
0000
0001
1000
0010
0100
0000
0100
0010
1000
0100
,
1000
0000
1000
0001
0100
0010
1000
0000
1000
0001
0000
0000
,
0101
0000
0000
1000
0010
0100
0001
0000
0010
0100
0000
0010
,
0100
0000
0000
1000
0010
0100
0001
0000
0010
0001
1000
0010
,
0100
0000
0000
0100
0001
1000
0010
0000
0100
0001
1000
0000
,
1100
0000
0000
0000
0000
0000
0001
0000
0010
0000
0000
0000
0000
0000
0001
0000
0100
0000
0000
0000
0000
0000
0000
0000
0010
0000
0000
0000
0000
0000
0000
0000
1000
0000
0000
0000
0000
0000
0000
0000
0001
0000
0000
0010
0000
0000
1000
0000
,
0100
0000
0000
0000
0000
0000
0010
0000
0001
0000
0000
0000
0000
0000
0001
0000
0100
0000
0000
0000
0000
0000
0100
0000
0010
0000
0000
0000
0000
0000
0000
0000
1000
0000
0000
0001
0000
0000
1000
0000
0100
0000
0000
0000
0000
0000
0000
0000
,
1010
0000
0000
0000
0000
0000
0001
0000
0010
0000
0000
0000
0000
0000
0100
0000
1000
0000
0000
0000
0000
0000
0000
0000
1001
0000
0000
0000
0000
0000
0000
0000
0110
0000
0000
0000
0000
0000
0000
0000
1000
0000
0000
0010
0000
0000
0001
0000
,
0100
0000
0000
0000
0000
0000
0100
0000
0010
0000
0000
0000
0000
0000
0010
0000
1000
0000
0000
0000
0000
0000
1000
0000
0001
0000
0010
0000
0000
0100
0000
0000
1000
0000
0000
0000
0000
0000
0000
0000
0110
0000
0000
0000
0000
0000
0000
0000
,
1001
0000
0000
0000
0001
0000
0000
0001
0100
0000
0000
0100
0010
0000
0000
1000
0010
0000
0000
0100
0001
0000
0000
0000
,
0010
0000
0000
0000
0000
0000
0000
0000
0001
0000
0000
1000
0000
0000
0001
0000
0100
0000
0000
0000
0000
0000
0010
0000
1000
0000
0000
0000
0000
0000
1100
0000
0000
0000
0000
0000
0000
0000
0001
0000
0101
0000
0000
0000
0000
0000
0000
0000
,
0010
0000
0000
0000
1000
0000
0000
0100
1000
0000
0000
0010
0100
0000
0000
0001
1000
0000
0000
0001
0100
0000
0000
0000
,
0010
1000
0010
0100
0001
1000
0100
0010
0000
0001
0000
0000
,
0100
0010
1000
0001
1000
0010
0100
0001
0000
0010
0000
0000
,
0001
0100
0010
1000
0100
0010
0001
0000
0000
1000
0000
0000
,
1001
0000
0000
0110
0000
0000
1000
0001
0000
0110
0000
0000
,
1000
0000
0010
0000
0000
0000
0101
0000
0000
0000
0000
0000
1100
0000
0000
0000
0001
0000
0000
0000
0100
0000
0000
0010
,
1000
0000
0000
0000
0000
0000
1010
0000
0000
0000
0000
0000
0001
0000
0000
0000
0001
0000
0000
0000
0100
0000
0000
0010
,
1000
0000
0000
0100
1000
0000
0000
0010
0100
0000
0000
0001
0010
0000
0000
0000
0001
0000
0000
0000
1000
0000
0000
0100
,
1000
0000
0000
0000
0000
0000
0010
0000
0100
0000
0000
0000
0000
0000
0001
0000
0000
0000
0000
0000
0000
0000
0010
0000
0001
0000
0010
0000
0000
0200
0000
0000
2000
0000
0000
0000
0000
0000
0000
0000
0000
0000
0000
0000
0000
0000
0000
0000
,
0000
0000
0000
3300
0000
0000
0000
0000
1100
0000
0000
0000
0000
0000
0000
0000
0101
0000
0000
0000
0000
0000
0001
0000
0010
0000
0000
0000
0000
0000
0001
0000
1000
0000
0000
0000
0000
0000
0000
0000
0100
0000
0000
0000
0000
0000
0001
0000
,
0010
0000
0000
0000
0000
0000
0000
0000
0100
0000
0000
0000
0000
0000
0000
0000
0100
0000
0000
1000
0000
0000
0010
0000
0100
0000
0000
0000
0000
0000
0100
0000
0001
0000
0000
0000
0000
0000
0001
0000
1000
0000
0000
0000
0000
0000
1000
0000
,
0100
0000
0010
0000
0000
0100
0000
0000
0010
0000
0000
0000
0000
0000
0010
0000
0001
0000
0000
0000
0000
0000
0001
0000
1000
0000
0100
0000
0000
1000
0000
0000
0100
0000
0000
0000
0000
0000
1000
0000
0001
0000
0000
0000
0000
0000
0000
0000
,
0010
0000
0000
0000
0000
0000
0001
0000
0100
0000
0000
0000
0000
0000
0010
0000
0000
0000
0000
0000
0000
0000
1000
0000
0001
0000
1000
0000
0000
0100
0000
0000
0020
0000
0000
0000
0000
0000
0000
0000
0032
0000
0000
0000
0000
0000
0000
0000
,
0103
0000
0000
0000
0101
0000
0000
0000
1010
0000
0000
1000
0001
0000
0000
1000
0001
0000
0000
0000
0100
0000
0000
0010
,
1000
0000
0000
0000
0000
0000
0000
0100
1000
0000
0000
0000
0000
0000
0001
0000
0100
0000
0000
0000
0000
0000
0001
0000
0010
0000
0000
0000
0000
0000
0001
0000
0100
0000
0000
0010
0000
0000
1000
0000
0001
0000
0000
0000
0000
0000
0100
0000
,
0001
0000
0000
0000
0011
0000
0000
0001
0100
0000
0000
0010
1010
0000
0000
0000
1000
0000
0000
0100
1000
0000
0000
0001
,
0200
0000
0000
0000
0320
0000
0000
0000
0130
0000
0000
0001
2000
0000
0000
0000
3020
0000
0000
0000
0130
0000
0000
0001
,
0020
0000
0000
0000
0000
0000
0000
0000
0230
0000
0000
0000
0000
0000
0000
0000
1300
0000
0000
0100
0000
0000
0010
0000
0001
0000
0000
0000
0000
0000
0000
0000
0000
0000
0000
0000
0000
0000
0100
0000
0010
0000
0000
0000
0000
0000
1000
0000
,
0002
0000
0000
0000
0000
0000
0000
0000
2003
0000
0000
0000
0000
0000
0000
0000
3001
0000
0000
0000
0000
0000
1000
0000
0200
0000
0000
0000
0000
0000
0000
0000
0320
0000
0000
0000
0000
0000
0000
0000
0031
0000
0000
1000
0000
0000
0001
0000
,
0200
0000
0000
0000
0000
0000
0000
0000
0320
0000
0000
0000
0000
0000
0000
0000
1030
0000
0000
0001
0000
0000
0100
0000
0010
0000
0000
0000
0000
0000
0000
0000
1000
0000
0000
0000
0000
0000
0000
0000
0001
0000
0100
0000
0001
0000
0100
0000
,
0001
0000
0010
0001
0100
0010
1000
0100
1000
0010
0100
0001
,
1000
0000
0100
0000
0010
0000
0001
0000
0010
0100
0010
0100
0010
0000
0001
0000
1000
0000
0001
0000
1000
0000
0100
0010
,
0100
1000
0010
0100
0001
1000
0001
0010
0100
0010
0001
1000
,
0001
0100
0001
1000
0100
1000
1100
0000
0011
0000
0100
0010
,
1000
0000
1000
0000
1000
0000
0001
0000
0001
0000
0001
0000
,
0100
0000
0100
0000
0100
0000
0010
0000
0010
0000
0010
0000
,
0110
0000
1010
0000
1100
0000
1001
0000
0011
0000
0101
0000
,
0001
0010
0100
1000
0100
0010
0001
0000
0000
0000
0000
0000
,
1001
0000
0010
0001
0100
0010
1000
0100
0010
0110
0000
0000
,
0001
0000
0000
0001
0000
0000
0001
0000
0000
1000
0100
1000
,
0001
0000
0000
1000
0000
0001
0100
0000
0000
0010
0100
0010
,
1000
0000
0000
1000
0000
0000
1000
0000
0000
0001
0010
0001
,
1000
0000
0000
1010
0000
0000
0011
0000
0000
0100
0001
0010
,
1000
0000
0000
0110
0000
0000
1001
0000
0000
0010
0001
0100
,
1000
0000
0000
0010
1000
0100
0001
0000
1000
0100
0000
0000
,
0010
0001
1000
0001
0010
0100
1000
0010
0100
0001
1000
0100
,
0020
0000
0032
0000
2003
0000
3002
0000
0000
0203
0000
0000
,
0320
0000
0000
1000
0000
0000
0001
0000
0000
1030
0100
0010
,
0001
0000
0000
0100
0001
0100
0010
0000
0010
1000
0000
0000
,
0100
0000
0000
1000
0010
0100
0002
0000
2003
0000
3200
0000
,
0320
0000
0032
0000
2003
0000
3010
0100
0001
1000
0000
0000
,
0010
0000
0000
1000
0100
0010
0001
0100
0010
1000
0100
0010
,
0001
0000
0000
1000
0010
0100
0001
0010
0100
1000
0010
0100
,
0001
0000
0000
1000
0100
0010
0001
0000
0000
0011
0000
0000
,
1100
0000
0000
0010
0100
0001
1000
0000
0000
0101
0000
0000
,
1010
0000
0000
0000
1000
0000
0000
0000
0001
0000
0000
0000
0010
0100
0010
0100
0010
0000
0100
0000
0010
0000
0100
0000
,
1000
0000
0000
0000
0001
0000
0000
0000
0100
0000
0000
0000
0010
1000
0010
1000
0010
0000
1000
0000
0010
0000
1000
0000
,
1100
0000
0000
0000
0101
0000
0000
0000
1100
0000
0000
0000
0001
0010
0001
0010
0001
0000
0100
0000
0010
0000
1000
0000
,
1001
0000
0000
0010
1000
0100
0010
0001
0100
0001
0010
0100
,
1000
0000
0000
0010
0010
0010
0010
0000
0000
0000
0000
0000
;
