#TITLE:Smooth Criminal;
#SUBTITLE:;
#ARTIST:Alien Ant Farm;
#TITLETRANSLIT:;
#SUBTITLETRANSLIT:;
#ARTISTTRANSLIT:;
#GENRE:;
#CREDIT:;
#BANNER:Smooth Criminal-bn.png;
#BACKGROUND:Smooth Criminal-bg.png;
#LYRICSPATH:;
#CDTITLE:;
#MUSIC:Smooth Criminal.ogg;
#OFFSET:1.600000;
#SAMPLESTART:30.290001;
#SAMPLELENGTH:20.000000;
#LASTBEATHINT:1.253067;
#SELECTABLE:YES;
#BPMS:0.000000=126.999992
;
#STOPS:
;
#BGCHANGES:;
#KEYSOUNDS:;
#ATTACKS:;

//---------------dance-single - ----------------
#NOTES:
     dance-single:
     :
     Beginner:
     4:
     0.165047,0.209642,0.214233,0.000000,0.000000,151.000000,123.000000,28.000000,0.000000,0.000000,0.000000,0.165047,0.209642,0.214233,0.000000,0.000000,151.000000,123.000000,28.000000,0.000000,0.000000,0.000000:
0000
0000
0000
0000
,
0000
0000
0000
0000
,
0000
0000
0000
0000
,
0000
0000
0000
0000
,
0000
0000
0000
0000
,
0000
0010
0010
0000
,
1000
0000
0001
0000
,
0000
0100
0100
0000
,
0001
0000
1000
0000
,
0000
0001
0001
0000
,
0010
0000
0100
0000
,
0000
1000
1000
0000
,
0010
0000
0100
0000
,
0000
0001
0001
0000
,
0100
0000
0010
0000
,
0000
1000
1000
0000
,
0100
0000
0010
0000
,
0000
0000
1001
0000
,
1001
0000
1001
0000
,
0000
0000
0110
0000
,
0110
0000
0110
0000
,
0000
0000
1001
0000
,
1001
0000
1001
0000
,
0000
0000
0110
0000
,
0110
0000
0110
0000
,
0000
1000
1000
0000
,
0001
0000
0100
0000
,
0000
0010
0010
0000
,
0100
0000
0001
0001
,
0000
0010
0010
0000
,
0100
0000
1000
0000
,
0000
0001
0001
0000
,
0100
0000
0010
0000
,
0000
0000
1001
0000
,
1001
0000
1001
0000
,
0001
0001
0000
1000
,
1000
0000
0010
0010
,
0000
0000
0100
0100
,
0000
0000
0010
0010
,
0000
0000
1000
1000
,
0000
0000
0001
0001
,
0000
0000
1000
1000
,
0000
0000
0100
0100
,
0000
0000
0010
0010
,
0000
0000
0001
0001
,
0000
1000
1000
0000
,
0001
0000
0100
0000
,
0000
0010
0010
0000
,
1000
0000
0001
0001
,
0000
0100
0100
0000
,
0001
0000
1000
0000
,
0000
0010
0010
0000
,
1000
0000
0001
0000
,
0000
0000
0110
0000
,
0110
0000
0110
0000
,
0000
0000
1001
0000
,
1001
0000
1001
0000
,
0000
0000
0110
0000
,
0110
0000
0110
0000
,
0000
0000
0110
0000
,
1001
0000
0110
0000
,
0000
1000
1000
0000
,
0100
0000
0010
0000
,
0000
0001
0001
0000
,
0010
0000
0100
0000
,
0000
0100
0100
0000
,
1000
0000
0001
0000
,
0000
0100
0100
0000
,
0010
0000
1001
0000
;

//---------------dance-single - ----------------
#NOTES:
     dance-single:
     :
     Easy:
     8:
     0.314791,0.341290,0.214233,0.061209,0.000000,288.000000,260.000000,28.000000,8.000000,0.000000,0.000000,0.314791,0.341290,0.214233,0.061209,0.000000,288.000000,260.000000,28.000000,8.000000,0.000000,0.000000:
0000
0000
0000
0000
,
0000
0000
0000
0000
,
0000
0000
0000
0000
,
0000
0000
0000
0000
,
0000
0000
0000
0000
,
0000
0000
0010
0000
1000
0001
0000
0000
,
0010
0100
0000
0000
1000
0010
0000
0110
,
0000
0000
0100
0000
0001
0010
0000
0000
,
0100
1000
0000
0000
0001
1000
0000
1001
,
0000
0000
0010
0000
1000
0100
0000
0000
,
1000
0010
0000
0000
1000
0001
0000
1001
,
0000
0000
0001
0000
0010
0100
0000
0000
,
1000
0001
0000
0000
1000
0100
0000
0110
,
0000
0000
0001
0000
1000
0001
0000
0000
,
0010
0100
0000
0000
0010
0001
0000
0110
,
0000
0000
0001
0000
1000
0100
0000
0000
,
0010
0100
0000
0000
1000
0001
0000
1001
,
0000
0100
0000
0010
0000
0100
0000
0001
,
0000
0010
0000
0100
0000
1000
0000
0001
,
0000
0010
0000
0001
0000
1000
0000
0010
,
0000
1000
0000
0100
0000
0010
0000
0001
,
0000
0100
0000
0010
0000
0100
0000
0001
,
0000
0010
0000
0001
0000
0100
0000
1000
,
0000
0010
0000
0100
0000
0001
0000
1000
,
0000
0001
0000
1000
0010
0100
0010
0100
,
0000
0000
1001
0000
0001
0010
0000
0000
,
0001
1000
0000
0000
0010
0100
0000
0000
,
0000
0000
0110
0000
0010
1000
0000
0000
,
0100
0010
0000
0000
0001
1000
0001
1000
,
0000
0000
0110
0000
0100
0001
0000
0000
,
0010
0100
0000
0000
1000
0001
0000
0000
,
0000
0000
1001
0000
1000
0100
0000
0000
,
1000
0010
0000
0000
0100
0001
0000
1001
,
0000
0010
0000
1000
0000
0001
0000
0010
,
0000
0001
0000
0100
0000
0010
0000
1000
,
0001
0000
0100
0000
1000
1000
0010
0000
,
0100
0000
0110
0000
0002
0000
1003
0001
,
0000
0000
0010
0000
1000
0000
0100
0020
,
0000
0000
0031
0000
1000
0000
0010
0200
,
0000
0000
0310
0000
1000
0000
0100
2000
,
0000
0000
3001
0000
1000
0000
0001
0020
,
0000
0000
0130
0000
0010
0000
0001
2000
,
0000
0000
3100
0000
1000
0000
0010
0200
,
0000
0000
0310
0000
1000
0000
0001
0020
,
0000
0000
0031
0000
0100
0000
0010
1000
,
0000
0000
0110
0000
0001
0010
0000
0000
,
0001
1000
0000
0000
1000
0100
0000
0000
,
0000
0000
1001
0000
0010
1000
0000
0000
,
0100
0010
0000
0000
0001
1000
0001
1000
,
0000
0000
1001
0000
1000
0100
0000
0000
,
1000
0001
0000
0000
0001
0010
0000
0000
,
0000
0000
0110
0000
0100
0010
0000
0000
,
0001
1000
0000
0000
0001
0010
0000
0000
,
0000
1000
1010
0001
,
0011
0000
1000
0000
0010
0100
0010
0100
,
0000
0001
0101
1000
,
1100
0000
0010
0000
1000
0001
1000
0001
,
0000
0100
0101
0010
,
1010
0000
0001
0000
1000
0100
1000
0100
,
0000
0010
0011
1000
,
1100
0000
0001
0000
0010
0100
0010
0100
,
0000
0000
1000
0000
0001
0100
0000
0000
,
0010
1000
0000
0000
0001
1000
0000
1001
,
0000
0000
0100
0000
0001
0010
0000
0000
,
0100
1000
0000
0000
1000
0001
0000
0110
,
0000
0000
0010
0000
1000
0100
0000
0000
,
0010
0100
0000
0000
1000
0001
0000
0110
,
0000
0000
0010
0000
0001
0100
0000
0000
,
0001
1000
0000
0000
0010
1001
0000
0000
;

//---------------dance-single - ----------------
#NOTES:
     dance-single:
     :
     Medium:
     11:
     0.453605,0.420049,0.137721,0.229535,0.030605,415.000000,397.000000,18.000000,30.000000,0.000000,0.000000,0.453605,0.420049,0.137721,0.229535,0.030605,415.000000,397.000000,18.000000,30.000000,0.000000,0.000000:
0000
0000
0000
0000
,
0000
0000
0000
0000
,
0000
0000
0000
0000
,
0000
0000
0000
0000
,
0000
0000
0000
0000
,
0000
0010
1000
0001
1000
0010
0000
0100
,
0001
0010
0000
0100
1000
0001
0000
1001
,
0000
0100
0010
1000
0010
0100
0000
0001
,
0010
0100
0000
1000
0001
0100
0000
0110
,
0000
0010
0100
0001
0100
0010
0000
1000
,
0001
0010
0000
0001
0100
0010
0000
1010
,
0000
1000
0001
0100
0001
1000
0000
0010
,
1000
0100
0000
0010
0001
1000
0000
0101
,
0000
0001
0010
0100
0010
0001
0000
1000
,
0100
0010
0000
0001
1000
0100
0000
1100
,
0000
1000
0001
0010
0001
1000
0000
0100
,
1000
0010
0000
1000
0001
0100
0000
0012
,
0000
0000
0103
0010
1000
0001
0010
0000
,
0001
0100
1000
0000
0010
0100
0001
2000
,
0000
0000
3010
1000
0100
0010
0001
0000
,
1000
0001
0100
0000
0010
1000
0001
0200
,
0000
0000
0301
0010
0001
1000
0100
0000
,
1000
0010
0100
0000
0100
0001
1000
0020
,
0000
0000
1030
0001
1000
0100
0010
0000
,
0001
0100
1000
0000
0010
0100
0001
1000
,
0000
0000
1000
0001
0010
0100
1000
0010
,
1000
0100
1000
0010
0100
0001
1000
0100
,
0000
1000
0001
0010
0001
0100
0010
0100
,
0001
0010
0100
1000
0010
0100
0001
1000
,
0000
0001
0010
0001
1000
0100
1000
0010
,
0100
0001
1000
0001
0010
0100
1000
0010
,
0000
0100
0010
1000
0001
1000
0100
0010
,
0001
0100
0010
1000
0100
0010
0001
2000
,
0000
0000
3010
1000
0001
1000
0100
0000
,
0010
0001
0100
0000
0001
0010
0100
1000
,
0010
0100
0010
0100
0000
0000
0001
1000
,
0001
1000
0000
0010
0200
0000
0301
1000
,
0000
0000
0020
0000
0000
2030
0000
0000
3001
0000
0100
0000
0210
0000
0000
0000
,
0000
0000
0302
0000
0000
2003
0000
0000
3100
0000
0010
0000
0012
0000
0000
0000
,
0000
0000
2003
0000
0000
3020
0000
0000
0130
0000
0001
0000
0102
0000
0000
0000
,
0000
0000
0023
0000
0000
0032
0000
0000
1003
0000
0100
0000
1200
0000
0000
0000
,
0000
0000
2300
0000
0000
3002
0000
0000
0103
0000
0010
0000
2010
0000
0000
0000
,
0000
0000
3020
0000
0000
0230
0000
0000
0301
0000
1000
0000
2001
0000
0000
0000
,
0000
0000
3020
0000
0000
2030
0000
0000
3001
0000
0100
0000
0120
0000
0000
0000
,
0000
0000
2030
0000
0000
3002
0000
0000
0013
0000
0100
0000
0000
0000
1002
0000
,
0000
0000
1003
0010
1000
0001
0010
0100
,
1000
0001
1000
0100
0010
0001
1000
0010
,
0000
0100
0010
0100
0001
1000
0010
0100
,
0001
0010
0001
0100
0010
1000
0010
0100
,
0000
0001
1000
0100
1000
0010
0100
0001
,
0010
0001
0100
0001
0010
0100
1000
0010
,
0000
0010
1000
0001
1000
0100
0010
0001
,
0100
0010
1000
0001
0010
0100
1000
0001
,
0000
0000
0010
0001
0100
0010
1000
0000
,
0100
1000
0001
0000
0001
0010
0100
1000
,
0000
0000
0010
1000
0100
1000
0001
0000
,
1000
0100
0010
0000
0001
1000
0001
0100
,
0000
0000
0001
0010
0001
0100
0010
0000
,
1000
0100
0010
0000
0001
1000
0001
0100
,
0000
0000
0010
1000
0100
1000
0010
0000
,
1000
0001
0010
0000
0001
0100
0010
1000
,
0000
1000
0001
0010
0001
0100
0000
0010
,
1000
0100
0000
0010
0001
1000
0000
1010
,
0000
0100
1000
0010
1000
0001
0000
0100
,
0001
1000
0000
0010
0100
0001
0000
0011
,
0000
0001
0010
0001
0100
0010
0000
1000
,
0100
0010
0000
0001
0100
1000
0000
1100
,
0000
0010
1000
0001
1000
0100
0000
0010
,
0001
1000
0000
0001
0100
0101
0000
0000
;

//---------------dance-single - ----------------
#NOTES:
     dance-single:
     :
     Hard:
     13:
     0.606628,0.603821,0.367256,0.336651,0.432291,555.000000,507.000000,48.000000,44.000000,0.000000,0.000000,0.606628,0.603821,0.367256,0.336651,0.432291,555.000000,507.000000,48.000000,44.000000,0.000000,0.000000:
0000
0000
0000
0000
,
0000
0000
0000
0000
,
0000
0000
0000
0000
,
0000
0000
0000
0000
,
0000
0000
0000
0000
,
0000
0010
1000
0001
0100
0100
0110
0010
,
1000
0001
0011
0010
0100
1000
0000
1010
,
0000
1000
0001
0010
0100
0100
1100
0010
,
1000
0000
0001
0000
0101
0000
0100
0010
0100
0000
0001
1000
0001
1000
0001
0000
,
0000
0010
0100
1000
0001
0001
1001
0100
,
0010
1000
1100
0001
1000
0100
0000
0011
,
0000
0001
1000
0010
0100
0100
0101
1000
,
0001
0010
0110
0100
1000
0001
0000
0011
,
0000
0100
0001
1000
0010
0010
1010
0100
,
0001
0010
0011
0001
1000
0100
0000
1001
,
0000
0010
0100
0001
1000
1000
1100
0001
,
0100
0000
0010
0000
1000
0001
1000
0001
1000
0000
0100
0010
0100
0010
0200
0000
,
0000
1300
0100
0000
0000
0100
0010
0000
0000
0010
0001
0000
0000
1000
0001
0000
,
0000
0100
0010
0000
0000
1000
0001
0000
0010
0000
0100
0000
1000
0000
1200
0000
,
0000
1300
0001
0000
0000
0001
0100
0000
0000
0100
0010
0000
0000
0010
1000
0000
,
0000
0001
0010
0000
0000
0100
1000
0000
0010
0000
0100
0000
0001
0000
0021
0000
,
0000
0031
0100
0000
0000
0100
0010
0000
0000
0010
1000
0000
0000
1000
0001
0000
,
0000
0001
0100
0000
0000
0010
1000
0000
0100
0000
1000
0000
0001
0000
2001
0000
,
0000
3010
0100
0000
0000
0001
1000
0000
0000
0010
0100
0000
0000
0001
1000
0000
,
0010
0000
0010
0000
1000
0001
1000
0001
1000
0000
0010
0100
0010
0100
0010
0000
,
0000
0000
0000
0000
1000
0100
1000
0100
1000
0000
0001
0000
0000
0000
0010
0100
,
0010
0000
0001
0000
0000
0000
0100
0010
0100
0000
0001
0000
1000
0000
1010
0000
,
0000
0000
1000
0100
1000
0000
0001
0100
0001
0000
0010
0000
0000
0000
0001
0010
,
0001
0000
1000
0000
0000
0000
0010
0100
0010
0000
1000
0000
0001
0000
0011
0000
,
0000
0000
0001
0010
0001
0000
0100
0000
0010
0000
1000
0000
0000
0000
0100
0010
,
0100
0000
1000
0000
0000
0000
0001
0100
0001
0000
0010
0000
1000
0000
1001
0000
,
0000
0010
0100
0010
0100
0000
0001
1000
0001
0000
0100
0000
0000
0000
0010
1000
,
0010
0000
0100
0000
0000
0000
0001
0010
0001
0000
0100
0000
0010
0000
0210
0000
,
0000
0301
1000
0000
0000
1000
0100
0000
0000
0100
0010
0000
0000
0010
0001
0000
,
0000
1000
0010
0000
0000
0100
0001
0000
0010
0000
0001
0000
1000
0000
0010
0000
,
0100
0010
1000
0001
0010
0110
0001
0100
,
0010
0000
1000
0000
1001
0000
0100
0000
0020
0000
0000
0000
1030
0001
1000
0000
,
0000
0000
0010
0000
1000
0001
0000
1000
0100
0000
0010
0000
0022
0000
0000
0000
,
0030
0000
1003
0000
0010
0100
0000
0001
0100
0000
0010
0000
2020
0000
0000
0000
,
0030
0000
3001
0000
1000
0010
0000
1000
0001
0000
0100
0000
0202
0000
0000
0000
,
0003
0000
0310
0000
0100
0001
0000
1000
0100
0000
0010
0000
0022
0000
0000
0000
,
0003
0000
0130
0000
1000
0001
0000
0010
0001
0000
1000
0000
2002
0000
0000
0000
,
3000
0000
0103
0000
0010
1000
0000
0001
0010
0000
0100
0000
2200
0000
0000
0000
,
3000
0000
1300
0000
0010
0100
0000
0010
1000
0000
0001
0000
1001
0000
0110
0000
,
1000
0010
1000
0010
1000
0010
0000
0100
0001
0000
0010
0000
0100
0000
2002
0000
,
0000
3000
0000
0000
0013
0100
0010
0100
0010
0000
0002
0000
0203
0000
0320
0000
,
1030
0000
0001
0000
0000
0000
0010
0100
0010
0000
0002
0000
2003
0000
3020
0000
,
0030
0000
1000
0100
1000
0000
0001
0100
0001
0000
0020
0000
0230
0000
2300
0000
,
3001
0000
1000
0000
0000
0000
0010
0100
0010
0000
2000
0000
3002
0000
0203
0000
,
0300
0000
0001
0010
0001
0000
1000
0000
0100
0000
0020
0000
0032
0000
2003
0000
,
3001
0000
0100
0000
0000
0000
0010
1000
0020
0000
0100
0000
0130
0000
0002
0000
,
0003
1000
0001
1000
0001
0000
0010
0100
0010
0000
0002
0000
2003
0000
3200
0000
,
0310
0000
0001
0100
0000
0001
0100
0000
0010
1000
0000
0010
1000
0000
0110
0000
,
0000
0000
0000
0000
0001
0010
0001
0010
0001
0000
1000
0000
0000
0000
0000
0010
,
0100
0000
0001
0000
0000
0000
0000
1000
0010
0000
0100
0000
0001
0000
0101
0000
,
0000
0000
0000
0000
1000
0100
1000
0100
1000
0000
0010
0000
0000
0000
0000
0100
,
0001
0000
1000
0000
0000
0000
0000
0001
0010
0000
0100
0000
1000
0000
1010
0000
,
0000
0000
0000
0000
1000
0001
1000
0001
1000
0000
0010
0000
0000
0000
0000
0100
,
0001
0000
0010
0000
0000
0000
0000
0001
1000
0000
0010
0000
1000
0000
1010
0000
,
0000
0000
0000
0000
0010
0100
0010
0100
0010
0000
1000
0000
0000
0000
0000
0001
,
2000
0000
0000
3002
0000
0000
0203
0000
0000
0320
0000
0000
1030
0100
1000
0000
,
0000
0001
0010
0100
1000
1000
1010
0001
,
1000
0100
0110
0010
0001
0100
0000
0101
,
0000
0001
1000
0010
0100
0100
0110
0001
,
1000
0000
0100
0010
0100
0010
0100
0000
1000
0001
1000
0000
0000
0000
1100
0000
,
0000
0010
1000
0001
0100
0100
0101
0001
,
0010
0000
0100
0000
1100
0000
0010
0000
1000
0000
0001
0100
0001
0000
0011
0000
,
0000
0001
0010
0100
1000
1000
1010
0100
,
0001
0000
0010
0000
0011
0000
1000
0001
1000
0000
0101
0000
0000
0000
0000
0000
;

//---------------dance-single - ----------------
#NOTES:
     dance-single:
     :
     Challenge:
     16:
     0.773861,0.813845,0.382558,0.198930,0.845454,708.000000,658.000000,50.000000,26.000000,0.000000,0.000000,0.773861,0.813845,0.382558,0.198930,0.845454,708.000000,658.000000,50.000000,26.000000,0.000000,0.000000:
// measure 0
0000
0000
0000
0000
,  // measure 1
0000
0000
0000
0000
,  // measure 2
0000
0000
0000
0000
,  // measure 3
0000
0000
0000
0000
,  // measure 4
0000
0000
0000
0000
,  // measure 5
0000
0000
0010
1000
0010
1000
0010
1000
0010
0000
0100
0000
0000
0000
0001
1000
,  // measure 6
0001
0000
0100
0000
0000
0000
0001
0010
0001
0000
1000
0000
0000
0000
1100
0000
,  // measure 7
0000
0000
0001
1000
0001
1000
0001
1000
0001
0000
0010
0000
0000
0000
0100
1000
,  // measure 8
0100
0000
0010
0000
0000
0000
0001
0100
0001
0000
1000
0000
0000
0000
0101
0000
,  // measure 9
0000
0000
0010
0001
0010
0001
0010
0001
0010
0000
0100
0000
0000
0000
1000
0010
,  // measure 10
1000
0000
0100
0000
0000
0000
1000
0001
1000
0000
0010
0000
0000
0000
0110
0000
,  // measure 11
0000
0000
0100
0001
0100
0001
0100
0001
0100
0000
0010
0000
0000
0000
1000
0001
,  // measure 12
1000
0000
0100
0000
0000
0000
0010
0100
0010
0000
0001
0000
0000
0000
1001
0000
,  // measure 13
0000
0000
0010
1000
0010
1000
0010
1000
0010
0000
0100
0000
0000
0000
0001
0010
,  // measure 14
0001
0000
0100
0000
0000
0000
1000
0001
1000
0000
0010
0000
0000
0000
1010
0000
,  // measure 15
0000
0000
1000
0001
1000
0001
1000
0001
1000
0000
0010
0000
0000
0000
0100
0010
,  // measure 16
0100
0000
0001
0000
0000
0000
1000
0100
1000
0000
0001
0000
0000
0000
0022
0000
,  // measure 17
0030
1003
0001
0000
0100
0010
0100
0010
1000
0000
1100
0000
0001
0000
0000
1000
,  // measure 18
0010
0000
0100
0000
0101
0000
0000
0001
0010
0000
0100
0000
1000
0000
2002
0000
,  // measure 19
0003
3010
0100
0000
0001
1000
0001
1000
0010
0000
1010
0000
0100
0000
0000
0001
,  // measure 20
1000
0000
0100
0000
0011
0000
0000
0100
0010
0000
1000
0000
0001
0000
0220
0000
,  // measure 21
0300
1030
0100
0000
0010
0001
0010
0001
0100
0000
1010
0000
0010
0000
0000
1000
,  // measure 22
0100
0000
0010
0000
0011
0000
0000
0001
1000
0000
0010
0000
0100
0000
0220
0000
,  // measure 23
0030
0310
1000
0000
0001
0010
0001
0010
0100
0000
1100
0000
0001
0000
0000
0100
,  // measure 24
0010
0000
1000
0000
0101
0000
0000
0001
0010
0000
0100
0000
1000
0000
1001
0000
,  // measure 25
0000
1000
0001
0000
0010
0100
1000
0100
0010
0000
0001
0000
0100
0000
0010
1000
,  // measure 26
0001
0000
1000
0000
0100
0000
0010
0100
1000
0000
0001
0000
1000
0000
0010
0000
,  // measure 27
0000
0010
1000
0001
1000
0100
0010
0001
0100
0000
0010
0000
1000
0000
0001
0100
,  // measure 28
0010
0000
0100
0000
0001
0000
1000
0100
0020
0000
0230
0000
2300
0000
3002
0000
,  // measure 29
0003
0010
0001
1000
0001
0100
0010
0100
0001
0000
1000
0000
0100
0000
1000
0010
,  // measure 30
0100
0000
0001
0000
0010
0000
0100
1000
0010
0000
0100
0000
0001
0000
1000
0000
,  // measure 31
0000
0001
0010
0001
0010
0100
1000
0010
0100
0000
0001
0000
1000
0000
0100
1000
,  // measure 32
0001
0000
0010
0000
0100
0000
1000
0010
0100
0000
0001
0000
1000
0000
2020
0000
,  // measure 33
0030
3001
0010
0000
0001
1000
0100
1000
0010
0000
0100
0000
0001
1000
0100
0010
,  // measure 34
0001
0000
0100
0000
0001
0010
0100
1000
0010
0000
0100
0000
0001
0000
1000
0000
,  // measure 35
0101
0101
1001
1100
0010
0100
1010
1010
,  // measure 36
1001
0000
0011
0000
0100
0000
0001
0000
0220
0000
0030
0000
0301
1000
0001
0000
,  // measure 37
0010
0100
1000
0100
0010
0001
0100
0001
1000
0010
0100
0001
0010
0100
0010
0100
,  // measure 38
0000
1000
0001
0010
0001
0100
0010
0100
0001
1000
0100
0010
0001
1000
0001
1000
,  // measure 39
0000
0010
0100
0001
0010
0100
1000
0010
1000
0001
1000
0001
0100
0010
0100
0010
,  // measure 40
0000
1000
0100
0010
0001
0010
0100
1000
0010
0100
0010
0100
0001
1000
0001
1000
,  // measure 41
0000
0001
0010
0100
1000
0100
0010
0001
0010
0100
1000
0100
0010
0001
0010
0100
,  // measure 42
0000
1000
0010
0100
0001
0010
0100
1000
0010
0100
0001
0010
0100
1000
0010
0100
,  // measure 43
0000
0100
0001
1000
0001
0010
0100
1000
0010
1000
0001
1000
0100
0010
0001
0100
,  // measure 44
0000
0010
0100
0001
1000
0100
0010
0001
0100
1000
0100
0010
0100
0002
0200
0003
,  // measure 45
0000
0301
1000
0000
0100
0010
0001
1000
0010
0000
0100
0000
0001
0000
1000
0100
,  // measure 46
1000
0000
0010
0000
0100
0000
0001
1000
0001
0000
0010
0000
0100
0000
2002
0000
,  // measure 47
3000
1003
0010
1000
0100
0010
0001
0100
0001
0000
1000
0000
0010
0000
0100
0001
,  // measure 48
0010
0000
0100
0000
1000
0000
0010
1000
0002
0000
0023
0000
0230
0000
2300
0000
,  // measure 49
3000
0001
1000
0010
1000
0001
0010
0100
0010
0000
0001
0000
0100
0000
0001
0100
,  // measure 50
0010
0000
1000
0000
0100
0000
1000
0010
0100
0000
0001
0000
0010
0000
0220
0000
,  // measure 51
0300
0031
0100
0001
0010
0100
1000
0010
1000
0000
0001
0000
0100
0000
0010
1000
,  // measure 52
0001
0000
0010
0000
0100
0000
0010
0001
1000
0000
0010
0000
0100
0000
0101
0000
,  // measure 53
0000
1000
0001
1000
0010
0100
0010
1000
0100
0000
0010
0000
0001
0100
0010
0100
,  // measure 54
0001
0000
1000
0000
0010
1000
0100
0010
0100
0000
1000
0000
0010
0000
0110
0000
,  // measure 55
0000
0001
1000
0001
0010
0100
1000
0010
0100
0000
0001
0000
0010
0100
1000
0001
,  // measure 56
1000
0000
0010
0000
0100
0001
0010
0100
1000
0000
0001
0000
1000
0000
1010
0000
,  // measure 57
0000
0010
0100
0001
0100
0010
1000
0001
1000
0000
0100
0000
0010
0001
1000
0001
,  // measure 58
0100
0000
0010
0000
1000
0100
1000
0010
0100
0000
0001
0000
0010
0000
0011
0000
,  // measure 59
0000
1000
0001
0010
0100
0010
0100
1000
0010
0000
0100
0000
0001
0010
0001
1000
,  // measure 60
0100
0000
0010
0000
0100
1000
0001
0010
0001
0000
0100
0000
0010
0000
1001
0000
,  // measure 61
0000
1000
0100
0010
0001
0010
0100
1000
0010
0000
0110
0000
0000
0000
0001
0010
,  // measure 62
0100
0000
1100
0000
0000
0000
0010
1000
0001
0000
0101
0000
0000
0000
1001
0000
,  // measure 63
0000
0000
0100
0010
1000
0010
0100
0010
1000
0000
1010
0000
0000
0000
0001
0100
,  // measure 64
0010
0000
1010
0000
0000
0000
1000
0001
0010
0000
0110
0000
0000
0000
1100
0000
,  // measure 65
0000
0000
0010
1000
0001
1000
0100
0010
0001
0000
0011
0000
0000
0000
1000
0001
,  // measure 66
0100
0000
0110
0000
0000
0000
0001
0010
0100
0000
1100
0000
0000
0000
0101
0000
,  // measure 67
0000
0000
1000
0010
1000
0001
0010
0100
1000
0000
1100
0000
0000
0000
0010
0100
,  // measure 68
0001
0000
0011
0000
0000
0000
0100
1000
0010
0000
0101
0000
0000
0000
0000
0000
;
