#VERSION:0.83;
#TITLE:Slip Out (bounce in beat mix);
#SUBTITLE:;
#ARTIST:Harmony Machine;
#TITLETRANSLIT:;
#SUBTITLETRANSLIT:;
#ARTISTTRANSLIT:;
#GENRE:;
#ORIGIN:;
#CREDIT:;
#BANNER:Slip Out (bounce in beat mix).png;
#BACKGROUND:Slip Out (bounce in beat mix)-bg.png;
#PREVIEWVID:;
#JACKET:Slip Out (bounce in beat mix)-jacket.png;
#CDIMAGE:;
#DISCIMAGE:;
#LYRICSPATH:;
#CDTITLE:;
#MUSIC:Slip Out (bounce in beat mix).ogg;
#OFFSET:0.000000;
#SAMPLESTART:60.787998;
#SAMPLELENGTH:20.000000;
#SELECTABLE:YES;
#DISPLAYBPM:107.000000;
#BPMS:0.000=106.825,
4.000=106.601;
#STOPS:;
#DELAYS:;
#WARPS:;
#TIMESIGNATURES:0.000=4=4;
#TICKCOUNTS:0.000=4;
#COMBOS:0.000=1;
#SPEEDS:0.000=1.000=0.000=0;
#SCROLLS:0.000=1.000;
#FAKES:;
#LABELS:0.000=Song Start;
#BGCHANGES:;
#KEYSOUNDS:;
#ATTACKS:
;

//---------------dance-single - ----------------
#NOTEDATA:;
#CHARTNAME:;
#STEPSTYPE:dance-single;
#DESCRIPTION:;
#CHARTSTYLE:;
#DIFFICULTY:Beginner;
#METER:2;
#RADARVALUES:0.091112,0.106297,0.010630,0.000000,0.000000,60.000000,59.000000,1.000000,0.000000,0.000000,0.000000,0.000000,0.000000,0.000000,0.091112,0.106297,0.010630,0.000000,0.000000,60.000000,59.000000,1.000000,0.000000,0.000000,0.000000,0.000000,0.000000,0.000000;
#CREDIT:;
#DISPLAYBPM:106.000000;
#NOTES:
0000
0000
0000
0000
,
0000
0000
0000
0000
,
0000
0000
0000
0000
,
1000
0000
0000
0000
,
0001
0000
0000
0000
,
0010
0000
0010
0000
,
0010
0000
0000
0000
,
0010
0000
0010
0000
,
0010
0000
0000
0000
,
1000
0000
1000
0000
,
0001
0000
0000
0000
,
0001
0000
0001
0000
,
1000
0000
0000
0000
,
1000
1000
0000
0000
,
0001
0001
0000
0000
,
0010
0010
0000
0000
,
0000
0000
0000
0000
,
1000
1000
0000
0000
,
0001
0001
0000
0000
,
0100
0100
0000
0000
,
0000
0000
0000
0000
,
0001
0000
0100
0000
,
0100
0000
0001
0000
,
1000
0000
0100
0000
,
0100
0000
0000
0000
,
1000
0000
0001
0000
,
1000
0000
0001
0000
,
0100
0000
0010
0000
,
0100
0000
0000
0000
,
1000
1000
0000
0000
,
0001
0001
0000
0000
,
0010
0010
0000
0000
,
0010
0000
0000
0000
,
1000
0000
0001
0000
,
0100
0000
0000
0000
,
0100
0000
0001
0000
,
0010
0000
0000
0000
,
0010
0000
0001
0000
,
0010
0000
0000
0000
,
0001
0000
1000
0000
,
1001
0000
0000
0000
,
0000
0000
0000
0000
;

//---------------dance-single - ----------------
#NOTEDATA:;
#CHARTNAME:;
#STEPSTYPE:dance-single;
#DESCRIPTION:;
#CHARTSTYLE:;
#DIFFICULTY:Easy;
#METER:4;
#RADARVALUES:0.185261,0.212594,0.074408,0.010630,0.000000,122.000000,115.000000,7.000000,1.000000,0.000000,0.000000,0.000000,0.000000,0.000000,0.185261,0.212594,0.074408,0.010630,0.000000,122.000000,115.000000,7.000000,1.000000,0.000000,0.000000,0.000000,0.000000,0.000000;
#CREDIT:;
#DISPLAYBPM:106.000000;
#NOTES:
0000
0000
0000
0000
,
0000
0000
0000
0000
,
0000
0000
0000
0000
,
1000
1000
0001
0001
,
1000
0001
0100
1001
,
0010
0010
1000
0000
,
0010
0010
0001
0000
,
0010
0010
1000
0000
,
0010
0010
0001
0000
,
0100
1000
0100
1000
,
0010
0001
0010
0001
,
0100
0001
0100
0001
,
0010
0000
0000
0000
,
1000
0001
0000
1000
,
1000
0001
0000
1000
,
0001
0010
0000
0010
,
0000
0000
0000
0000
,
1000
0001
0000
0100
,
1000
0001
0100
0100
,
1000
0001
0100
0010
,
0200
0000
0000
0300
,
0001
0000
0010
1000
,
0010
0000
0001
0001
,
1000
0000
0010
0001
,
0010
0000
0100
0100
,
0110
0000
1000
0001
,
1001
0000
0100
0010
,
0110
0000
0001
1000
,
1001
0000
0000
0000
,
1000
0100
0000
0001
,
0100
1000
0000
0010
,
1000
0001
0000
0100
,
1001
0000
0000
0000
,
1000
0100
0001
0010
,
0100
1000
0010
0001
,
0100
1000
0001
0100
,
0010
1000
0100
0001
,
0010
1000
0001
0100
,
0010
0001
0100
1000
,
0010
0001
1000
0001
,
1001
0000
0000
0000
,
0000
0000
0000
0000
;

//---------------dance-single - ----------------
#NOTEDATA:;
#CHARTNAME:;
#STEPSTYPE:dance-single;
#DESCRIPTION:;
#CHARTSTYLE:;
#DIFFICULTY:Medium;
#METER:6;
#RADARVALUES:0.244483,0.277236,0.170075,0.499596,0.000000,161.000000,145.000000,16.000000,47.000000,0.000000,0.000000,0.000000,0.000000,0.000000,0.244483,0.277236,0.170075,0.499596,0.000000,161.000000,145.000000,16.000000,47.000000,0.000000,0.000000,0.000000,0.000000,0.000000;
#CREDIT:;
#DISPLAYBPM:106.000000;
#NOTES:
0000
0000
0000
0000
,
0000
0000
0000
0000
,
0000
0000
0000
0000
,
1000
0010
0001
0010
,
1000
0000
0100
0000
0001
0001
0001
0000
,
0200
0000
0310
0000
0000
0001
0001
0000
,
0100
0100
1000
0000
0000
0010
0010
0000
,
2000
0000
3001
0000
0000
0100
0100
0000
,
0010
0010
0001
0000
0000
1000
1000
0000
,
0002
0000
0013
0000
0000
1000
0001
0000
,
0010
0001
0100
0000
0000
0100
0010
0000
,
0020
0000
1030
0000
0000
0001
0100
0000
,
0010
0010
0000
0000
0000
0000
0000
0000
,
2200
0000
0000
0300
3000
0001
0001
0000
,
2002
0000
0000
3000
0003
0100
0100
0000
,
0220
0000
0000
0300
0030
1000
1000
0000
,
2002
0000
0000
3003
,
2100
0000
0010
0000
3000
0001
0010
0000
,
0201
0000
0010
0000
0300
0001
0010
0000
,
0102
0000
1000
0000
0003
0100
0010
0000
,
0010
0010
0010
0010
0100
0000
0100
0000
,
2000
3002
2003
3002
,
0203
0320
0230
0320
,
2030
3200
0320
0032
,
1003
1000
0020
0000
0230
0000
0301
0000
,
2001
3002
0023
0031
,
0210
0302
2003
3100
,
1020
0230
0302
1003
,
0010
0010
0000
0000
0000
0000
0000
0000
,
0200
0000
0000
0300
0000
0001
0010
1000
,
0020
0000
0000
0030
0000
0000
0000
0000
,
0200
0000
0000
0300
0000
1000
0001
1000
,
1001
1001
0000
0000
0000
0000
0000
0000
,
0200
0000
0001
0300
0000
1000
0010
1000
,
0200
0000
0010
0300
0001
0000
0100
0000
,
0020
0000
1000
0030
0000
0100
0001
0100
,
0020
0000
0100
0030
0100
0000
0100
0000
,
0002
0000
1000
0003
0000
1000
0100
0001
,
0200
0000
0010
0300
1000
0000
0001
0000
,
0010
0100
1100
0101
,
1001
1001
0000
0000
0000
0000
0000
0000
,
0000
0000
0000
0000
;

//---------------dance-single - ----------------
#NOTEDATA:;
#CHARTNAME:;
#STEPSTYPE:dance-single;
#DESCRIPTION:;
#CHARTSTYLE:;
#DIFFICULTY:Hard;
#METER:10;
#RADARVALUES:0.393299,0.469169,0.329521,0.563374,0.069093,259.000000,228.000000,31.000000,53.000000,0.000000,0.000000,0.000000,0.000000,0.000000,0.393299,0.469169,0.329521,0.563374,0.069093,259.000000,228.000000,31.000000,53.000000,0.000000,0.000000,0.000000,0.000000,0.000000;
#CREDIT:;
#DISPLAYBPM:106.000000;
#NOTES:
0000
0000
0000
0000
,
0000
0000
0000
0000
,
0000
0000
0000
0000
,
0200
0302
2003
3020
,
1030
1000
0001
0001
0100
0010
0110
0000
,
1000
0000
0001
0001
0010
0100
0100
0100
,
1000
0000
0001
0001
0010
0100
0100
0100
,
0001
0000
1000
1000
0100
0010
0010
0010
,
1000
1000
0001
0001
0010
0100
0100
0000
,
0002
0000
1003
0100
0020
0000
0031
0100
,
2000
0000
0000
0000
3100
0000
0100
0010
0000
0010
0000
0010
1000
0000
0001
0000
,
0002
0000
0000
0000
1003
0000
1000
0010
0000
0010
0000
0010
0100
0000
0010
0000
,
1001
1001
0000
0000
0000
0000
0000
0000
,
0012
0000
2003
0000
3010
0100
0010
0000
,
0210
0000
0302
0000
1003
0010
0100
0000
,
2001
0000
3200
0000
0310
0001
1000
0001
,
1001
0000
0000
0000
,
1002
0000
0203
0000
0310
1000
1000
0010
,
0120
0000
2030
0000
3001
0100
0100
0010
,
0201
0000
0302
0000
1003
0100
0100
0000
,
1001
0000
1001
0000
1001
0000
0010
0100
0010
1000
0000
0100
0000
0010
0001
0000
,
0100
1000
0100
0100
0001
1000
0010
0010
,
0100
0001
1000
1000
0100
0010
0001
0001
,
0100
0010
1000
1000
0001
0010
0100
0100
,
1001
1001
0010
1000
0100
0010
0001
0000
,
0100
0001
0100
0000
1000
0000
1000
0000
0200
0000
0001
0000
0301
0000
0010
0000
,
0100
1000
0100
0000
1000
0000
0100
0000
0020
0000
0001
0000
0031
0000
1000
0000
,
0100
0010
0100
0000
1000
0000
0010
0000
0200
0000
0001
0000
0301
0000
1000
0000
,
1001
1001
0000
0000
0000
0000
0000
0000
,
2100
0000
3002
0000
0103
0020
0100
1000
,
2030
0000
3200
0000
0310
0002
0010
1000
,
2003
0000
3020
0000
0130
0002
1000
0103
,
0110
1001
0000
0000
0000
0000
0000
0000
,
0012
0000
2003
0000
3010
0200
0010
0001
,
0302
0000
0023
0000
0130
2000
0100
0001
,
3002
0000
0023
0000
0130
0200
0010
1000
,
2300
0000
3020
0000
0130
0001
1000
0000
,
2100
0000
3002
0000
0103
0120
0100
1030
,
2001
0000
3200
0000
0310
0012
0010
1003
,
2100
3000
0102
0003
2010
3000
0012
0003
,
1010
0101
0000
0000
0000
0000
0000
0000
;

//---------------dance-double - ----------------
#NOTEDATA:;
#CHARTNAME:;
#STEPSTYPE:dance-double;
#DESCRIPTION:;
#CHARTSTYLE:;
#DIFFICULTY:Easy;
#METER:6;
#RADARVALUES:0.186779,0.212594,0.127556,0.010630,0.000000,123.000000,111.000000,12.000000,1.000000,0.000000,0.000000,0.000000,0.000000,0.000000,0.186779,0.212594,0.127556,0.010630,0.000000,123.000000,111.000000,12.000000,1.000000,0.000000,0.000000,0.000000,0.000000,0.000000;
#CREDIT:;
#DISPLAYBPM:106.000000;
#NOTES:
00000000
00000000
00000000
00000000
,
00000000
00000000
00000000
00000000
,
00000000
00000000
00000000
00000000
,
10000000
00000000
00100000
00000000
,
00010000
00001000
00000010
00000001
,
00001001
00000000
00000010
00001000
,
00010000
00000000
00100000
10000000
,
10010000
00000000
01000000
00010000
,
00001000
00000000
00000110
00000000
,
00000001
00001000
00000010
00000000
,
00000100
00001000
00010000
00100000
,
01000000
10000000
01000000
00000000
,
10010000
00000000
00000000
00000000
,
01000000
00100000
00000000
00010000
,
10000000
01000000
00010000
00001000
,
00000010
00000010
00000000
00001001
,
00000000
00000000
00000000
00000000
,
00000001
00001000
00000001
00000100
,
00001000
00001000
00010000
00010000
,
01000000
10000000
01000000
00010000
,
20000000
00000000
00000000
30000000
,
00100000
00000000
00011000
00000000
,
00000100
00000000
00011000
00000000
,
00100000
00000000
10010000
00000000
,
01000000
00000000
00011000
00000000
,
00000010
00000000
00001001
00000000
,
00000100
00000000
00011000
00000000
,
01000000
00010000
00001000
00000100
,
00000100
00000000
00000000
00000000
,
00000010
00001000
00000100
00000001
,
00000010
00001000
00010000
00100000
,
10000000
01000000
00010000
00100000
,
10000000
10000000
00000000
00000000
00000000
00000000
00000000
00000000
,
01000000
10000000
00100000
00010000
,
00001000
00000100
00000001
00000010
,
00001000
00000001
00000100
00001000
,
00010000
01000000
10000000
00100000
,
00010000
01000000
00100000
01000000
,
00001000
00010000
00001000
00010000
,
00001000
00000010
00000001
00000100
,
00001001
00000000
00000000
00000000
,
00000000
00000000
00000000
00000000
;

//---------------dance-double - ----------------
#NOTEDATA:;
#CHARTNAME:;
#STEPSTYPE:dance-double;
#DESCRIPTION:;
#CHARTSTYLE:;
#DIFFICULTY:Medium;
#METER:7;
#RADARVALUES:0.244483,0.277236,0.116927,0.478337,0.000000,161.000000,150.000000,11.000000,45.000000,0.000000,0.000000,0.000000,0.000000,0.000000,0.244483,0.277236,0.116927,0.478337,0.000000,161.000000,150.000000,11.000000,45.000000,0.000000,0.000000,0.000000,0.000000,0.000000;
#CREDIT:;
#DISPLAYBPM:106.000000;
#NOTES:
00000000
00000000
00000000
00000000
,
00000000
00000000
00000000
00000000
,
00000000
00000000
00000000
00000000
,
10000000
00100000
00010000
00001000
,
00000010
00000010
00000010
00000000
00000001
00000000
00001000
00000000
,
00001001
00000010
00001000
00100000
,
01100000
10000000
01000000
00010000
,
10010000
00100000
00010000
00000010
,
00000110
00000001
00000100
00001000
,
00000002
00001003
00000020
00001030
,
00000200
00000000
00010300
00000000
00001000
00010000
00100000
00000000
,
20000000
30010000
02000000
03010000
,
10000000
10010000
00000000
00000000
00000000
00000000
00000000
00000000
,
02200000
00000000
00000000
00300000
03000000
00010000
00010000
00000000
,
02020000
00000000
00000000
00030000
03000000
00001000
00001000
00000000
,
00020200
00000000
00000000
00000300
00030000
00000010
00000010
00000010
,
00000000
00000000
00000000
00000000
,
00000200
00000000
00000010
00000000
00000300
00001000
00001000
00001000
,
00000200
00000000
00010000
00000000
00000300
00001000
00010000
00010000
,
00002000
00000000
00100000
00000000
00003000
00010000
10000000
00000000
,
00001000
00001000
00001000
00001000
00011000
00000000
00000000
00000000
,
00000020
00000230
00000302
00002003
,
00003020
00002030
00023000
00230000
,
02300000
23000000
30020000
00230000
,
00301000
00001000
00020000
00000000
00030200
00000000
00000302
00000000
,
00000203
00000000
00000310
00000010
00000002
00000000
00001003
00000000
,
00000020
00000000
00010030
00010000
00200000
00000000
10300000
00000000
,
00020000
00000000
10030000
10000000
00200000
00000000
01300000
00000000
,
00001000
00001000
00000000
00000000
00000000
00000000
00000000
00000000
,
00000020
00000000
00000000
00000030
00000000
00000010
00000100
00001000
,
00020000
00000000
00001000
00030000
01000000
00000000
00100000
00000000
,
20000000
00000000
00000000
30000000
00000000
10000000
00100000
01000000
,
00010000
00010000
00000000
00000000
00000000
00000000
00000000
00000000
,
02000000
00000000
10000000
03000000
00000000
00100000
00010000
00010000
,
00200000
00000000
00001000
00300000
00010000
00000000
00011000
00000000
,
00002000
00000000
00010000
00003000
00000000
00010000
00001000
00000100
,
00000020
00000000
00000001
00000030
00000100
00000000
00001000
00000000
,
00000002
00000000
00001000
00000003
00000000
00000010
00001000
00010000
,
00200000
00000000
01000000
00300000
00010000
00000000
10000000
00000000
,
00001000
01000000
00010000
00001000
,
00012000
00013000
00000000
00000000
00000000
00000000
00000000
00000000
,
00000000
00000000
00000000
00000000
;

//---------------dance-double - ----------------
#NOTEDATA:;
#CHARTNAME:;
#STEPSTYPE:dance-double;
#DESCRIPTION:;
#CHARTSTYLE:;
#DIFFICULTY:Hard;
#METER:9;
#RADARVALUES:0.356854,0.405191,0.159446,0.297632,0.005315,235.000000,220.000000,15.000000,28.000000,0.000000,0.000000,0.000000,0.000000,0.000000,0.356854,0.405191,0.159446,0.297632,0.005315,235.000000,220.000000,15.000000,28.000000,0.000000,0.000000,0.000000,0.000000,0.000000;
#CREDIT:;
#DISPLAYBPM:106.000000;
#NOTES:
00000000
00000000
00000000
00000000
,
00000000
00000000
00000000
00000000
,
00000000
00000000
00000000
00000000
,
00000002
00002003
00023000
20030000
,
31000000
00100000
00010000
00001000
00000100
00000010
00001001
00000000
,
00000001
00000000
00000010
00000010
00000001
00000100
00001000
00000000
,
00000100
00000000
00000010
00000010
00001000
00010000
01000000
00000000
,
00100000
00000000
10000000
10000000
00010000
10000000
01000000
00000000
,
00010000
00010000
00001000
00001000
00000100
00000001
00000010
00000000
,
00001100
00000000
00000011
00000000
00001000
00000100
00001000
00010000
,
00110000
00000000
11000000
00000000
00100000
00010000
00001000
00000010
,
00000110
00000000
00001001
00000000
00000010
00000100
00001000
00010000
,
00011000
00011000
00000000
00000000
00000000
00000000
00000000
00000000
,
20000000
00000000
00010000
00000000
30100000
01000000
00001000
00010000
,
00000200
00000000
00000001
00000000
00000310
00000001
00000100
00001000
,
00020000
00000000
00000100
00000000
00031000
00100000
00010000
01000000
,
00100000
00000000
00000000
00000000
,
20000000
00000000
00010000
00000000
31000000
00100000
00001000
00010000
,
00000020
00000000
00000001
00000000
00000130
00000001
00000010
00001000
,
00020000
00000000
00000010
00000000
00031000
01000000
10010000
00000000
,
00100000
00000000
00100000
00000000
00100000
00000000
00010000
00001000
00000100
00000000
00000000
00000000
00000100
00000000
00000000
00000000
,
00000010
00000010
00000001
00000001
00001000
00001000
00000100
00000100
,
00010000
00010000
00001000
00001000
00010000
00100000
10000000
00100000
,
01000000
01000000
00010000
00010000
00100000
00100000
00001000
00001000
,
00010000
00010000
00000100
00000100
00000010
00000001
00001000
00000001
,
00000100
00000100
00001000
00001000
00010000
00100000
10000000
01000000
,
00010000
00010000
00001000
00001000
00000100
00000001
00000010
00001000
,
00010000
00010000
00000100
00000100
00001000
00010000
01000000
00100000
,
10010000
10010000
00000000
00000000
00000000
00000000
00000000
00000000
,
00100000
00002000
01000000
00000000
00023000
00000100
00000100
00000000
,
00030010
00002000
00000001
00000000
00003200
00000010
00000010
00000000
,
00001300
00000020
00010000
00000000
00002030
00000001
00000001
00000000
,
00013000
00011000
00000000
00000000
00000000
00000000
00000000
00000000
,
00000100
00020000
00000010
00000000
00032000
00100000
00100000
00000000
,
01003000
00020000
10000000
00000000
00230000
01000000
01000000
00000000
,
00310000
02000000
00001000
00000000
03020000
10000000
10000000
00000000
,
00031000
00000200
00000001
00000000
00000320
00000001
00000001
00000000
,
00000130
00020000
00000100
00000000
00032000
00100000
00100000
00000000
,
01003000
00200000
10000000
00000000
02300000
00010000
00010000
00000000
,
03010000
00000000
00100000
00000000
00001000
00000000
00010000
00001000
,
00011000
00010100
00000000
00000000
00000000
00000000
00000000
00000000
,
00000000
00000000
00000000
00000000
;

//---------------dance-single - ----------------
#NOTEDATA:;
#CHARTNAME:;
#STEPSTYPE:dance-single;
#DESCRIPTION:;
#CHARTSTYLE:;
#DIFFICULTY:Challenge;
#METER:14;
#RADARVALUES:0.693968,0.628083,0.722820,0.223224,0.738764,457.000000,389.000000,68.000000,21.000000,0.000000,0.000000,0.000000,0.000000,0.000000,0.693968,0.628083,0.722820,0.223224,0.738764,457.000000,389.000000,68.000000,21.000000,0.000000,0.000000,0.000000,0.000000,0.000000;
#CREDIT:;
#DISPLAYBPM:107.000000;
#NOTES:
// measure 0
0000
0000
0000
0000
,  // measure 1
0000
0000
0000
0000
,  // measure 2
1010
0101
1100
0011
,  // measure 3
1001
1000
0001
0000
0100
0000
0220
0000
0300
0000
1000
0000
1000
0000
0130
0000
,  // measure 4
0110
0010
0100
0000
0001
0000
1000
0000
2200
0000
0000
0000
0000
0000
0000
3300
,  // measure 5
1001
1000
0000
0001
0100
0000
0010
1000
0000
0001
0000
1000
0010
0000
0101
0000
,  // measure 6
0001
0010
0000
0010
0100
0000
1000
0010
0000
1000
0000
0100
1000
0000
0001
0000
,  // measure 7
0010
0001
0000
0100
0001
0000
1000
0001
0000
1000
0000
0010
1000
0000
0100
0000
,  // measure 8
1100
0000
1001
0000
0101
0000
0010
0100
0000
0001
0000
1000
0100
0000
1001
0000
,  // measure 9
0110
0010
0000
1000
0100
0000
0001
0000
1000
0001
0000
0100
0001
0000
1000
0000
,  // measure 10
0010
1000
0000
0100
1000
0000
0001
0101
0000
0101
0000
0010
0100
0000
0001
0000
,  // measure 11
1000
0100
0000
0010
0001
0000
0100
0110
0000
0110
0000
0010
1000
0000
0001
0000
,  // measure 12
1100
0000
0011
0000
1001
0000
1000
0010
1000
0100
0010
0001
0100
0010
1000
0000
,  // measure 13
2010
0000
0000
0001
3002
0000
0000
0000
1003
0001
0100
0000
0101
0000
1100
0000
,  // measure 14
1002
0000
0000
0010
0023
0000
0000
0000
0031
1000
0100
0000
1100
0000
1010
0000
,  // measure 15
0210
0000
0000
0010
0320
0000
0000
0000
0130
0001
1000
0000
1010
0000
0110
0000
,  // measure 16
1001
0000
0100
0000
1001
0000
0001
0001
0000
1000
0010
0000
0010
0100
0000
0000
,  // measure 17
0102
0000
0000
1000
2003
0000
0000
0000
3010
1000
0100
0000
0110
0000
0011
0000
,  // measure 18
1200
0000
0000
1000
2300
0000
0000
0000
3010
1000
0001
0000
0101
0000
1010
0000
,  // measure 19
0021
0000
0000
0100
0230
0000
0000
0000
1300
0010
1000
0000
1100
0000
0011
0000
,  // measure 20
1001
0000
1100
0000
0110
0000
0010
0001
0100
0100
0000
1010
0000
1000
0001
0000
,  // measure 21
0010
0001
0000
0100
0001
0000
1001
0000
1000
0010
0000
1000
0100
0000
1001
0000
,  // measure 22
0010
0001
0000
0001
0100
0000
0010
1000
0000
1000
0100
1000
0001
0100
0010
0000
,  // measure 23
1000
0001
0000
1000
0010
0000
1000
0100
0000
0100
0010
0001
0100
0010
0001
0000
,  // measure 24
1010
0000
1001
0000
0110
0000
1000
1000
0000
1000
0001
0010
0001
0010
0100
0000
,  // measure 25
1001
1000
1000
0000
0010
0000
0102
0000
0010
0010
0000
0100
0103
0000
0001
0000
,  // measure 26
0011
0001
0001
0000
0100
0000
2010
0000
0010
0010
0000
0100
3100
0000
1000
0000
,  // measure 27
1010
0010
0010
0000
0100
0000
0120
0000
1000
1000
0000
0001
0031
0000
0100
0000
,  // measure 28
0110
0100
0100
0000
0010
0000
1001
0000
1000
1000
0100
0010
0001
0100
1000
0000
,  // measure 29
0010
1000
0100
0000
0010
0001
0100
0000
0001
0010
0100
1000
0100
0010
0001
0000
,  // measure 30
1000
0001
0010
0000
0001
1000
0100
0000
1000
0010
0100
0010
1000
0100
0001
0000
,  // measure 31
0010
0001
1000
0000
0001
0100
1000
0000
0010
1000
0100
1000
0100
0010
0001
0000
,  // measure 32
0011
0000
1001
0000
1100
0000
0000
0010
0001
0100
0000
0001
0000
1000
0100
0000
,  // measure 33
1000
0001
0100
0000
0010
1000
0100
0000
1000
0001
0010
0100
1000
0010
1000
0000
,  // measure 34
0001
0010
0001
0000
1000
0010
1000
0000
0100
1000
0100
1000
0001
0100
0010
0000
,  // measure 35
1000
0001
0010
0000
0100
0010
0100
0000
1000
0010
1000
0100
0010
0001
1000
0000
,  // measure 36
0001
0100
1000
0000
0001
0010
1000
0000
0001
0010
0100
1000
0100
0010
0001
0000
,  // measure 37
1000
0100
0001
0000
1000
0010
0001
0000
1000
0100
0010
0001
0010
0100
1000
0000
,  // measure 38
0010
1000
0001
0000
0100
0010
1000
0000
0001
0010
1000
0001
0010
0100
1000
0000
,  // measure 39
0110
0100
1001
0001
0011
0010
1010
1000
,  // measure 40
1100
0202
0000
0000
0000
0000
0303
0000
;
