#TITLE:Slang;
#ARTIST:Kozo Nakamura;
#BANNER:Slang-bn.png;
#BACKGROUND:Slang-bg.png;
#JACKET:Slang-jacket.png;
#MUSIC:Slang.ogg;
#OFFSET:1.3;
#SAMPLESTART:0.188;
#SAMPLELENGTH:20;
#LASTBEATHINT:0.779;
#DISPLAYBPM:160;
#BPMS:0=160;
#BGCHANGES:;

//---------------dance-single - ----------------
#NOTES:
     dance-single:
     :
     Beginner:
     4:
     :
0000
0000
0000
0000
,
0000
0000
0000
0000
,
0000
1000
0000
0001
,
0000
0100
0000
0100
,
0000
0010
0000
1000
,
0000
0100
0000
0100
,
0000
0010
0000
0001
,
0000
0100
0000
0100
,
0000
0001
0000
1000
,
0000
0010
0000
0010
,
0000
1000
1000
0000
,
0001
0000
0100
0000
,
0001
0001
0001
0000
,
0010
0000
0100
0100
,
0000
1001
0000
0000
,
0001
0000
1000
0000
,
0010
0000
0100
0000
,
0001
0001
0000
0000
,
1000
0000
0010
0000
,
0100
0000
0000
0000
,
0010
0000
1000
0000
,
0001
0000
0000
0000
,
0010
0000
0001
0001
,
0000
0000
0100
0100
,
0100
0000
0010
0010
,
0000
0000
0110
0000
,
1000
1000
1000
1000
,
1000
1000
1000
0000
,
0001
0000
1001
0000
,
0010
0010
0010
0000
,
0000
0110
0000
0000
,
0100
0000
0010
0000
,
1000
0000
0010
0000
,
0100
0100
0000
0000
,
1001
0000
0000
0000
,
0110
0000
0000
0000
,
1001
0000
0110
0000
,
1001
0000
0000
0000
,
0010
0010
0010
0000
,
0000
0000
0000
0000
,
1000
1000
1000
0000
,
0000
0000
0000
0000
,
0001
0001
0001
0000
,
0000
0000
0000
0000
,
0100
0100
0100
0000
,
0000
0000
0000
0000
,
0110
0000
0000
0000
,
0110
0000
0000
0000
,
1000
0000
0001
0000
,
0100
0100
0000
0000
,
0002
0000
0003
0000
,
2000
0000
3000
0000
,
1001
0000
0010
0000
,
0100
0000
0010
0000
,
1000
0000
0100
0000
,
0010
0000
0001
0000
,
0110
0000
0000
0000
,
1000
0000
1001
0000
,
0001
0001
0001
0000
,
0010
0010
0010
0000
,
1000
1000
1000
0000
,
0110
0000
0110
0000
,
1001
0000
0000
1001
,
0000
0010
0000
0001
,
0000
0100
0000
0100
,
0000
0010
0000
1000
,
0000
0100
0000
0100
,
0000
1000
0000
0010
,
0000
0100
0000
0000
,
1001
0000
0000
0000
,
0110
0000
0110
0000
,
0000
0000
0000
0000
,
1001
0000
0000
0000
;

//---------------dance-single - ----------------
#NOTES:
     dance-single:
     :
     Easy:
     8:
     :
0000
0000
0000
0000
,
0000
0000
0000
0000
,
1001
0001
0010
0100
,
1000
1010
0001
1000
,
1100
0010
0001
0100
,
0010
0101
0010
1000
,
0110
0001
0010
1000
,
0100
0011
0010
0001
,
0101
1000
0001
0010
,
0100
0110
0001
0100
,
1001
0000
1001
0000
0020
0000
0000
2030
,
0000
0000
3001
0100
0000
0001
0100
0000
,
0110
0000
0110
0000
0010
0000
0000
2000
,
0000
3002
0000
0000
0013
0000
0010
0000
,
0001
0000
0011
0000
1100
0000
0000
0200
,
0000
0000
0310
0000
1000
0001
1000
0000
,
0010
1000
0100
0001
,
0101
2200
0000
3300
,
0001
0001
1000
0010
,
1000
1020
1030
0001
,
0020
0031
0102
0103
,
1000
0120
0100
1030
,
0001
0100
1010
1010
,
0001
0100
1000
1000
,
1001
0000
0001
0000
0100
0000
0010
2000
,
0000
0000
0000
0000
3001
0010
0100
0000
,
2000
3002
2003
3002
,
0023
0000
0031
0200
0000
0000
0000
0000
,
0310
0000
1001
0000
1000
0100
0010
0000
,
0001
0000
0101
0000
1000
0002
0000
0000
,
0013
0220
0000
0330
,
1000
0010
0200
0002
0000
0000
0303
0000
,
0010
0011
1000
0001
,
1100
0202
0000
0303
,
0010
0010
1000
1000
,
0010
0010
1000
1000
,
0010
0010
1000
1000
,
2020
0000
0000
3030
,
0001
0000
1001
0000
0010
0100
0000
0000
,
0001
0010
2000
3000
,
0100
0000
0011
0000
0010
0100
0000
0000
,
2000
3002
2003
3020
,
0130
0000
1010
0000
1000
0001
0000
0000
,
0020
0001
0100
0100
,
0031
0000
1100
0000
1000
0001
0000
0000
,
0020
0000
0032
0000
0103
0020
0000
0000
,
2030
0000
0000
3002
0000
0000
2003
0000
,
0000
3020
0000
0000
1030
0001
0100
0000
,
0001
0010
0100
1000
,
1100
0022
0000
0033
,
0010
0000
0000
0010
0000
0000
0010
0000
0000
0000
0000
0000
0000
0000
0000
0000
,
0010
0000
0000
0010
0000
0000
0010
0000
0000
0000
0000
0000
0000
0000
0000
0000
,
1001
0001
0100
1000
,
0010
0001
0100
1000
,
0010
0000
0000
0010
0000
0000
0010
0000
0000
0000
0000
0000
0011
0000
0000
0000
,
0010
0000
0000
0010
0000
0000
0010
0000
0000
0000
0000
0000
0011
0000
0000
0000
,
2002
0000
0000
3003
,
0020
0000
0000
0000
1030
0000
0000
0000
0010
0000
0000
0100
0000
0000
0000
0000
,
0002
0010
1000
0013
,
2000
0100
0001
3100
,
1001
0000
1001
0000
0001
0100
0000
0000
,
0010
0010
1000
0001
,
2000
0000
0000
3002
0000
0000
0023
0000
0000
0000
0000
0000
0230
0000
0000
0000
,
1300
1100
0001
0101
,
0010
1000
0100
0001
,
0010
0011
1000
1010
,
0100
0001
0010
1000
,
0100
1001
0010
0110
,
0010
1000
0100
0001
,
1010
0010
1000
0100
,
1100
0110
0022
0000
,
0000
0000
0000
0033
,
1001
0000
0000
0000
;

//---------------dance-single - ----------------
#NOTES:
     dance-single:
     :
     Medium:
     12:
     :
0000
0000
0000
0000
,
0000
0000
0000
0000
,
1001
0000
0010
1000
0000
1000
0100
0010
,
0001
0000
0000
0000
0100
0000
0000
0010
1000
0000
0001
0000
1000
0000
0100
0000
,
0110
0000
0010
0001
0000
0001
1000
0010
,
0100
0000
0000
0000
0001
0000
0000
1000
0001
0000
0100
0000
0010
0000
1000
0000
,
1100
0000
0001
1000
0000
1000
0100
0020
,
0000
0000
0000
0000
0031
0000
0000
0100
0010
0000
1000
0000
0010
0000
0100
0000
,
0101
0000
1000
0010
0000
0010
0100
0001
,
0010
0000
0000
0000
0100
0000
0000
0010
0001
0000
1000
0000
0001
0000
0100
0000
,
0110
0000
1001
0000
1000
0001
0000
0020
,
0000
0000
0031
1000
0001
0000
0200
0000
0000
0000
0310
0000
2000
0000
0000
0000
,
0100
0000
0000
0000
3001
0000
0000
1000
0001
0000
0100
0000
0000
0000
1020
0000
,
0000
0000
2030
0000
0000
3002
0000
0000
0013
0000
0000
0001
0200
0000
0000
0000
,
0310
0000
0101
0000
0001
1000
0000
2100
,
0000
3001
1000
0001
0010
0100
2000
0000
,
3010
1000
0001
1000
0010
0100
0001
0010
,
0100
0000
0022
0000
0000
0000
0030
1000
,
2003
0000
3020
0000
1030
0001
0000
0101
,
0000
0002
0000
1003
0010
1000
0002
0000
,
0203
0000
0000
0000
0310
0000
1020
0000
0000
0000
1030
0100
1000
0000
0001
0000
,
0000
0000
0010
0000
0001
0000
0100
0000
0010
0000
1000
0000
0001
1000
0001
1000
,
0001
0000
0011
0000
1001
0001
1000
0020
,
0000
0000
0000
0000
0000
0000
0000
0000
1030
0100
1000
0000
0001
0100
0001
0000
,
0010
0000
1001
0000
1100
0001
1000
0020
,
0000
0000
0000
0000
0000
0000
0000
0000
0130
0010
0100
0010
0100
0000
0000
0000
,
0101
0000
0000
1100
0000
0000
0101
0000
0000
1100
0000
0000
0001
0000
1000
0000
,
0100
0000
0010
0000
0002
0000
0000
2003
0000
0000
0000
0000
3001
0010
0001
0000
,
0100
0000
0000
0000
1010
0000
0000
0000
0110
0000
0001
0000
1000
0010
1000
0000
,
0100
0000
1000
0001
1000
0000
0001
1000
0002
0000
0200
0000
0003
0000
0010
0000
,
0310
0000
2001
0000
3001
0100
1000
0000
,
0010
0000
0100
0000
0010
0000
0120
0000
0000
0000
1000
0000
1030
0100
1000
0000
,
0001
0010
0100
1000
0001
0100
0010
1000
,
1100
0022
0000
0003
,
0031
0000
0010
0000
0100
0000
1000
0000
0010
0000
0100
0000
,
0001
0000
0010
0000
0100
0000
1000
0000
0010
0000
0100
0000
,
0001
0000
0010
0000
0100
0000
1000
0000
0010
0000
0100
0000
,
0001
0010
1000
0010
0001
0100
1000
0100
,
0001
0010
0100
0000
1100
1100
0000
0002
,
0000
1003
0010
2000
0000
3200
0000
0000
,
1300
0001
0100
0000
0101
0101
0000
0020
,
0000
1030
0002
0000
1003
0010
0200
0000
,
0310
1000
0001
0000
0011
0011
0000
0002
,
0000
1003
0010
1000
0001
1000
0200
0000
,
0301
0100
1000
0000
1010
1010
0000
0220
,
0300
0000
1000
0000
1030
0000
0000
0001
0100
0000
2002
0000
3000
0000
0000
0000
,
0023
0000
0001
0032
0000
1000
2003
0000
,
0100
0000
3200
0000
0000
0000
0000
0000
1300
0010
1000
0010
1000
0000
0000
0000
,
0001
1000
0010
1000
0100
0010
0001
0100
,
0110
0000
0000
0000
2002
0000
0000
0000
0003
0000
0010
0000
3010
0100
0010
0100
,
0010
0000
0000
0101
0000
0000
1100
0000
0000
0000
0000
0000
0000
0000
0000
0000
,
0010
0000
0000
0101
0000
0000
1100
0000
0000
0000
0000
0000
0000
0000
0000
0000
,
0001
0000
0000
0001
0010
0000
0000
0010
0100
0000
0000
0100
1000
0000
0000
1000
,
0100
0000
0000
0100
0010
0000
0000
0010
0001
0000
0000
0001
0100
0000
0010
1000
,
0010
0000
0000
1010
0000
0000
0101
0000
0000
0000
0001
0000
0010
0100
0010
0100
,
0010
0000
0000
0011
0000
0000
1100
0000
0000
0000
1000
0000
0001
0100
0001
0100
,
0001
0010
1000
0010
0001
0100
1000
0100
,
0001
0000
0010
0000
0100
0000
1000
0000
0020
0000
0000
0230
0000
0000
0000
0000
,
0301
0000
0000
0010
0001
0000
0000
1000
0001
0000
0000
0100
0010
0000
0000
0000
,
1000
0000
0000
0100
1000
0000
0000
0010
1000
0000
0000
0001
0100
0000
0000
0000
,
2010
0000
0000
0000
3002
0000
0000
0000
1003
0100
1000
0000
0010
0000
0100
0000
,
0001
0000
0001
0000
0001
0000
1000
0000
1000
0000
1000
0000
,
0010
1000
0020
0200
0000
0330
1001
0000
,
0110
0000
0001
0010
0000
0001
1000
0100
,
0010
0000
0000
0000
0001
0000
0000
0100
0001
0000
0010
0000
0100
0000
1000
0000
,
1100
0000
0010
1000
0000
1000
0100
0010
,
0001
0000
0000
0000
0100
0000
0000
0010
0100
0000
0001
0000
1000
0000
0010
0000
,
0101
0000
1000
0100
0000
1000
0001
0010
,
0100
0000
0000
0000
1000
0000
0000
0001
1000
0000
0100
0000
0010
0000
0001
0000
,
0100
0010
0100
0010
0100
0010
0100
0010
,
2000
0000
0000
3002
0000
0000
0023
0000
0000
0200
0000
0000
0000
0000
0000
0000
,
0000
0000
0000
0330
,
1001
0000
0000
0000
;

//---------------dance-single - ----------------
#NOTES:
     dance-single:
     :
     Hard:
     16:
     :
0000
0000
0000
0000
,
0000
0000
0000
0000
0000
0000
0000
0000
0000
0000
0000
0000
1000
0100
1000
0000
,
1001
0000
1010
0001
0000
1000
0100
0010
,
0001
0000
0000
0000
0200
0000
0000
0310
1000
0001
1000
0000
0100
0010
0001
0000
,
0101
0000
1010
1000
0000
0001
0010
0100
,
1000
0000
0000
0000
0020
0000
0000
0130
0001
0010
0001
0000
1000
0100
0010
0000
,
0011
0000
1100
0001
0000
1000
0010
0100
,
0001
0000
0000
0000
0020
0000
0000
0130
1000
0010
1000
0000
0001
0100
0001
0000
,
0110
0000
1100
0001
0000
1000
0010
0100
,
0010
0000
0000
0000
2000
0000
0000
3100
1000
0001
0010
0000
0001
0100
0010
1000
,
0001
0000
0000
0000
1001
0000
0000
1000
0010
0000
0100
0000
0001
0000
0020
0000
,
0000
0000
0031
1000
0001
0000
0200
0000
0000
0000
0310
0000
0101
0000
0000
0000
,
1100
0000
0000
0000
0101
0000
0000
0001
0010
0000
0100
0000
1000
0000
0001
0000
,
0000
0000
0011
0000
0000
1100
0000
0000
0001
1000
0001
0000
0100
0000
0010
0000
,
1010
0000
0000
0000
0101
0000
0000
0010
0001
0000
0100
0000
0010
0000
2000
0000
,
0000
0000
3100
0000
1000
0000
1000
0000
0001
0100
0001
0000
0020
0000
0000
0000
,
0031
0000
0100
0000
0010
1000
0010
0000
1000
0001
0100
0010
1000
0100
0010
0001
,
0100
0000
0000
0000
0220
0000
0000
0000
0030
0000
0001
0000
0301
1000
0100
0000
,
1001
0000
1010
1000
0010
0100
0001
0110
,
0000
0000
1000
0000
0010
0100
0010
0000
1000
0000
0100
0010
0001
0000
0000
0000
,
0200
0000
0000
0000
0310
0000
2000
0000
0000
0000
3001
0010
0001
0000
0100
0000
,
0000
0000
2010
0000
0000
3001
0010
0100
1000
0010
1000
0000
0001
0100
0010
0100
,
0001
0000
0000
0000
0100
0000
0010
1000
0010
0000
1000
0001
0100
0000
0012
0000
,
0000
0000
1000
0000
1003
0000
0010
0100
0001
0100
0010
0000
1000
0001
1000
0100
,
0010
0000
0000
0000
1001
0000
0001
0010
0002
0000
0203
0000
0320
0000
2030
0000
,
0000
0000
3100
0000
1100
0000
0100
0000
1000
0010
1000
0010
1000
0100
0010
0001
,
0100
0000
0001
1000
0000
0001
1000
0000
0001
0010
0000
0100
1000
0000
0010
0000
,
0100
0000
0010
0000
0001
1000
0100
1000
0002
0000
0000
0000
0013
0100
1000
0000
,
1001
0000
0000
0000
0101
0000
0000
0000
0010
0000
0001
0100
0010
0000
1000
0000
,
0100
0000
0010
0001
0010
0000
0100
0000
1100
0000
0021
0000
0000
0000
0031
0000
,
0110
0000
1002
0000
0013
1000
0100
0000
,
1100
0000
0001
0000
0100
0000
0201
0000
0000
0000
0310
0000
1000
0100
1000
0000
,
0001
0000
0010
0100
1000
0010
0100
0001
1000
0100
1000
0010
0100
0001
1000
0001
,
0100
0000
0000
0000
2010
0000
0000
0000
3010
1000
0010
1000
0001
0010
0001
0100
,
0020
0000
0230
0000
0302
0000
2003
0000
3200
0000
0320
0000
,
0032
0000
2003
0000
3020
0000
2030
0000
3002
0000
0203
0000
,
0302
0000
0023
0000
0032
0000
0203
0000
0320
0000
1030
0000
,
1100
0000
0001
0000
0001
1000
0100
1000
0010
0100
0001
0000
0001
0000
0010
0100
,
1000
0001
1000
0001
1000
0000
0000
0000
1010
0000
0101
0000
0000
0000
0200
0000
,
0000
0310
0001
2000
0000
3010
0200
0000
,
0301
0010
0001
0010
0100
0000
0000
0000
1001
0000
0110
0000
0000
0000
0002
0000
,
0000
0103
1010
0000
1100
0001
0200
0000
,
0310
1000
0001
1000
0010
0000
0000
0000
0110
0000
0101
0000
0000
0000
2000
0000
,
0000
3020
2030
3002
0023
0230
2300
0000
,
3010
0100
0001
1000
0100
0000
0000
0000
1100
0000
1001
0000
0010
0000
0102
0000
,
0000
0000
0103
0000
0110
0000
0001
0010
0001
0000
2000
0000
0000
0000
3010
0100
,
0002
0000
0000
0000
0013
0100
2000
0000
0000
0000
3001
1000
0200
0000
0000
0000
,
0310
0000
0012
0000
0000
0000
0013
0001
1000
0001
0100
0010
1000
0000
0001
1000
,
0001
0010
0100
0000
1000
0000
0010
0100
0001
0000
1000
0001
1000
0000
0100
0010
,
0001
0000
0000
0000
0202
0000
0000
0000
0300
0000
1000
0000
1003
0010
0100
0001
,
0010
0000
0000
1001
0000
0000
1001
0000
0000
0000
0001
0000
1000
0010
0100
0001
,
0010
0000
0000
1001
0000
0000
1001
0000
0000
0000
0100
0000
0001
0010
0001
1000
,
0100
1000
0001
0000
0100
0001
1000
0000
0100
1000
0001
0000
0100
0001
1000
0000
,
0100
1000
0001
0000
0100
0001
1000
0000
0010
0100
0010
0000
1000
0001
0100
0001
,
0010
0000
0001
0100
0000
0100
1000
0000
0000
0000
1010
0000
1000
0010
0100
0001
,
0010
0000
0001
0100
0000
0100
1000
0000
0000
0000
0110
0000
0001
0010
0100
1000
,
0001
0100
0001
0100
0010
1000
0010
1000
0100
1000
0100
1000
0001
0010
0001
0010
,
0100
0000
1000
0001
1000
0010
0100
0001
0010
0000
0000
1100
0000
0000
0000
0000
,
1001
0000
0001
0010
0001
0000
1000
0010
1000
0000
0001
0100
0001
0000
1000
0100
,
1000
0000
0010
0100
0010
0000
1000
0001
1000
0000
0001
0010
0100
0000
1000
0001
,
0200
0000
0000
0000
0320
0000
0000
1030
0001
1000
0100
0000
0010
0000
0000
0000
,
0002
0000
0023
0000
0230
0000
2300
0000
3020
0000
0230
0000
,
0302
0000
2003
0000
3020
0000
0000
0000
0000
0230
0000
0000
,
0301
0000
1001
0110
0000
0010
1000
0100
,
1000
0000
0000
0000
0020
0000
0000
1030
0001
0010
0001
0100
0010
0000
1000
0000
,
1100
0000
0011
0001
0000
0100
0001
0010
,
0100
0000
0000
0000
2000
0000
0000
3010
1000
0001
0010
0000
0001
0100
0010
1000
,
0100
0000
1010
0110
0000
0001
0010
1000
,
0100
0000
0000
0000
0020
0000
0000
0031
0100
0001
0010
0000
0001
1000
0100
1000
,
0010
0100
0010
0100
0001
1000
0001
1000
0010
0100
0010
0100
0001
1000
0001
1000
,
0100
0000
0000
1100
0000
0000
0110
0000
0000
0022
0000
0000
0000
0000
0000
0000
,
0000
0000
0000
0033
,
1001
0000
0000
0000
;
