#TITLE:Ska Ska No. 3;
#ARTIST:亜熱帯マジ-SKA爆弾;
#ARTISTTRANSLIT:ANETTAI MAJI-SKA BAKUDAN;
#BANNER:Ska Ska No. 3-bn.png;
#BACKGROUND:Ska Ska No. 3-bg.png;
#JACKET:Ska Ska No. 3-jacket.png;
#MUSIC:Ska Ska No. 3.ogg;
#SAMPLESTART:17.19;
#SAMPLELENGTH:20;
#DISPLAYBPM:138;
#BPMS:0=140,4=138;
#BGCHANGES:;

//---------------dance-single - ----------------
#NOTES:
     dance-single:
     :
     Beginner:
     3:
     :
0000
0000
0000
0000
,
0000
0000
0000
0000
,
0000
1000
0000
0001
,
0000
1000
0000
0001
,
0000
1000
0000
0100
,
0000
0001
0000
0100
,
0000
1000
0000
0010
,
0000
0100
0000
0001
,
0000
0010
0000
0100
,
0000
0000
0000
0000
,
0000
1000
0000
0001
,
0000
1000
0000
1000
,
0000
0001
0000
1000
,
0000
0001
0000
0001
,
0000
1000
0000
0001
,
0000
1000
0000
1000
,
0000
0001
0000
1000
,
0000
0001
0000
0100
,
0000
1000
0000
1000
,
0000
0001
0000
0001
,
0000
1000
0000
0001
,
0000
0010
0000
0100
,
0000
1000
0000
1000
,
0000
0001
0000
0001
,
0000
0010
0000
0100
,
0000
0001
0000
0010
,
0000
0000
0000
0000
,
0001
0000
0000
0000
,
1000
0000
0000
0000
,
0001
0000
0000
0000
,
1000
0000
0100
0000
,
1000
0000
0010
0000
,
0001
0000
0010
0000
,
0001
0000
0100
0000
,
1000
1000
0000
0000
,
0001
0001
0000
0000
,
0010
0000
0001
0000
,
0010
0000
1000
0000
,
1001
0000
0000
0000
,
0100
0000
0000
0000
,
0000
0010
0000
0100
,
0000
0010
0000
0001
,
0000
0010
0000
0100
,
0000
0010
0000
1000
,
0000
0001
0000
0100
,
0000
1000
0000
0100
,
0000
0010
0000
0100
,
0000
0100
0000
0000
;

//---------------dance-single - ----------------
#NOTES:
     dance-single:
     :
     Easy:
     3:
     :
0000
0000
0000
0000
,
0000
0000
0000
0000
,
0000
1000
0000
0001
,
0000
1000
0000
0001
,
0000
1000
0000
0100
,
0000
0001
0000
0100
,
0000
1000
0000
0010
,
0000
0100
0000
0001
,
0000
0010
0000
0100
,
1001
0000
0000
0000
,
0000
1000
0000
0001
,
0000
1000
0000
1000
,
0000
0001
0000
1000
,
0000
0001
0000
0001
,
0000
1000
0000
0001
,
0000
1000
0000
1000
,
0000
0001
0000
1000
,
0000
0001
0010
0100
,
0000
1000
0000
1000
,
0000
0001
0000
0001
,
0000
1000
0000
0001
,
0000
0010
0000
0100
,
0000
1000
0000
1000
,
0000
0001
0000
0001
,
0000
0010
0000
0100
,
1000
0001
0100
0010
,
1000
0000
0000
0000
,
0001
0000
0000
0000
,
1000
0000
0000
0000
,
0001
0000
0000
0000
,
1000
0010
0100
0000
,
1000
0100
0010
0000
,
0001
0100
0010
0000
,
0001
0010
0100
0000
,
1000
1000
0001
0000
,
0001
0001
1000
0000
,
0010
0100
0001
0000
,
0010
0100
1000
0000
,
1001
0000
0000
0000
,
0100
0000
0000
0000
,
0000
0010
0000
0100
,
0000
0010
0000
0001
,
0000
0010
0000
0100
,
0000
0010
0000
1000
,
0000
0001
0000
0100
,
0000
1000
0000
0100
,
0000
0010
0000
0100
,
1001
0100
1001
0000
;

//---------------dance-single - ----------------
#NOTES:
     dance-single:
     :
     Medium:
     7:
     :
0000
0000
0000
0000
,
0000
0000
0000
0000
,
1000
0100
0010
0001
,
1000
0000
0001
0000
1000
0000
0010
0100
,
0001
0000
0010
0000
0100
0000
1000
0001
,
0100
0000
0010
0000
1000
0001
0010
0100
,
1000
0010
0100
0001
,
1000
0000
0001
0000
1000
0000
0100
0010
,
0001
0000
1000
0000
0010
0000
0100
0001
,
1000
0000
0000
0000
,
1000
0001
1000
0001
,
0010
0000
0100
0000
0010
0000
0001
0100
,
0010
0000
0100
0000
0010
0000
1000
0100
,
0010
0000
0100
0000
1000
0010
0100
0001
,
0010
0100
0010
0100
,
1000
0000
0001
0000
1000
0000
0010
0100
,
0001
0000
1000
0000
0001
0000
0010
0100
,
1000
0000
0001
0000
0100
0010
1000
0100
,
0010
0100
0010
0100
,
1000
0000
0001
0000
1000
0000
0010
0100
,
0001
0000
1000
0000
0001
0000
0010
0100
,
1000
0000
0001
0000
0100
0010
1000
0001
,
1000
0001
1000
0001
,
0100
0000
0010
0000
0100
0000
0001
0010
,
0100
0000
0010
0000
0100
0000
1000
0010
,
0100
0000
0010
0000
1000
0100
0001
0100
,
1000
0000
0000
0001
0000
0000
0000
0000
,
1000
0000
0000
0001
0000
0000
0000
0000
,
1000
0000
0000
0001
0000
0000
0000
0000
,
1000
0000
0000
0001
0000
0000
0000
0000
,
1000
0000
0000
0100
0000
0010
0001
0100
,
0001
0000
0000
0010
0000
0100
1000
0010
,
1000
0000
0000
0100
0000
0010
0001
0100
,
0001
0000
0000
0010
0000
0100
1000
0010
,
0100
0000
0000
0001
0000
1000
0100
0010
,
0001
0000
0000
0100
0000
0010
1000
0100
,
0010
0000
0000
0001
0000
1000
0010
0100
,
0001
0000
0000
1000
0000
0100
0010
0001
,
1000
0000
0000
0000
,
0110
0000
0000
0000
,
1000
0100
0010
0001
,
1000
0000
0001
0000
1000
0000
0010
0100
,
0001
0000
0010
0000
0100
0000
1000
0001
,
0100
0000
0010
0000
1000
0001
0010
0100
,
1000
0010
0100
0001
,
1000
0000
0001
0000
1000
0000
0100
0010
,
0001
0000
1000
0000
0010
0000
0100
0001
,
1000
0000
0000
0000
1001
0000
1001
0000
1001
0000
0000
0000
0000
1001
0000
0000
;

//---------------dance-single - ----------------
#NOTES:
     dance-single:
     :
     Hard:
     12:
     :
0000
0000
0000
0000
,
0000
0000
0000
0000
,
0000
1000
0000
0001
0000
1000
0000
0001
,
0000
1000
0000
0001
0000
1000
0100
0001
,
0000
1000
0000
0001
0000
1000
0000
0001
,
0000
1000
0000
0001
0000
1000
0010
0001
,
0000
1000
0000
0001
0000
1000
0000
0001
,
0000
1000
0000
0001
0000
1000
0100
0001
,
0000
1000
0000
0001
0000
1000
0000
0001
,
0010
0000
0000
0000
1000
0000
0000
0001
,
1000
1000
1000
1000
0100
0100
0100
0100
,
0010
0100
0000
0000
0000
0000
0000
1000
,
0001
0001
0001
0001
0100
0100
0100
0100
,
0010
0100
0000
0000
0000
0000
0000
0001
,
0010
0010
0010
0010
0100
0100
0100
0100
,
1000
0001
0000
0001
0000
1000
0100
0001
,
0000
1000
0000
1000
0000
0001
0000
0001
,
0000
0010
0000
0100
1000
0000
1000
0000
,
0001
0000
0000
0100
0000
1000
0000
0100
,
0000
0100
0010
0001
0100
0010
0100
0010
,
0000
1000
1000
0100
1000
0100
1000
0100
,
0010
0010
0001
0100
0001
0000
0000
0000
,
1000
1000
0100
0100
0010
0010
0001
0100
,
0000
0100
0010
0100
0000
0100
0010
0100
,
0000
0001
1000
0100
0001
0100
1000
0010
,
0001
0010
1000
0100
0010
0001
0100
0010
,
1001
0000
0000
0100
0000
0010
1000
0100
,
1001
0000
0000
0100
0000
0010
0001
0100
,
1001
0010
0010
0010
0100
0100
0100
0100
,
0001
0001
0001
0001
1000
1000
1000
1000
,
0100
0000
0100
0000
0010
0001
0100
0000
,
0010
0000
1000
0100
0000
0000
0000
0000
,
0000
1000
0100
1000
0000
0001
0100
0001
,
0000
1000
0100
1000
0010
0001
0010
1000
,
0100
0000
0010
0001
0100
0000
0010
1000
,
0100
0010
0100
0010
0000
0000
0000
0000
,
0000
1001
0000
1000
0100
0100
0000
0010
,
0001
0000
0001
0000
1000
0100
1000
0100
,
0010
1001
0000
0000
,
0110
0000
0000
0000
0000
0000
0000
1001
,
0100
1001
0100
1001
0010
1001
0010
1001
,
0100
0010
0000
0000
0000
0000
0000
1100
,
0001
0101
1000
1010
0001
0011
1000
1100
,
0001
0101
0000
0000
0000
0000
0000
1001
,
0110
1001
1100
1001
0011
1001
1010
0101
,
0011
1100
0000
1001
0000
0010
0100
0002
,
0000
0003
2000
3000
,
0110
0000
0000
0000
1100
0000
0011
0000
0101
0000
0000
0000
0000
1001
0000
0000
;

//---------------dance-single - ----------------
#NOTES:
     dance-single:
     :
     Challenge:
     14:
     :
0000
0000
0000
0000
,
0000
0000
0000
0000
,
0000
0000
0000
0000
,
0000
0000
0000
0000
,
0000
0000
0000
0000
,
0000
0000
0000
0000
0000
0000
0000
0020
,
1030
0100
0010
0100
0001
0100
0010
0100
,
1000
0000
0100
0000
0001
0000
0100
0000
0010
0000
0100
0000
0001
0100
0020
0000
,
1030
0010
0100
0010
0001
0010
1000
0010
,
0100
0000
0000
0000
0000
0000
0000
0000
0110
0000
0000
0001
1000
0001
0200
0000
,
0310
0010
1000
1000
0001
0001
1000
1000
,
0001
0010
0100
0000
1000
0000
0010
0000
2000
0000
3001
0000
2000
0000
3002
0000
,
0103
0100
0001
0001
1000
1000
0010
0010
,
1000
0100
0010
0000
0001
0000
0100
0000
0020
0000
1030
0000
0020
0000
0230
0000
,
0301
0001
0010
0010
0100
0100
1000
1000
,
0010
0100
0010
1010
0002
0203
0302
0023
,
0000
0000
0001
1000
0000
0000
1000
0001
0000
0000
1000
0001
0000
0000
0001
1000
,
0000
0000
0031
0100
0000
0010
1000
0000
0002
0000
2003
0000
3200
0000
0310
0000
,
0012
0100
0013
0002
1003
0020
1030
0200
,
0301
0100
0100
1000
0020
0130
0001
1000
,
0100
0000
0010
0000
0001
1000
0001
0000
0200
0000
0310
0000
2000
0000
3100
0010
,
0000
0010
0001
0000
0101
0000
2100
0000
0000
0000
0001
0000
3001
1000
0200
0000
,
0310
0000
0001
0100
0001
0000
1000
0100
1000
0000
0001
0010
0001
0000
2002
0000
,
3000
0000
0100
0000
1003
0000
0201
0000
0000
0310
1000
0010
2000
3001
0200
0310
,
0000
1000
0100
0010
0002
0000
2003
0000
3010
0000
0010
0000
1000
0001
0010
0200
,
0000
0000
0001
0000
1300
0000
0010
0100
0001
0010
0001
0010
0100
1000
0100
0010
,
0001
0000
0100
2010
0000
3002
2003
3100
,
0110
0000
0010
0012
0000
2003
3020
0130
,
0001
0011
0011
0011
0011
0011
0011
0011
,
1100
1100
1100
1100
0101
0101
0101
0101
,
1001
0000
0000
1000
0010
0000
0000
1000
0010
0100
0001
0000
0002
0000
0000
0000
,
0023
0000
0031
1000
0002
0000
0203
0000
0000
0000
0320
0000
2030
0000
3001
0000
,
0100
1001
1010
1100
0000
1001
0101
0011
,
0000
0000
1100
0000
0110
0000
0011
0000
2000
3001
1000
0000
0020
0130
0010
0000
,
2010
0000
3001
0100
0120
0000
1030
0001
,
2000
3002
0023
0230
0000
1000
1300
0001
,
0010
1100
0001
0101
1100
1100
0001
1000
,
0010
1000
0100
0000
0010
1000
0100
0000
0010
1000
0100
0000
1000
0000
0001
0000
,
0010
0000
0000
0000
0101
0000
0000
0000
1000
0100
1000
0100
2000
0000
0000
0000
,
3010
0000
0000
0000
0000
0000
0000
0000
0000
0000
0000
0000
2000
0000
0000
0000
0000
0000
3001
0000
0100
0000
0001
0000
0100
0000
0000
0000
0000
0000
0010
0000
0000
1000
0000
0000
0010
0000
0000
0100
0000
0000
0002
0000
0000
0000
0000
0000
,
0013
0011
0011
0101
0101
1010
1010
1100
,
1001
0000
1000
0100
0020
0000
0000
0000
0031
1000
0100
0000
0001
1000
0200
0000
,
0310
0110
0110
1100
1100
1001
1001
0101
,
0101
0000
0002
2003
0100
0000
0000
0000
3010
0000
1001
0000
0110
0000
1001
0000
,
0011
1100
0101
1010
1100
0011
0101
1010
,
1001
0000
0110
0000
0001
0000
0011
0000
1000
0000
0010
0100
0002
0000
2003
0000
,
0010
0100
0100
0010
0100
0001
0001
0100
,
3010
0000
0000
0000
1100
0000
0101
0000
1100
0000
0000
0000
0000
2002
0000
0000
,
0000
0000
0000
0000
,
0000
3003
0000
0000
;

//---------------dance-double - ----------------
#NOTES:
     dance-double:
     :
     Easy:
     4:
     :
00000000
00000000
00000000
00000000
,
00000000
00000000
00000000
00000000
,
10000000
00000000
01000000
00000000
,
00010000
00000000
00001000
00000000
,
00000100
00000000
00000001
00000000
,
00001000
00000100
00000010
00000000
,
00000001
00000000
00000100
00000000
,
00001000
00000000
00010000
00000000
,
01000000
00000000
10000000
00100000
,
01000000
00000000
10010000
00000000
,
01000000
01000000
01000000
00000000
,
00010000
00000000
00001000
00000000
,
00000100
00000100
00000100
00000000
,
00001000
00000000
00010000
00000000
,
00100000
00100000
00100000
00000000
,
00010000
00000000
00001000
00000000
,
00000010
00000010
00000010
00000000
,
00000001
00000100
00000010
00001000
,
00000100
00000000
00000100
00000000
,
00010000
00000000
00010000
00000000
,
00001000
00000000
00100000
00000000
,
00010000
10000000
01000000
00000000
,
00100000
00000000
00100000
00000000
,
00001000
00000000
00001000
00000000
,
00010000
00000000
00000100
00000000
,
00001000
00000001
00000100
00000010
,
00001001
00000000
00000100
00000000
,
00001001
00000000
00000100
00000000
,
00001001
00000000
00000100
00000000
,
00011000
00000000
00100000
00000000
,
00011000
00000000
00100000
00000000
,
00011000
00000000
00100000
00000000
,
10010000
00000000
01000000
00000000
,
10010000
00000000
01000000
00000000
,
10010000
00000000
01000000
00000000
,
10010000
00000000
01000000
00000000
,
00011000
00000000
01000000
00000000
,
00011000
00000000
00000010
00000000
,
00011000
00000000
00000000
00000000
,
00000010
00000100
00000000
00000000
,
00000001
00000000
00000100
00000000
,
00001000
00000000
00010000
00000000
,
01000000
00000000
10000000
00000000
,
00010000
01000000
00100000
00000000
,
00010000
00000000
00001000
00000000
,
00000010
00000000
00000001
00000000
,
00000100
00000000
00001000
00000000
,
00010000
00000000
00000000
00000000
01000000
00000000
00000000
00000000
00100000
00000000
00000000
00000000
00000000
10010000
00000000
00000000
;

//---------------dance-double - ----------------
#NOTES:
     dance-double:
     :
     Medium:
     8:
     :
00000000
00000000
00000000
00000000
,
00000000
00000000
00000000
00000000
,
00000000
10000000
00000000
10000000
00000000
00010000
00000000
00010000
,
00000000
00100000
00000000
00100000
00000000
01000000
00000000
01000000
,
00000000
00010000
00000000
00010000
00000000
00001000
00000000
00001000
,
00000000
00000100
00000000
00000100
00000000
00000001
00000000
00000001
,
00000000
00000010
00000000
00000010
00000000
00000100
00000000
00000100
,
00000000
00010000
00000000
00010000
00000000
00001000
00000000
00001000
,
00000000
00100000
00000000
00100000
00000000
01000000
00000000
01000000
,
10000000
00000000
00010000
00000000
,
00000000
00100000
00000000
00100000
00000000
00001000
00000000
00001000
,
00000000
01000000
00000000
01000000
00000000
00010000
00000000
00010000
,
00000000
00100000
00000000
00100000
00000000
00001000
00000000
00001000
,
00000000
00010000
00000000
00010000
00000000
00000100
00000000
00000100
,
00000000
00000010
00000000
00000010
00000000
00000001
00000000
00000001
,
00000000
00000100
00000000
00000100
00000000
00001000
00000000
00001000
,
00000000
00010000
00000000
00010000
00000000
00100000
00000000
00100000
,
00000000
10000000
00000000
10000000
00000000
00010000
00000000
00010000
,
10000000
10000000
00000000
01000000
,
00100000
00001000
00010000
00000100
,
00000000
00010000
00010000
00001000
00010000
00001000
00000000
00000000
,
00010000
00001000
00010000
00001000
00010000
00000000
00000000
00000000
,
00000010
00000100
00000001
00000000
,
00001000
00000000
00001000
00000000
,
00000000
00000100
00000010
00000100
00000001
00000100
00001000
00000100
,
00010000
00001000
00010000
00001000
,
00011000
00000000
01000000
00010000
,
10010000
00000000
01000000
00001000
,
00011000
00000000
00000100
00001000
,
00001001
00000000
00000100
00010000
,
00011000
00000000
01000000
10000000
,
10010000
00000000
01000000
00010000
,
00011000
00000000
00000100
00000001
,
00001001
00000000
00000100
00001000
,
00011000
00000000
00100000
10000000
,
10010000
00000000
00100000
00010000
,
00011000
00000000
00000010
00000001
,
00001001
00000000
00000010
00001000
,
00011000
00000100
00000000
00000000
,
00011000
00100000
00000000
00000000
,
00000000
00010000
00000000
00010000
00000000
10000000
00000000
10000000
,
00000000
01000000
00000000
01000000
00000000
00010000
00000000
00010000
,
00000000
00001000
00000000
00001000
00000000
00000100
00000000
00000100
,
00000000
00000001
00000000
00000001
00000000
00000010
00000000
00000010
,
00000000
00001000
00000000
00001000
00000000
00010000
00000000
00010000
,
00000000
00100000
00000000
00100000
00000000
10000000
00000000
10000000
,
00000000
00010000
00000000
00010000
00000000
01000000
00000000
00001000
,
00010000
00000000
00000000
00000000
00001000
00000000
00010000
00000000
00001000
00000000
00000000
00000000
00000000
00001001
00000000
00000000
;

//---------------dance-double - ----------------
#NOTES:
     dance-double:
     :
     Hard:
     10:
     :
00000000
00000000
00000000
00000000
,
00000000
00000000
00000000
00000000
,
00000000
10000000
00000000
00010000
00000000
01000000
00000000
00001000
,
00000000
00100000
00000000
00010000
00000000
10000000
01000000
00100000
,
00000000
00001000
00000000
00000100
00000000
00000001
00000000
00000010
,
00000000
00000100
00000000
00010000
00000000
00000010
00000100
00000001
,
00000000
00001000
00000000
00000100
00000000
00010000
00000000
00000010
,
00000000
00000100
00000000
00001000
00000000
00010000
00000100
00000010
,
00000000
00000001
00000000
00001000
00000000
00000100
00000000
00010000
,
00001000
00000000
00000000
00000000
00000000
00000000
00000000
00000000
00100000
00000000
00000000
00010000
10000000
00000000
00010000
00000000
,
00000000
10000000
00000000
01000000
00000000
00100000
00000000
00001000
,
00000000
00010000
00000000
00000010
00000000
00010000
00001000
01000000
,
00000000
00010000
00000000
10000000
00000000
00100000
00000000
01000000
,
00000000
00001000
00000000
00010000
00000000
00000010
00001000
00000001
,
00000000
00001000
00000000
00000100
00000000
00010000
00000000
00001000
,
00000000
00000000
00100000
00000000
00000000
00000000
00010000
00000000
00000000
00000000
10000000
00010000
10000000
00000000
00010000
00000000
,
00000000
01000000
00000000
00001000
00000000
00010000
00000010
00001000
,
00000000
00000001
00000000
00000100
00000010
00001000
00000001
00000100
,
00000000
00000010
00000000
00010000
00000000
00001000
00000000
00100000
,
00000000
01000000
00000000
00010000
00000000
00001000
00010000
00000100
,
00000000
00001000
00000000
00000001
00000000
00000010
00000000
00000100
,
00000000
00010000
00000000
00001000
00000000
00100000
01000000
00100000
,
00000000
00010000
00000000
10000000
00000000
01000000
00000000
00100000
,
00000000
00001000
00000000
00010000
00000000
00000100
00000010
00000100
,
00000000
00001000
00000000
00000001
00000000
00000100
00000000
00000010
,
00000000
00010000
00001000
00100000
00010000
10000000
01000000
00100000
,
00001000
00000000
00001000
00010000
00000000
00000010
00001000
00000001
,
00000100
00000000
00000010
00010000
00000000
00001000
00010000
00000010
,
00001000
00000001
00000100
00000010
00001000
00000100
00010000
00001000
,
00100000
00010000
10000000
01000000
00100000
00010000
10000000
01000000
,
00100000
00000000
00001000
00000000
00010000
00000010
00001000
00000001
,
00000100
00000000
00000010
00001000
00000000
00000001
00000010
00000100
,
00000000
00010000
00001000
00100000
00000000
00010000
00000100
00001000
,
00000000
00000001
00000100
00000010
00010000
00001000
01000000
00010000
,
10000000
00000000
10000000
00010000
10000000
00000000
01000000
00100000
,
01000000
00000000
00010000
00001000
00000000
00000100
00000010
00000100
,
00000001
00001000
00000000
00001000
00000100
00001000
00000000
00010000
,
00001000
00000000
00000100
00000000
00010000
00001000
00100000
00010000
,
10000000
00000000
00000000
00000000
01000000
00000000
00000000
00000000
00100000
00010000
00100000
00010000
00100000
00000000
00000000
00000000
,
00001000
00000000
00000000
00000000
00010000
00000000
00000010
00001000
00000010
00000000
00000001
00000100
00000001
00000100
00000001
00000000
,
00000000
00001000
00000000
00000100
00000000
00010000
00000000
00001000
,
00000000
00100000
00000000
00010000
00000000
10000000
00100000
01000000
,
00000000
00001000
00000000
00010000
00000000
00000010
00000000
00001000
,
00000000
00000001
00000000
00000010
00000000
00000100
00010000
00001000
,
00000000
00100000
00000000
00010000
00000000
10000000
00000000
01000000
,
00000000
00000000
00100000
00000000
00000000
00000000
00001000
00000000
00000000
00000000
00010000
00000100
00010000
00000000
00001000
00000000
,
00000000
00100000
00010000
01000000
00000000
00001000
00000010
00000001
,
00000100
00000000
00000000
00000000
00001000
00000000
00010000
00000000
01000000
00000000
00000000
00000000
00000000
10010000
00000000
00000000
;
