#TITLE:Siren Song;
#ARTIST:Canton Becker;
#BANNER:Siren Song-bn.png;
#BACKGROUND:Siren Song-bg.png;
#JACKET:Siren Song-jacket.png;
#MUSIC:Siren Song.ogg;
#OFFSET:0.096;
#SAMPLESTART:41.047;
#SAMPLELENGTH:20;
#DISPLAYBPM:140;
#BPMS:0=140;
#BGCHANGES:;

//---------------dance-single - ----------------
#NOTES:
     dance-single:
     :
     Beginner:
     2:
     :
0000
0000
0000
0000
,
0000
0000
0000
0000
,
0000
0000
0000
0000
,
0000
0000
0000
0000
,
0010
0000
0000
0000
,
0100
0000
0000
0000
,
0001
0000
0000
0000
,
1000
0000
0000
0000
,
0001
0000
0000
0000
,
0010
0000
0000
0000
,
0100
0000
0000
0000
,
1000
0000
0000
0000
,
0001
0000
0000
0000
,
1000
0000
0000
0000
,
0001
0000
0001
0000
,
0100
0000
0000
0000
,
0010
0000
0010
0000
,
1000
0000
0000
0000
,
0100
0000
1000
0000
,
0001
0000
0000
0000
,
0010
0000
0010
0000
,
0001
0000
0001
0000
,
0100
0000
0010
0000
,
1000
1000
0000
0000
,
0001
0000
0001
0000
,
1000
0000
0000
0000
,
0010
0000
0100
0000
,
0010
0000
0000
0000
,
2000
0000
3000
0000
,
0002
0000
0003
0000
,
0200
0000
0300
0000
,
0020
0000
0030
0000
,
0110
0000
0000
0000
,
1001
0000
0000
0000
,
0001
0000
0000
0000
,
0010
0010
0000
0000
,
0001
0000
0000
0000
,
0100
0000
0000
0000
,
0010
0000
0000
0000
,
1000
0000
0000
0000
,
0100
0000
1000
0000
,
0001
0000
0100
0000
,
0001
0000
0010
0000
,
1000
0000
0100
0000
,
1000
0000
0001
0000
,
0200
0000
0300
0000
,
0010
0000
1000
0000
,
0002
0000
0003
0000
,
0010
0000
0100
0000
,
2000
0000
3000
0000
,
0001
0000
0100
0000
,
0020
0000
0030
0000
,
2000
0000
3000
0000
,
0002
0000
0003
0000
,
0200
0000
0300
0000
,
0020
0000
0030
0000
,
1000
0000
0001
0000
,
1000
1000
1000
0000
;

//---------------dance-single - ----------------
#NOTES:
     dance-single:
     :
     Easy:
     5:
     :
0000
0000
0000
0000
,
0000
0000
0000
0000
,
0000
0000
0000
0000
,
0000
0000
0000
0000
,
0010
0000
1000
0000
,
0001
0000
0100
0000
,
0001
0000
0010
0000
,
0100
0000
1000
0000
,
0010
0000
0100
0001
,
0010
0000
0100
0000
,
1000
0000
0001
1000
,
0010
0000
0100
0000
,
0001
0000
0010
0000
,
0001
0000
1000
0000
,
0010
0010
0010
0010
,
0010
0000
0100
0000
,
0001
0001
0001
0001
,
1000
0001
1000
0001
,
0100
0010
0100
0010
,
1000
0000
0100
0000
,
1000
1000
1000
1000
,
0001
0001
0001
0001
,
0010
0001
0010
0100
,
1000
2002
0000
0003
,
3001
0000
0010
0000
,
0001
0100
1000
0100
,
0010
0000
1000
0000
,
0100
0001
1000
0010
,
2000
3000
0002
0003
,
0020
0030
0200
0300
,
2000
3000
0020
0030
,
0100
0010
1000
0001
,
0020
0030
0002
0003
,
0100
0010
1000
0001
,
0010
0000
0001
0100
,
1000
0220
0000
0030
,
1300
0000
0001
0100
,
0001
0000
0010
0100
,
1000
0000
0001
1000
,
0010
0000
1000
0100
,
1001
0000
0010
0010
,
0110
0000
0001
0001
,
1001
0000
0100
0100
,
0110
0000
1000
1000
,
0001
0100
0020
0030
,
1000
0001
0200
0300
,
0001
0010
2000
3000
,
0100
1000
0020
0030
,
2000
3000
0002
0003
,
0020
0030
0002
0003
,
0200
0300
0020
0030
,
2000
3000
0200
0300
,
2000
0000
0001
3001
,
0200
0000
0010
0310
,
0002
0000
1000
1003
,
0200
0000
0010
0310
,
2000
3000
0002
0003
,
0100
0010
1000
0000
;

//---------------dance-single - ----------------
#NOTES:
     dance-single:
     :
     Medium:
     8:
     :
0000
0000
0000
0000
,
0000
0000
0000
0000
,
0000
0000
0000
0000
,
0000
0000
0000
0000
,
0020
0000
0000
0000
1030
0100
0001
0000
,
2000
0000
0000
0000
3010
0100
0001
0000
,
0200
0000
0000
0000
0301
1000
0010
0000
,
0002
0000
0000
0000
0013
0100
1000
0000
,
0002
0000
1003
0100
,
0020
0000
0031
1000
,
0200
0000
0310
0001
,
2000
0000
3001
0010
,
0001
0001
0001
0001
,
2000
0000
3010
0100
,
1000
1000
1000
1000
,
0002
0000
0103
0010
,
1000
0100
1000
0100
,
0010
0001
0010
0001
,
1000
0010
1000
0010
,
0100
0001
0100
0001
,
1000
0000
0001
0000
1000
0100
0010
0001
,
0100
0000
0010
0000
0100
0010
1000
0001
,
1000
0000
0001
0000
1000
0010
0100
0001
,
0010
2200
0000
0300
,
3001
0010
0001
1000
,
0010
0000
0100
0000
0010
1000
0100
0010
,
0001
0100
0001
1000
,
0100
0000
0010
0000
0100
1000
0001
1000
,
0200
0000
0000
0000
1300
0010
0100
0001
,
0020
0000
0000
0000
0031
1000
0010
0100
,
0002
0000
0000
0000
1003
0100
0010
0001
,
2000
0000
0000
0000
3010
1000
0001
0100
,
0002
0000
0013
1000
,
0100
0000
0010
0000
0001
0100
0001
1000
,
0020
0000
1030
0001
,
0010
0022
0000
0003
,
0230
0000
0000
0000
1300
0001
1000
0001
,
2000
0000
0000
0000
3001
1000
0001
1000
,
0002
0000
0000
0000
0013
0100
0010
0100
,
0020
0000
0000
0000
0031
1000
0001
1000
,
0002
0000
0000
0000
0013
0100
1000
0000
,
0020
0000
0000
0000
1030
0100
0001
0000
,
2000
0000
0000
0000
3001
0100
0010
0000
,
0200
0000
0000
0000
0310
1000
0001
0000
,
0010
0001
0010
0001
,
0200
0000
0020
0330
,
1000
0100
1000
0100
,
2000
0000
0002
3003
,
0020
0001
0200
0330
,
2000
0100
0020
3030
,
0200
0001
2000
3300
,
0002
0010
0200
0303
,
2000
0000
0001
3001
,
0020
0000
0100
0130
,
0002
0000
1000
1003
,
0200
0000
0010
0310
,
2000
3020
0230
0302
,
0013
0100
0001
1000
0000
0000
0000
0000
;

//---------------dance-single - ----------------
#NOTES:
     dance-single:
     :
     Hard:
     11:
     :
0000
0000
0000
0000
,
0000
0000
0000
0000
,
0000
0000
0000
0000
,
0000
0000
0000
0000
,
0020
0000
0000
0000
1030
0100
0010
0001
,
0200
0000
0000
0000
0301
0010
0100
1000
,
0002
0000
0000
0000
1003
0001
0010
0100
,
2000
0000
0000
0000
3100
1000
0001
0010
,
0002
0000
0000
0000
0013
0001
1000
0100
,
2000
0000
0000
0000
3100
0010
0001
1000
,
0020
0000
0000
0000
1030
0001
0100
0010
,
0200
0000
0000
0000
0301
0010
0100
1000
,
0020
0000
0000
0000
0000
0000
0000
1030
0010
0000
1000
0000
0100
0000
0001
0000
,
2000
0000
0000
0000
0000
0000
0000
3001
1000
0000
0010
0000
0100
0000
0001
0000
,
0200
0001
1000
0310
,
0002
0000
0000
0000
0000
0000
0000
0013
0001
0000
1000
0000
0010
0000
0100
0000
,
0001
0001
1000
1000
,
0010
0000
0000
0000
1000
0000
0000
0001
1000
0000
0100
0000
0010
0000
0001
0000
,
0100
0100
0010
0010
,
1000
0000
0000
0000
0001
0000
0000
0010
0001
0000
1000
0000
0010
0000
0100
0000
,
0010
1000
0100
0001
,
0010
0001
0100
1000
,
0001
0010
0000
0000
0100
1000
0000
0000
0001
0100
0000
0000
0010
1000
0000
0000
,
0100
0000
1100
0000
0001
1000
0010
0100
,
0001
1000
0000
0000
0010
0100
0000
0000
0001
1000
0000
0000
0010
0100
0000
0000
,
0002
0000
0000
0000
0013
0000
0000
0001
1000
0000
0100
0000
0010
0000
0100
0000
,
2000
0010
0001
3100
,
0020
0001
0100
1030
,
0002
1000
0000
0000
0010
0000
0000
0000
0200
0000
0000
0000
0303
0000
0000
0000
,
0020
0100
0000
0000
0001
0000
0000
0000
2000
0000
0000
0000
3030
0000
0000
0000
,
0200
2000
0000
0000
0300
0000
0000
0000
0002
0000
0000
0000
3003
0000
0000
0000
,
0020
0002
0000
0000
0003
0000
0000
0000
0200
0000
0000
0000
0330
0000
0000
0000
,
1000
0010
0100
0010
0001
0010
0100
0010
,
2000
0001
0000
0000
0010
0000
0000
0000
0200
0000
0000
0000
3300
0000
0000
0000
,
0010
0001
0100
1000
0100
0010
0100
0001
,
0010
0000
0011
0000
1000
0100
0010
0001
,
0200
0000
0020
0030
,
0002
0003
2000
3300
,
0002
2000
0000
0000
3000
0000
0000
0000
1003
0000
0010
0000
0100
0000
0001
0000
,
0020
0002
0000
0000
0003
0000
0000
0000
0031
0000
1000
0000
0010
0000
0100
0000
,
0001
0010
0100
1000
0010
0100
0001
1000
,
0200
0000
0000
0000
1300
0001
0100
0010
,
2000
0000
0001
0000
3010
1000
0100
0001
,
0020
0000
0100
0000
0031
0100
0001
1000
,
0010
1000
0000
0000
0100
0001
0000
0000
1000
0000
0100
0000
0010
0000
0001
0000
,
1000
0100
0000
0000
0001
0010
0000
0000
0001
0000
1000
0000
0010
0000
0100
0000
,
0001
0010
1000
0010
0001
0010
1000
0010
,
0001
0100
0010
0000
1000
0001
0100
0010
,
0220
0000
0300
0000
1030
0010
0100
0001
,
0202
0000
0003
0000
0301
1000
0010
0100
,
2020
0000
0030
0000
3100
1000
0001
0010
,
0100
0000
1001
0000
0001
0010
0100
1000
,
0002
0000
0000
0000
0013
0001
0100
1000
,
0020
0000
0000
0000
0130
0010
1000
0001
,
0200
0000
0000
0000
0301
0010
1000
0100
,
2000
0000
0000
0000
3001
0010
0100
1000
,
0010
1000
0100
0010
0001
0100
0001
1000
,
0010
0100
0001
1000
0000
0000
0000
0000
;
