#TITLE:Short Skirt, Long Jacket;
#ARTIST:Cake;
#BANNER:Short Skirt, Long Jacket-bn.png;
#BACKGROUND:Short Skirt, Long Jacket-bg.png;
#JACKET:Short Skirt, Long Jacket-bg.png;
#CDIMAGE:Short Skirt, Long Jacket-jacket.png;
#MUSIC:Short Skirt, Long Jacket.ogg;
#OFFSET:0.333;
#SAMPLESTART:61.667;
#SAMPLELENGTH:20;
#DISPLAYBPM:120;
#BPMS:0=120;
#STOPS:100=3;
#BGCHANGES:;

//---------------dance-single - ----------------
#NOTES:
     dance-single:
     :
     Beginner:
     3:
     :
0000
0000
0000
0000
,
0000
0000
0000
0000
,
1001
0000
0010
0000
,
0000
0000
1000
0000
,
1001
0000
0001
0000
,
0000
0000
0100
0000
,
1001
0000
0100
0000
,
0001
0001
0001
0000
,
0110
0000
1000
0000
,
0010
0010
0010
0000
,
0110
0000
1000
0000
,
0100
0000
0010
0000
,
0110
0000
0001
0000
,
1000
0000
0010
0000
,
1001
0000
0000
1000
,
1000
0000
0000
0001
,
0001
0000
0000
0100
,
0100
0000
0000
0010
,
0010
0000
0000
0100
,
0100
0000
0000
0001
,
0001
0000
0000
1000
,
1000
0000
0001
0000
,
0110
0000
0100
0000
,
0010
0000
1000
0000
,
1001
0000
0000
0000
,
0110
0000
1001
0000
,
0100
0000
0000
0000
,
0010
0000
1001
0000
,
1000
0000
0000
0000
,
0001
0000
1001
0000
,
0010
0000
0001
0000
,
1000
1000
1000
0000
,
0010
0000
0100
0000
,
0001
0001
0001
0000
,
0010
0000
0001
0000
,
0100
0100
0100
0000
,
0010
0000
1000
1000
,
1000
0000
0110
0000
,
0000
0010
0010
0000
,
0000
1000
1000
0000
,
0000
0100
0100
0000
,
0000
0001
0001
0000
,
0000
1000
1000
0000
,
0000
0010
0010
0000
,
0000
0100
0100
0000
,
0010
0000
0110
0000
,
1000
0000
0010
0010
,
0010
0020
0000
0000
,
0030
0000
0110
0000
,
0000
0000
0001
0000
,
0001
0000
1000
0000
,
1000
0000
0010
0000
,
0010
0000
0100
0000
,
0100
0000
0001
0000
,
1000
0000
0010
0000
,
0100
0000
0001
0000
,
0001
0000
0010
0000
,
0010
0000
0100
0000
,
0100
0000
1000
0000
,
1000
0000
2002
0000
,
0000
0000
0000
0000
,
0000
3003
0000
0000
;

//---------------dance-single - ----------------
#NOTES:
     dance-single:
     :
     Easy:
     7:
     :
0000
0000
0000
0000
,
0000
0000
0000
0000
,
2002
0000
3003
0000
0001
1000
0000
0000
,
0000
0010
1000
0100
,
2002
0000
3003
0000
0100
0010
0000
0000
,
0000
1000
0100
0010
,
1001
0001
0100
0100
,
0010
1000
1100
0000
,
0110
0010
1000
0100
,
0010
0011
0011
0000
,
0110
1000
0010
0100
,
0001
0001
1000
0100
,
1001
0010
1000
0001
,
0100
0010
0000
0100
0000
0010
0000
0100
,
0010
1000
0100
0001
,
1001
0000
0110
0000
1001
0000
0000
0010
,
2000
3000
0002
0003
,
0010
0001
0202
0303
,
1000
0100
2200
3300
,
0001
0010
0022
0033
,
1000
0010
2020
3030
,
0001
0001
1000
1000
,
1100
0010
2000
3000
,
0002
0000
0003
0020
0000
0030
0010
0001
,
2000
0100
0100
3100
,
0110
0001
1000
0000
2002
0000
3003
0000
,
0010
0100
0000
0000
0000
0000
0001
0000
,
0010
0100
2002
3003
,
1000
0001
0000
0000
0000
0000
0010
0000
,
0001
0100
1001
0010
,
2000
3000
1000
0010
,
1100
1100
1100
0001
,
1000
0100
0010
0001
,
0101
0101
0101
0010
,
1000
0100
0001
0010
,
0110
0110
0110
1000
,
0020
0000
0030
0000
0100
0010
0000
0100
,
0000
0010
0000
0100
0010
0000
0000
2020
,
3030
0001
0000
1000
0001
0000
0000
0022
,
0033
1000
0000
0100
1000
0000
0000
2020
,
3030
0100
0000
0001
0100
0000
0000
0022
,
0033
1000
0000
0001
1000
0000
0000
2020
,
3030
0010
0000
1000
0001
0000
0000
0022
,
0033
0001
0000
1000
0100
0000
0000
2020
,
3030
0000
0001
0001
,
1000
1000
1100
0010
,
1000
0001
1010
1010
,
1100
0202
0000
0000
,
0000
0000
0303
0000
0110
0000
0000
2002
,
0000
3003
2000
3100
,
0020
0030
0002
0103
,
0020
1030
0200
0310
,
0200
0300
2000
3010
,
0200
0301
2000
3001
,
0020
0030
0020
0031
,
0200
0301
0010
0100
,
1000
0000
0001
0100
,
0010
0010
1000
0001
,
0010
0000
0100
1000
,
1100
1100
0022
0000
,
0000
0000
0000
0000
,
0000
0033
0000
0000
;

//---------------dance-single - ----------------
#NOTES:
     dance-single:
     :
     Medium:
     10:
     :
0000
0000
0000
0000
,
0000
0000
0000
0000
,
2002
0000
0000
0000
3003
0000
0000
1000
0100
0000
0100
0000
0000
0000
0000
0000
,
0000
0000
0000
0010
0002
0000
0000
0023
0000
0000
0230
0000
0000
1300
0000
0000
,
2002
0000
0000
0000
3003
0000
0000
0001
0100
0000
0100
0000
0000
0000
0000
0000
,
0000
0000
0000
0010
2000
0000
0000
3200
0000
0000
0320
0000
0000
0031
0000
0000
,
1001
0010
1000
0100
2000
0000
3010
0100
,
0002
0000
1003
0010
1000
0001
0000
0000
,
0000
0000
0010
0000
0001
1000
0002
0000
0000
0000
0000
0000
0103
0000
0020
0000
,
0000
1030
1100
0000
,
0000
0000
0001
0000
0100
0000
0001
2000
0000
0000
0000
0000
3010
0000
0000
0000
,
1010
0000
0000
0101
0000
0000
1100
0000
0000
0000
0002
0000
0000
0000
1003
0000
,
0000
0012
0000
1003
0020
0000
0130
0000
,
0101
0101
0000
1100
0000
0101
0000
1100
,
1100
0010
1000
0001
0200
0000
0310
1000
,
0001
0000
0000
0000
0001
0000
0100
0000
0001
0000
1000
0000
0000
0010
0100
0000
,
0220
0000
0330
0001
1000
0200
0000
1300
,
1010
0000
0000
0000
1000
0001
0000
0100
0000
0000
0000
0000
0000
0000
0100
0000
,
0001
0010
0001
0000
0010
0000
0100
0000
2000
0000
0000
0000
3000
0000
1000
0000
,
0010
0100
0010
0000
1000
0000
0002
0000
0000
0000
0000
0000
0003
0000
0010
0000
,
0001
0000
1000
0000
0010
0100
0010
0000
1000
0000
0001
0000
0000
0000
0001
0000
,
0010
0100
0010
0000
0000
0000
0011
0000
0000
0000
0000
0000
0000
0000
0000
0000
,
1010
0000
0010
0000
1000
0000
0100
0000
0020
0000
0000
0000
0030
0000
0001
1000
,
0001
0000
0000
0000
0000
0000
0101
0000
0000
0000
0000
0000
0000
1000
0002
0000
,
2000
0000
0000
3003
,
0110
0000
0001
0000
1000
0000
0001
0000
2002
0000
0000
0000
3003
0000
0000
0010
,
0100
0000
0100
0000
0000
0000
0000
0000
0000
0000
0000
0001
2000
0000
0000
3002
,
0000
0000
0023
0000
0000
0031
0000
0000
2002
0000
0000
0000
3003
0000
0000
1000
,
0001
0000
0001
0000
0000
0000
0000
0000
0000
0000
0000
0100
0020
0000
0000
2030
,
0000
0000
3200
0000
0000
1300
0000
0000
2001
0000
0000
0000
3001
0000
0010
0000
,
0200
0000
0000
0000
0300
0000
1000
0000
0001
0000
0000
0010
0000
0000
0100
0000
,
1100
0000
0000
0000
1100
0000
0000
0000
1100
0000
0001
0000
0100
0010
0200
0000
,
0000
0000
0301
0000
1000
0000
0000
0010
0000
0000
0100
0000
0000
0000
0000
0000
,
0101
0000
0000
0000
0101
0000
0000
0000
0101
0000
0100
0000
0010
1000
0020
0000
,
0000
0000
0000
0130
0000
0000
0001
0000
1000
0000
0001
0000
1000
0000
0000
0100
0000
0000
0010
0000
0000
0100
0000
0000
,
1000
0001
1000
0000
0000
0000
0010
0000
0100
0000
0001
0000
1000
0100
1000
0000
,
0002
0000
0000
0000
0000
0000
0003
0000
0000
0100
0000
0000
0001
0000
0000
0000
0010
0000
0000
0000
0100
0000
0000
0000
,
2200
0000
3300
0000
0011
0001
1000
0020
,
0230
0000
0000
0000
0300
0000
0001
0000
0010
0000
0000
0001
0000
0000
2000
0000
,
3100
0000
0000
0000
0000
0000
1000
0010
2000
0000
0000
0000
3100
0000
0020
0000
,
0031
0000
0101
0000
0100
0100
0010
2000
,
3000
0000
1000
0001
0022
0000
0033
0002
,
1003
0000
0000
0010
0000
0000
0000
0000
0000
0100
0000
0000
0001
0000
1000
0000
0001
0000
1000
0000
0000
0020
0000
0000
,
0030
0000
0000
0000
0000
0000
0010
1000
0010
0000
0100
0000
0001
0000
2000
3001
,
1000
0000
0010
0000
0000
0000
0100
0000
0010
1000
0010
0000
0000
0000
1010
0000
,
0000
0000
0000
0000
0000
0000
0000
0000
0110
0000
0002
0000
0000
0013
0100
0000
,
2000
0000
3010
1000
1010
0000
1010
0000
,
0001
0100
0202
0000
0000
0000
0000
0000
,
0000
0000
0303
0000
0110
0000
0000
2020
,
0000
0000
3030
0000
0002
1000
1003
0000
,
0020
0100
0030
0000
0002
0000
0013
0000
,
0200
1300
0020
1030
,
0002
0100
0003
0000
2000
0000
3001
0000
,
0020
0130
2000
3100
,
2000
0001
3000
0000
0020
0000
0130
0000
,
0002
0000
1003
0000
0001
0200
0000
0310
,
2000
0000
3100
0020
0000
0031
2000
0000
,
3010
2000
0000
3100
0020
0000
0031
0200
,
0000
0310
0200
0000
0301
2000
0000
3001
,
0011
0011
2200
0000
,
0000
0000
0000
0000
,
0000
3300
0000
0000
;

//---------------dance-single - ----------------
#NOTES:
     dance-single:
     :
     Hard:
     12:
     :
0000
0000
0000
0000
,
0000
0000
0000
0000
,
2002
0000
0000
0000
3003
0000
0000
0001
0100
0001
0100
0000
0000
0000
0000
0000
,
0000
0000
0000
0010
1000
0010
1000
0001
0000
0000
0101
0000
0000
1100
0000
0000
,
2002
0000
0000
0000
3003
0000
0000
0010
0001
0010
0001
0000
0000
0000
0000
0000
,
0000
0000
0000
1000
0100
1000
0100
1000
0000
0000
1010
0000
0000
0011
0000
0000
,
1001
0010
1000
0001
0200
0010
0310
1000
,
0002
0010
0013
0100
1000
0001
0100
0000
,
0110
0000
0010
0000
1000
0001
2000
0000
0000
0000
3010
0000
0100
0000
0002
0000
,
0010
0000
0000
0000
1003
0000
0000
0000
1100
0000
0001
0000
0000
0101
0000
0000
,
1010
0000
1000
0000
0100
0010
0200
0000
0000
0000
1000
0000
1300
0000
0000
0000
,
1001
0000
0000
1010
0000
0000
2100
0000
0000
0000
3002
0000
0100
0000
0103
0000
,
0010
0000
0210
0000
0000
0000
0301
0000
1000
0000
0010
0000
0100
0000
0000
0001
,
1000
0010
0100
0010
0001
0010
1000
1100
,
1001
0010
1000
0100
1000
0001
1000
0100
,
1000
0010
1000
0001
1000
0100
1000
0010
,
0100
0001
0100
1000
0100
0010
0100
1000
,
0100
0001
0100
0010
0100
1000
0100
0010
,
2020
0000
0000
0000
3030
0000
0001
0100
0001
0000
1000
0000
0100
0000
0010
0000
,
0022
0000
0000
0000
0033
0000
0100
0010
0100
0000
0001
0000
1000
0000
0010
0000
,
0202
0000
0000
0000
0303
0000
0010
1000
0010
0000
0100
0000
0001
0000
1000
0000
,
0010
0100
0010
0000
1000
0000
0001
0000
0100
0000
1000
0000
0100
0000
0001
0000
,
0011
0000
0100
0000
1000
0000
0001
0000
2000
0000
0000
0000
3000
0000
0001
0100
,
0001
0000
0000
0000
1000
0000
1100
0000
0000
0000
0010
0000
0100
0001
2000
0000
,
0010
0010
0010
0010
0010
0010
0010
3010
,
0110
0000
0001
1000
0001
0000
0001
0000
2002
0000
0000
0000
3003
0000
0000
1000
,
0100
1000
0100
0000
0000
0000
0000
0000
0000
0000
0000
0001
0100
0001
0100
0001
,
0000
0000
0011
0000
0000
1100
0000
0000
2002
0000
0000
0000
3003
0000
0000
0010
,
1000
0010
1000
0000
0000
0000
0000
0000
0000
0000
0000
0001
0010
0001
0010
0001
,
0000
0000
0101
0000
0000
1010
0000
0000
1001
0000
0000
0000
0010
0000
1000
0000
,
0002
0000
0013
0001
1000
0010
1000
0100
,
1100
0000
1100
0000
1100
0001
0100
0010
,
2000
0000
0100
0000
3100
0000
2000
0000
0000
3020
0000
0000
0130
0000
0001
0000
,
0101
0000
0101
0000
0101
0001
0010
0100
,
0001
0100
1000
0010
0100
0001
1000
0010
,
0110
0000
0000
0000
0110
0000
0000
0000
0110
0000
0001
0000
1000
0100
1000
0000
,
0020
0000
0000
0000
0000
0000
0130
0000
0000
0001
0000
0000
0011
0000
0000
0000
1100
0000
0000
0000
0101
0000
0000
0000
,
1100
0001
0100
0110
1001
0010
1000
0200
,
1300
0001
1000
0010
1000
0001
1000
0200
,
1300
0100
1000
0010
0100
1000
0100
0002
,
0103
0010
0100
1000
0100
0010
0100
0002
,
0103
0000
1000
0000
0100
0000
0001
0000
0022
0000
0000
0000
0033
0000
1000
0010
,
1000
0000
0100
0000
0010
0000
0001
0000
0202
0000
0000
0000
0303
0000
0010
0100
,
0010
0000
1000
0000
0001
0000
0100
0000
2020
0000
0000
0000
3030
0000
0100
0001
,
0100
0000
0010
0000
1000
0000
0001
0000
0010
0100
0010
0000
0001
0000
1000
0000
,
0100
0000
0001
0000
0100
0000
1000
0000
1100
0000
0020
0000
0000
0130
0001
0000
,
1002
0000
0103
0010
1010
0000
1010
0000
,
0001
0100
0201
0000
0010
0010
0010
0010
,
0010
0010
0010
0310
0110
0000
0002
2000
,
0003
0000
0000
3010
0100
0000
0100
0000
0001
0000
0100
0000
1000
0000
0100
0000
,
0001
0100
0010
0000
1000
0100
0001
0100
,
2000
0001
3002
0000
0103
0010
0001
0010
,
1000
0010
0100
0000
0001
0010
1000
0010
,
0002
0100
0203
0000
0310
1000
0100
0001
,
0100
1000
0010
0000
0100
0001
0100
1000
,
0200
0010
0320
0000
1030
1010
0000
0101
,
0101
0000
1100
1100
0000
0011
0011
0000
,
1001
1001
0000
1100
1100
0000
0110
0110
,
0000
0011
0011
0000
0101
1100
0000
1100
,
0101
0101
2020
0000
,
0000
0000
0000
0000
,
0000
3030
0000
0000
;
