#TITLE:She's in Love with the Boy;
#ARTIST:Trisha Yearwood;
#BANNER:She's in Love with the Boy-bn.png;
#BACKGROUND:She's in Love with the Boy-bg.png;
#JACKET:She's in Love with the Boy-jacket.png;
#MUSIC:She's in Love with the Boy.ogg;
#OFFSET:1.667;
#SAMPLESTART:53.473;
#SAMPLELENGTH:20;
#LASTBEATHINT:1.373;
#DISPLAYBPM:125;
#BPMS:0=125;
#BGCHANGES:;

//---------------dance-single - ----------------
#NOTES:
     dance-single:
     :
     Beginner:
     2:
     :
0000
0000
0000
0000
,
0000
0000
0000
0000
,
0000
0000
0000
0000
,
0000
0000
0000
0000
,
0000
0000
0000
0000
,
0001
0000
0001
0000
,
0001
0000
0001
0000
,
1000
0000
1000
0000
,
0100
0000
0000
0000
,
1000
0000
1000
0000
,
1000
0000
1000
0000
,
0010
0000
0010
0000
,
0100
0000
0000
0000
,
0001
0000
0010
0000
,
0001
0000
0100
0000
,
1000
0000
0010
0000
,
0100
0000
0000
0000
,
0010
0000
1000
0000
,
0001
0000
0001
0000
,
1000
0000
0001
0000
,
0100
0000
0000
0000
,
0010
0000
0010
0000
,
1000
1000
1000
0000
,
0000
0000
0001
0000
,
0010
0010
0010
0000
,
0001
0000
1000
0000
,
0100
0100
0100
0000
,
1000
0000
0001
0000
,
0100
0000
0010
0000
,
1000
0000
0001
0000
,
0000
0000
0000
0000
,
0100
0000
0010
0000
,
0000
0000
0000
0000
,
1000
0000
0100
0000
,
0000
0000
0000
0000
,
0001
0000
0100
0000
,
0110
0000
0000
1000
,
1000
0000
0001
0000
,
1001
0000
0000
0000
,
0000
0000
0000
0000
,
0001
0000
0010
0000
,
0001
0000
0100
0000
,
1000
0000
0001
0000
,
0100
0000
0000
0000
,
0010
0000
0100
0000
,
0010
0000
1000
0000
,
0100
0000
0010
0000
,
0001
0000
0000
0000
,
0100
0000
0010
0000
,
1000
1000
1000
0000
,
0000
0000
0100
0000
,
0010
0010
0010
0000
,
0001
0000
0100
0000
,
0010
0010
0010
0000
,
1000
1000
1000
0000
,
0001
0001
0001
0000
,
0010
0000
0001
0000
,
0000
0000
0000
0000
,
0100
0000
0001
0000
,
0000
0000
0000
0000
,
1000
0000
0010
0000
,
0000
0000
0000
0000
,
1000
0000
0001
0000
,
0100
0000
0000
0000
,
0001
0000
0001
0000
;

//---------------dance-single - ----------------
#NOTES:
     dance-single:
     :
     Easy:
     6:
     :
0000
0000
0000
0000
,
0000
0000
0000
0000
,
0000
0000
0000
0000
,
0000
0000
0000
0000
,
0000
0000
0000
0000
,
0000
0001
0010
1000
,
0010
0100
0001
0000
,
0000
1000
0001
1000
,
0010
0000
0100
0000
,
0001
0010
0001
0100
,
1000
1000
1000
0000
,
0000
0010
1000
0100
,
0001
0000
0200
0320
,
1030
1001
0100
0000
,
0010
1000
0200
0300
,
1000
0010
1000
0001
,
0200
0300
0010
0000
,
1000
0001
0020
0030
,
0001
0100
2000
3000
,
0010
0010
1000
0001
,
0100
0000
2000
3002
,
0013
0001
0101
0000
,
1000
0100
1100
0000
,
0000
0010
0110
0100
,
0001
0010
1000
0000
,
0100
1000
1000
0001
,
1001
0110
1001
0000
,
1100
1000
0101
0001
,
0010
0100
1000
1001
,
0020
1000
0200
0330
,
0001
1000
0001
0100
,
0002
0010
2000
3003
,
0010
1000
0100
0010
,
0002
0010
0200
0303
,
1000
0001
0100
0000
,
0010
1000
0100
0010
,
0001
0000
0100
0110
,
1000
0001
0100
0100
,
2002
0000
0000
3000
,
0100
0000
0100
0000
,
0103
0001
1000
0010
,
1000
0100
0010
0000
,
0001
0100
0001
0010
,
1000
0000
0100
0000
,
1000
0001
0100
0001
,
0010
0100
1000
0000
,
0010
1000
0001
1000
,
0100
0000
2000
3002
,
0013
0001
0101
0000
,
1000
0100
1100
0000
,
0000
0010
0110
0100
,
0001
0010
1000
0000
,
0100
1000
0010
0100
,
0110
1001
0110
0000
,
0001
0100
0101
0000
,
1000
0100
1100
0001
,
2000
0010
0200
3300
,
1000
0010
1000
0100
,
0020
0001
2000
3030
,
0010
0001
0100
0001
,
0020
0100
0002
0033
,
1000
0010
0100
0000
,
0001
0010
0100
1000
,
0010
0000
1001
0110
,
2000
0010
0002
0000
,
0000
0000
0000
0000
,
3003
0000
0000
0000
;

//---------------dance-single - ----------------
#NOTES:
     dance-single:
     :
     Medium:
     9:
     :
0000
0000
0000
0000
,
0000
0000
0000
0000
,
0000
0000
0000
0000
,
0000
0000
0000
0000
,
0000
0000
0000
0000
,
0000
0000
0010
0001
1000
0001
0010
0100
,
2000
3002
0203
0300
,
0000
0010
1000
0010
0100
0001
1000
0001
,
0200
0300
0020
0030
,
0000
1000
0001
0010
0001
0100
0010
1000
,
0200
0320
0032
0003
,
0000
0000
0001
0100
0001
1000
0000
0020
,
0000
0030
0101
1100
,
0001
0000
0001
1000
0010
0100
0000
0000
,
0001
0010
0001
2000
0000
0000
3000
0000
,
0000
0000
1000
0010
1000
0001
0010
0100
,
1000
0001
0100
0010
,
0000
1000
0100
1000
0010
0100
0000
0001
,
1000
0001
0010
0200
0000
0000
0300
0000
,
1000
0010
1000
0010
0100
0001
1000
0200
,
0000
0300
1100
0101
,
0010
1000
0100
0010
0002
0000
0003
0000
,
1000
0001
1000
0010
0200
0000
0300
0000
,
0000
0001
0001
0100
0010
1000
0010
0100
,
0001
1000
0100
1000
0020
0000
0030
0000
,
0000
1000
0010
1000
0010
0100
0001
0010
,
0200
2300
0002
3003
,
0000
0011
0000
1000
0100
1000
0001
0000
,
0100
0010
1000
0002
0000
0000
0013
0100
,
2000
0000
3001
1000
0200
0000
0310
0000
,
0002
0000
0203
0000
0320
0000
1030
0100
,
2000
0000
3010
0100
0002
0000
0013
0000
,
0002
0000
2003
0000
3020
0000
1030
0100
,
0020
0000
0031
1000
0020
0000
0130
0000
,
0002
0000
2003
0000
3200
0000
0300
1000
,
1000
0010
0100
0001
1000
0100
0010
0001
,
0100
0000
0000
0000
0000
0010
1000
0001
,
0100
0001
1000
0000
1100
0000
0110
0000
,
0022
0030
2000
3000
,
2000
0000
3000
0000
2003
0000
3001
1000
,
0000
0010
1000
0001
1000
0100
0010
0001
,
0200
0320
2000
3030
,
0000
0001
1000
0001
1000
0100
0010
0001
,
0200
0300
0020
0030
,
0000
1000
0010
1000
0001
1000
0010
0100
,
0010
1000
0002
0000
0200
0000
0303
0000
,
0000
0001
0010
0001
1000
0100
1000
0010
,
0200
0300
0101
1100
,
0010
1000
0001
1000
0200
0000
0300
0010
,
0010
0001
1000
0001
0200
0000
0300
0000
,
0000
1000
1000
0001
1000
0010
0100
0001
,
0010
0001
1000
0001
0020
0000
0030
0000
,
0000
0001
0010
0001
1000
0010
0100
0001
,
0020
0230
2000
3300
,
0001
1000
0001
1000
0010
0100
0000
0100
,
0001
0010
0001
1000
0200
0000
1300
0010
,
2000
0000
3100
0010
0002
0000
0103
0000
,
0020
0000
2030
0000
3002
0000
0013
0100
,
2000
0000
3001
1000
0020
0000
0130
0000
,
0020
0000
2030
0000
3200
0000
1300
0001
,
0020
0000
0031
0100
0020
0000
1030
0000
,
0200
0000
2300
0000
3002
0000
0003
0100
,
0001
1000
0001
1000
0010
0100
0010
0100
,
0002
0000
0000
0000
0003
0000
0010
0001
,
0200
0000
0310
1000
0002
0000
0000
0000
,
0000
0000
0000
0000
,
0003
0000
0000
0000
;

//---------------dance-single - ----------------
#NOTES:
     dance-single:
     :
     Hard:
     12:
     :
0000
0000
0000
0000
,
0000
0000
0000
0000
,
0000
0000
0000
0000
,
0000
0000
0000
0000
,
0000
0000
0000
0000
,
0010
0000
0001
1000
0001
0010
0100
1000
,
0020
0000
2030
0000
3002
0100
0103
0000
,
0001
0010
0010
0001
0100
0010
1000
1000
,
0200
1000
1300
0000
0001
1000
0010
0100
,
0000
0001
1000
0001
0010
0100
1000
0010
,
0200
0000
0302
0000
0023
0100
0130
0000
,
1100
0000
0010
1000
0100
0100
0010
0001
,
2000
0001
3001
0000
1000
0010
0100
0000
,
0001
0000
1001
0001
0010
0100
1000
0000
,
0010
1000
0010
0000
0100
0000
0001
0000
1000
0000
0001
0000
0100
0000
0010
0000
,
1000
0000
1000
0001
1000
0100
0010
0001
,
0200
0010
0310
0000
1000
0010
0100
0001
,
0000
0010
0010
0001
1000
0010
1000
0100
,
1000
0001
1000
0000
0010
0000
0100
0000
0001
0000
1000
0000
0100
0000
0000
0000
,
0010
0010
0001
0100
0001
0010
0100
1000
,
0020
1000
1030
0010
0100
0000
0110
0000
,
1001
1000
0100
0010
0002
0100
0103
0000
,
0001
0010
0100
1000
0010
0000
1000
0001
,
0100
0000
0001
0010
0001
0000
0100
0000
1000
0000
0010
0000
0010
0000
0100
0000
,
0001
1000
0001
0100
0010
1000
0010
0100
,
0001
0010
0010
0001
0100
0010
1000
0001
,
0011
0000
0110
0000
2100
0001
3001
0000
,
0100
0010
1000
0001
1000
0100
0010
0001
,
0100
0000
0010
0000
1000
0000
0001
0000
0100
0010
0100
0000
0001
0000
1000
0100
,
2000
0000
3001
1000
0020
0100
0130
0000
,
0001
0100
1000
0100
0001
0010
1000
0010
,
0002
0000
0103
0010
2000
0001
3001
0000
,
1000
0100
0001
0100
1000
0010
0001
0010
,
2000
0000
3100
0010
0002
1000
1003
0000
,
0001
0010
1000
0010
0001
0100
1000
0100
,
0001
0001
0001
1000
0010
1000
0100
1000
,
1000
0101
0000
0001
0010
0100
1000
0010
,
1000
0001
0100
0000
1000
0001
1010
0000
,
0202
0000
0300
0000
1000
1000
0000
0000
,
1000
1000
0000
0000
1000
1003
0001
0100
,
0000
0010
1000
0010
1000
0100
0010
0001
,
0200
0000
0320
0000
2030
0001
3001
0000
,
1000
0010
1000
0001
0100
0001
0010
0100
,
1000
0001
0200
0000
0320
0000
1030
0100
,
0000
1000
1000
0010
1000
0001
0010
0100
,
0010
0001
0100
0000
0110
1000
0001
0000
,
1000
0010
1000
0001
0010
1000
0010
0100
,
2000
0001
3001
0100
0010
0000
0110
0000
,
1001
1000
0010
0100
0002
0000
0013
0100
,
1000
1000
1000
0001
0100
0010
1000
0002
,
0000
0000
1003
0010
1000
0000
0100
0000
0010
0000
0001
0000
0001
0000
0100
0000
,
0010
1000
0001
1000
0200
0010
0310
0000
,
0001
0100
0010
1000
1000
0001
1000
0100
,
1100
0000
0110
0000
0012
0100
0103
0000
,
0001
0010
0001
0100
1000
0010
1000
0100
,
1000
0001
1000
0000
0010
0000
0100
0001
0100
0000
0010
0000
1000
0100
1000
0000
,
0020
0000
1030
0001
2000
0100
3100
0000
,
1000
0010
0001
0010
1000
0100
0001
0100
,
2000
0000
3010
0100
0002
0010
0013
0000
,
0001
0100
1000
0100
0001
0010
1000
0010
,
0002
0000
1003
0010
2000
0100
3100
0000
,
1000
0010
0001
0010
1000
0100
0001
0100
,
1000
1000
1000
0001
0010
0001
0100
0010
,
1000
0010
1000
0000
0100
0000
0010
0001
0010
0000
0100
0000
1000
0000
0001
0000
,
0200
0000
0310
1000
0002
0000
0000
0000
,
0000
0000
0000
0000
,
0003
0000
0000
0000
;
