#TITLE:She's a Lady;
#ARTIST:Tom Jones;
#BANNER:She's a Lady.png;
#BACKGROUND:She's a Lady-bg.png;
#JACKET:She's a Lady-jacket.png;
#MUSIC:She's a Lady.ogg;
#OFFSET:1.5;
#SAMPLESTART:56.06;
#SAMPLELENGTH:20;
#LASTBEATHINT:0.959;
#DISPLAYBPM:117:124;
#BPMS:0=117,4=119,12=123,20=120,28=121,48=119,60=122,68=117,72=120,76=118,78=124,80=118,92=122,98=118,120=119,142=117,148=120,190=118,200=120,206=118;
#BGCHANGES:;

//---------------dance-single - ----------------
#NOTES:
     dance-single:
     :
     Beginner:
     3:
     :
0000
0000
0000
0000
,
0000
0000
0000
0000
,
0000
0000
0000
0000
,
1000
1000
1000
0000
,
0020
0000
0030
0000
,
1000
0000
0001
0000
,
0100
0000
0010
0000
,
0100
0100
0000
0000
,
0000
0000
0000
0000
,
0001
0000
0010
0000
,
0100
0000
1000
0000
,
0010
0010
0000
0000
,
0000
0000
0000
0000
,
1000
1000
0000
0000
,
0010
0010
0010
0000
,
1000
1000
0000
0000
,
0100
0100
0000
0000
,
1000
1000
0000
0000
,
0000
0000
0001
0000
,
2002
0000
3003
0000
,
0001
0001
0001
0000
,
0010
0000
0100
0000
,
1000
0000
0001
0000
,
1000
1000
0000
0000
,
0010
0010
0010
0000
,
0100
0000
0010
0000
,
1000
0000
0001
0000
,
0010
0010
0000
0000
,
0001
0001
0001
0000
,
0100
0100
0000
0000
,
0010
0010
0010
0000
,
0100
0100
0000
0000
,
0001
0001
0000
0000
,
0100
0100
0000
0000
,
0000
0000
1000
0000
,
2002
0000
3003
0000
,
0100
0100
0100
0000
,
0001
0000
0010
0000
,
0001
0001
0001
0000
,
1000
0000
0010
0000
,
1000
1000
1000
0000
,
0100
0000
0010
0000
,
0100
0100
0100
0000
,
0001
0000
1000
0000
,
0010
0010
0020
0000
,
0030
0000
0110
0000
,
0110
0000
1000
1000
,
1000
0000
0001
0001
,
0000
0000
0100
0100
,
0100
0000
0001
0001
,
0000
0000
0010
0010
,
0010
0000
0001
0001
,
0000
0000
0000
0000
,
0110
0000
1001
0000
,
0000
0000
1000
1000
,
1000
0000
0001
0001
;

//---------------dance-single - ----------------
#NOTES:
     dance-single:
     :
     Easy:
     6:
     :
0000
0000
0000
0000
,
0000
0000
0000
0000
,
0000
0000
0000
0000
,
1000
0001
0100
0010
,
2000
0100
0001
3010
,
1000
0100
1000
0010
,
0100
0001
0010
0001
,
2000
3001
0000
0100
,
0000
0010
0000
1000
,
0100
0010
0100
1000
,
0010
0100
0001
1000
,
0020
0130
0000
0001
,
0000
1000
0000
0010
,
1001
0110
0000
0000
,
2000
3002
2003
3010
,
1001
0110
0000
0000
,
0001
0010
0001
1000
,
1001
0110
0000
0000
,
0000
1000
0100
0001
,
2002
0000
0003
0010
,
0001
0010
0001
3010
,
1000
0100
1000
0010
,
0100
0001
0010
0100
,
0020
0031
0000
0100
,
0010
0010
0020
1030
,
0100
1000
0010
0100
,
0001
0010
0001
1000
,
0200
1300
0000
0100
,
0010
0010
0020
0031
,
0011
1100
0000
0000
,
0002
2003
3002
1003
,
0011
1100
0000
0000
,
0010
1000
0100
0001
,
0011
1100
0000
0000
,
0000
1000
0001
0100
,
2002
0000
3000
0010
,
1000
0010
1000
0013
,
1000
1000
0001
0001
,
0100
0010
0220
0330
,
1000
1000
0100
0100
,
0010
0001
0022
0033
,
1000
1000
0010
0010
,
0001
0100
2200
3300
,
0010
0010
1000
0001
,
1100
0110
0022
0000
,
0030
1003
2020
3030
,
0202
0303
1100
0101
,
1100
0010
0101
1010
,
0000
0000
2000
3020
,
0230
0301
0101
1010
,
0000
0000
1100
0101
,
0010
1000
0101
1010
,
0000
0000
0000
0001
,
0010
0100
2002
0000
,
0003
0100
0010
0100
,
0010
3100
1000
0001
;

//---------------dance-single - ----------------
#NOTES:
     dance-single:
     :
     Medium:
     10:
     :
0000
0000
0000
0000
,
0000
0000
0000
0000
,
0000
0000
0000
0000
,
1000
0001
1000
0001
0200
0000
0310
0000
,
2010
0000
0002
0000
0003
0000
3001
0100
,
0010
0000
0010
1000
0100
0000
0100
0010
,
0001
0000
0001
0100
0010
0000
1000
0001
,
0200
0000
0310
0100
0001
0000
1000
0100
,
0000
1000
0100
0000
0010
0000
0001
0100
,
0010
0000
0010
1000
0001
0000
1000
0100
,
0010
0000
0100
0010
0001
0000
1000
0001
,
2000
0000
3010
1000
0000
0001
0010
0100
,
0000
0010
0001
0000
1000
0000
0001
0100
,
0010
0000
0101
0000
1000
0100
0010
0000
,
0001
0100
1000
0100
0001
0100
1000
0100
,
0001
0000
0011
0000
1000
0010
0100
0000
,
0001
1000
0001
0010
0000
0001
0100
0010
,
1000
0000
1100
0000
0001
1000
0010
0100
,
0001
0000
0100
0010
1000
0010
0100
0000
,
2002
0000
0003
0000
3000
0001
0100
0001
,
0010
0001
1000
0000
0110
0000
1000
0001
,
0100
0000
0010
1000
0100
0000
1000
0001
,
0010
0000
0001
0010
0100
0000
0010
0001
,
2000
0000
3010
0000
0000
1000
0100
1100
,
0000
0101
0000
0210
0000
0000
0310
0100
,
0001
0000
1000
0100
1000
0000
0001
0010
,
0100
0000
1000
0010
1000
0000
0100
0010
,
0002
0000
1003
0000
0000
0001
0010
0011
,
0000
1010
0000
1000
1001
0000
0010
0100
,
0002
0000
0013
0011
0000
1100
0000
1000
,
0001
0100
1000
0100
0001
0100
1000
0100
,
0002
0000
1003
1010
0000
0101
0000
0010
,
1000
0100
1000
0001
0000
0001
0100
0010
,
2000
0000
3100
0020
0000
0031
0000
0110
,
1000
0000
1000
0010
0100
0001
0100
0000
,
2002
0000
3000
0000
0000
1003
0100
0010
,
0001
0100
0010
0000
1000
0100
0001
0000
,
0010
0001
1000
0000
0010
0001
1000
0000
,
0001
0100
0010
0100
0001
0100
0010
0000
,
1000
0100
0001
0000
1000
0100
0001
0000
,
1000
0010
0100
0010
1000
0010
0100
0000
,
0010
0100
0001
0000
0010
0100
0001
0000
,
1000
0001
0100
0001
1000
0001
0100
0000
,
0010
1000
0010
1000
0001
0100
0001
0100
,
0001
0010
0100
1000
2200
0000
0000
0000
,
0300
0001
3001
0202
0000
0000
0300
1003
,
2020
0000
0030
3001
0011
0000
1001
0000
,
0110
0000
1000
0001
1000
0100
0010
0001
,
0000
0110
0000
2000
0000
3020
0000
0230
,
0000
0000
0301
0010
0001
1000
0010
0100
,
0000
0101
0000
1010
1000
1000
1000
1100
,
0000
0001
0001
0100
0010
0100
0001
1000
,
0000
0001
0000
0010
0011
0000
0001
0100
,
1000
0100
0001
0000
1001
0000
0010
0000
,
0100
0001
1000
0001
0020
0000
0230
0000
,
2300
0000
3001
0100
1000
0000
0001
0000
;

//---------------dance-single - ----------------
#NOTES:
     dance-single:
     :
     Hard:
     13:
     :
0000
0000
0000
0000
,
0000
0000
0000
0000
,
0000
0000
0000
0000
,
1000
0100
1000
0100
1000
0100
0010
0001
0020
0000
0000
0000
0130
0000
0000
0000
,
2001
0000
0001
0000
0100
0000
3010
1000
,
0001
0010
1000
0001
0100
1000
0100
0010
,
1000
0001
0010
0100
1000
0100
0001
0010
,
1000
0100
0010
0001
0100
0010
1000
0000
,
0010
1000
0100
0010
0001
0100
0001
1000
,
0010
1000
0100
0001
0010
0100
0001
1000
,
0100
0001
1000
0010
0001
1000
0100
0010
,
0100
0010
1000
0001
0010
1000
0100
0000
,
0010
0001
0100
0001
0000
1000
0010
0100
,
0001
1000
0100
0010
0001
0100
1000
0000
,
2000
3001
0200
0301
2000
3100
0010
0001
,
0100
0010
1000
0001
0010
0100
1000
0000
,
0001
1000
0100
2100
0000
0001
3001
0100
,
0010
1000
0100
0001
1000
0010
0100
0000
,
0110
0000
1000
0100
0001
1000
0010
0001
,
1001
0200
1000
0000
0000
0010
0010
0310
,
1000
0000
0100
0000
0010
0000
0001
0000
0100
0010
0100
0000
0001
0000
1000
0000
,
0010
0001
0100
1000
0010
0100
0001
1000
,
0001
1000
0100
1000
0010
0100
0010
0001
,
1000
0010
0100
0001
0000
0011
0011
1001
,
0000
1010
0000
0101
0120
0000
1030
0010
,
0100
0001
0010
0100
1000
0010
1000
0001
,
0010
0001
1000
0100
0001
1000
0010
0100
,
0010
1000
0001
0100
0000
1010
1010
0110
,
0000
0101
0000
1100
1002
0000
0013
0001
,
0100
0001
1000
0100
0010
1000
0001
0000
,
0002
1003
0020
0130
0002
0013
0100
1000
,
0010
1000
0100
0010
0001
1000
0100
0000
,
1100
1000
0001
0201
0000
0010
0310
0100
,
0001
1000
0100
0010
1000
0001
0100
0000
,
1001
0000
0001
0010
1000
0001
0100
1000
,
1001
0200
0001
0000
0000
0010
0010
0310
,
1000
0000
0001
0000
0100
0000
0010
0000
1000
0100
1000
0100
0010
0001
0010
0001
,
0100
0000
0001
0000
0010
0000
0100
0000
1000
0000
0010
1000
0001
0000
0000
0100
,
0010
0000
0010
0000
0010
0000
1000
0100
0000
0100
0001
0000
0011
0000
0000
0000
,
0010
0000
0001
0000
0100
0000
0010
0000
1000
0000
0001
0100
0010
0000
0000
1000
,
0100
0000
0100
0000
0100
0000
1000
0001
0000
0001
0010
0000
0110
0000
0000
0000
,
1000
0000
0001
0000
0010
0000
0100
0000
0001
0000
0010
0100
1000
0000
0000
0010
,
1000
0000
1000
0000
1000
0000
0001
0100
0000
0001
0010
0000
1100
0000
0000
0000
,
0010
0000
1000
0000
0001
0000
0010
0100
0000
0100
1000
0000
0001
0000
0100
0000
,
1000
0100
0010
0001
1002
0000
0010
0000
,
1003
0101
1001
1100
1002
0000
0103
0011
,
0210
0000
0310
1100
1010
0000
1001
0000
,
0201
0000
0310
1000
0010
1000
0001
0010
,
1000
0100
0001
0200
0310
2000
3100
0020
,
0032
0013
0100
1000
0010
1000
0001
1000
,
0010
0100
0001
0000
0011
0110
1100
0102
,
0000
1000
1003
0001
0010
0100
1000
0010
,
0100
0001
1000
0100
1100
0000
1000
0001
,
1000
0100
0010
0001
1001
0200
0010
0000
,
1000
0000
0301
0000
0100
0001
0010
0100
,
1000
0001
1000
0010
1000
0100
0001
0000
;
