#TITLE:She is my wife;
#ARTIST:SUPER STAR 満-MITSURU-;
#ARTISTTRANSLIT:SUPER STAR MITSURU;
#BANNER:She is my wife.png;
#BACKGROUND:She is my wife-bg.png;
#JACKET:She is my wife-jacket.png;
#MUSIC:She is my wife.ogg;
#SAMPLESTART:50.13;
#SAMPLELENGTH:20;
#DISPLAYBPM:85:170;
#BPMS:0=84.8,4=85,52=170;
#STOPS:52=1.059;
#BGCHANGES:0=She is my wife.avi=1=0=0=0,
;

//---------------dance-single - ----------------
#NOTES:
     dance-single:
     :
     Beginner:
     3:
     :
0000
0000
0000
0000
,
0000
0000
0000
0000
,
0000
0000
0000
0000
,
0000
0000
0000
0000
,
0000
0000
0000
0000
,
0001
0000
0001
0000
,
1000
0000
1000
0000
,
1001
0000
0000
0000
,
0100
0000
0000
0000
,
0001
0000
0001
0000
,
0001
0000
1000
0000
,
1000
0000
0000
0000
,
0100
0000
0000
0000
,
0000
1000
0000
0000
,
0000
0001
0000
0000
,
0000
0010
0000
0000
,
0000
1000
0000
0000
,
0000
1000
0000
0000
,
0000
0001
0000
0000
,
0000
0010
0000
0100
,
0000
0100
0000
0000
,
0000
0000
0000
0000
,
0000
0001
0000
1000
,
0000
0001
0000
1000
,
0000
1001
0000
0000
,
0000
0000
0000
0100
,
0000
0001
0000
0000
,
0100
1000
0000
0000
,
0100
0001
0000
0000
,
0000
0000
0000
0000
,
0000
1000
0000
0001
,
0000
1000
0000
0000
,
0000
1001
0000
0000
,
0000
0000
0000
0000
,
0000
1000
0100
0100
,
0000
0000
0000
0000
,
0000
0001
0100
0100
,
0000
0000
0000
0000
,
0000
1000
0000
0001
,
0000
1000
0000
1000
,
0000
1000
0000
1000
,
0000
1000
0000
0000
,
0000
1000
0000
0000
,
0000
0000
0000
0000
,
0000
0001
0000
1000
,
0000
0001
0000
1000
,
0000
1001
0000
0000
,
0000
0000
0000
0100
,
0000
0001
0000
0000
,
0100
1000
0000
0000
,
0100
0001
0000
1000
,
0000
1001
0000
0000
,
0000
1000
0000
0001
,
0000
1000
0000
0000
,
0000
1001
0000
0000
,
0000
0001
0000
0000
,
0000
0100
0000
0000
,
0000
0110
0000
0000
,
0000
0000
0000
0000
;

//---------------dance-single - ----------------
#NOTES:
     dance-single:
     :
     Easy:
     5:
     :
0000
0000
0000
0000
,
0000
0000
0000
0000
,
0000
0000
0000
0000
,
0000
0000
0000
0000
,
0000
0000
0000
0000
,
0001
0000
0001
0100
,
1000
0000
1000
0100
,
0001
0000
0010
0100
,
1001
1000
0010
0100
,
0002
0003
2000
3000
,
0002
0003
0100
0100
,
0010
0000
0000
0000
,
0200
0000
0000
0000
,
0300
2000
0000
0000
,
3000
0002
0000
0000
,
0003
0020
0000
0000
,
0030
1000
1000
0010
,
1001
1000
0000
1000
,
0000
0001
0000
0001
,
0000
0010
0010
0100
,
0100
0100
0000
0110
,
0000
1001
0000
0000
,
0000
0001
0100
1000
,
0100
0001
0100
1000
,
0000
1001
0000
1001
,
0000
0100
0100
0100
,
0000
0002
0000
0003
,
0100
2000
0000
3000
,
0100
0001
0000
1001
,
0000
0000
0100
0100
,
0100
1000
0000
0001
,
0000
1000
0001
0100
,
0100
2002
0000
0000
,
3003
0002
0000
0000
,
0003
1000
0100
0100
,
0001
0100
0000
1000
,
0000
0001
0100
0100
,
1000
0100
0000
0001
,
0000
1000
1000
0001
,
0001
1000
0001
1000
,
0001
0100
0000
0100
,
0010
1000
0000
1001
,
0000
2000
0000
0000
,
3000
0020
0000
0000
,
0030
0001
0100
1000
,
0100
0001
0100
1000
,
0000
1001
0000
1001
,
0000
0001
1000
0100
,
0000
0002
0000
0103
,
0100
2000
0000
3100
,
0100
0001
0000
1000
,
0001
1001
0100
0001
,
0010
2000
0000
3002
,
0000
2003
0000
3001
,
0001
2002
0000
0000
,
3003
0200
0000
0000
,
0300
0001
0010
1000
,
0100
0002
0000
0000
,
0000
0003
0000
0000
,
0000
0000
0000
0000
;

//---------------dance-single - ----------------
#NOTES:
     dance-single:
     :
     Medium:
     7:
     :
0000
0000
0000
0000
,
0000
0000
0000
0000
,
0000
0000
0000
0000
,
0000
0000
0000
0000
,
0000
0000
0000
0000
,
1000
0000
0000
2000
0100
3100
0010
0000
,
0001
0000
0000
0002
0100
0103
0010
0000
,
0100
0000
0000
0200
0000
0010
0310
0000
,
1001
1000
0010
0100
,
0001
0000
0000
0001
0020
0000
0000
0130
,
0100
0000
0000
0100
2000
0000
3001
0000
,
1001
0000
0000
0001
0000
0100
0010
0100
,
0002
0000
2000
0000
,
3003
2200
0000
0000
,
3300
2002
0000
0000
,
3003
0202
0000
0000
,
0303
0000
0100
0100
0100
0000
0010
0000
,
1001
1000
0100
1000
,
0100
0001
0100
0001
,
0100
0000
1000
0001
1000
0000
0001
1000
,
0001
0101
0000
1100
,
0000
0110
0000
0000
,
0000
1001
0000
1000
,
0001
0000
0100
0000
0010
0100
0001
0000
,
1000
0000
1100
0000
0000
0000
0010
0100
,
0010
0001
1000
1001
,
0000
1100
0000
0010
,
0001
0010
0100
0000
0100
0000
0100
0000
,
1000
0010
0100
0000
0020
0000
0001
0000
,
0100
1030
1000
0001
,
1000
1100
0000
0011
,
0000
1010
0000
0101
,
1000
0000
2002
0000
0000
0000
0000
0003
,
0000
0200
0000
0000
0000
0000
0000
0000
,
3300
0000
1001
0000
0000
0100
0000
0100
,
0010
0100
0000
0001
0000
1000
0000
0001
,
0000
1000
0100
0000
0000
0100
0000
0100
,
0010
0100
0000
1000
0000
0001
0000
1000
,
0000
0001
0100
0000
0000
1000
0000
0001
,
0000
0100
0010
0100
0000
0001
0000
1000
,
0000
0010
0200
0010
0000
0010
0000
0001
,
0000
0001
0000
0010
0000
0010
0000
1000
,
0300
1000
0200
0000
0000
0000
0000
0000
,
0300
0002
0000
0000
,
0003
0000
1000
0100
0001
0000
1000
0000
,
0001
0100
0001
0010
,
1000
0000
0100
0010
1000
0000
0100
0000
,
1000
0010
0001
0100
,
1000
1010
0100
0011
,
0000
1000
0110
0001
,
0000
0000
1000
0000
0000
0001
0010
0100
,
1000
1000
0001
0100
,
0010
2200
3000
0002
,
0003
0000
2000
0000
3300
0000
0001
1000
,
0001
0200
0010
0010
,
0310
1000
0200
0000
0010
0000
0010
0000
,
0310
0001
0100
0010
0100
0000
0100
0010
,
0100
0000
0000
0000
0001
0000
0000
0001
0000
0000
0001
0000
1000
0000
0000
1000
,
0000
1000
0000
0000
0000
0000
0000
0000
,
0000
0000
0000
0000
;

//---------------dance-single - ----------------
#NOTES:
     dance-single:
     :
     Hard:
     12:
     :
0000
0000
0000
0000
,
0000
0000
0000
0000
,
0000
0000
0000
0000
,
0000
0000
0000
0000
,
0000
0000
0000
0000
,
1001
0000
0001
0100
1000
0000
0100
0000
0010
0000
1000
0100
0001
0000
0100
0000
,
0110
0000
1000
0010
0001
0000
0010
0000
0100
0000
0001
0010
1000
0000
0010
0000
,
2002
0000
3003
0011
0110
1100
1001
0011
,
0110
1000
0010
0001
,
0100
0000
1000
0000
0010
0000
0100
1000
0100
0000
1000
0000
0100
0000
0010
0001
,
0010
0000
0001
0000
0100
0000
0010
0100
0010
0000
0000
1000
0000
0000
0001
0000
,
1001
0000
0100
0000
0001
0000
0100
0000
1000
0000
0100
0000
0001
0000
0100
0010
,
0100
1000
0001
1000
2002
0000
0000
0000
,
0000
3003
0000
0000
0000
0000
0000
0000
0000
0000
0000
0000
0000
0000
0000
0000
2200
0000
0000
0000
0000
0000
0000
0000
0000
0000
0000
0000
0000
0000
0000
0000
0000
0000
0000
0000
0000
0000
0000
0000
0000
0000
0000
0000
0000
0000
0000
0000
0000
0000
0000
0000
0000
0000
0000
0000
0000
0000
0000
0000
0000
0000
0000
0000
,
3300
0202
0000
0000
,
0303
2002
0000
0000
,
3003
0000
0100
0100
0100
0000
0100
0010
,
1001
0000
0001
0100
0001
0000
1000
0100
,
1000
0000
0001
0010
0001
0000
1000
0010
,
1000
0000
0001
1000
0100
0010
0001
0100
,
0010
0000
1000
0000
0001
0000
0000
0010
0000
0000
0100
0000
1000
0000
0000
0001
,
0000
0010
2002
0000
0000
0000
0000
0000
,
3003
0000
1001
0000
0000
0001
1000
0100
,
0010
0001
0100
0000
0100
0010
1000
0000
,
0001
0000
0110
0000
0000
0010
1000
0100
,
0010
0001
0100
0000
0010
0000
1001
0000
,
0010
0001
0011
0000
0000
0100
1000
0001
,
0010
0100
1000
0000
0000
0100
0001
1000
,
0010
0100
0001
0000
0100
0001
0010
0100
,
1000
0010
0100
0000
0110
0000
1001
0000
,
0110
0000
0011
0000
1000
0100
1100
0000
,
0001
0000
0100
0000
0101
0000
0000
0000
0010
0000
1000
0000
1010
0000
0000
1000
,
0000
0001
1000
0100
0010
0100
1000
0100
,
0010
0000
0001
0000
0100
0000
0001
0000
0010
0000
0001
0000
0100
0000
0000
0001
,
0000
0100
0110
0000
0000
0010
0000
1000
,
0001
0000
1000
0000
0000
0000
1100
0000
1100
0000
0000
0000
0010
0000
0000
0001
,
0000
0010
0110
0000
0000
0010
0000
0001
,
1000
0000
0001
0000
0000
0000
0101
0000
0101
0000
0000
0000
1000
0000
0000
0010
,
0000
1000
1010
1000
0000
0001
0000
1000
,
0000
0010
0100
0010
0000
1000
0000
0001
,
0000
0100
0010
1000
0010
0100
0001
0010
,
0100
1000
0010
0100
0001
0010
0100
1000
,
0010
0100
0002
0000
0000
0000
0000
0000
,
0000
2000
0000
0000
,
3003
0000
0001
0010
1000
0010
0001
0010
,
1000
0010
0001
0100
0010
1000
0100
0010
,
0001
0000
0100
0010
0001
1000
0010
0100
,
0001
0010
1000
0010
0100
1000
0010
0001
,
0010
0000
0001
0010
0100
1000
0001
0100
,
0010
1000
0100
0010
0001
1000
0010
0100
,
0001
0000
1000
0000
1001
0000
0000
0000
1000
0000
0001
0010
0001
0000
0010
0000
,
0100
1000
1100
0000
1010
0000
0101
0000
,
0011
0000
2001
0000
3010
0010
0002
0000
,
0013
0000
0010
0000
2000
0000
0000
0000
3010
0000
0010
0000
0001
0000
0000
0010
,
0000
1000
1001
0002
0000
0010
0010
1000
,
0000
0103
0010
2000
0000
0010
0010
0001
,
0000
3100
0010
0001
0100
0010
1000
0100
,
0010
0000
0001
0000
0011
0000
0000
0100
0000
0000
1000
0000
1100
0000
0000
0110
,
0000
1001
0000
0000
0000
0000
0000
0000
,
0000
0000
0000
0000
;

//---------------dance-single - ----------------
#NOTES:
     dance-single:
     :
     Challenge:
     16:
     :
0000
0000
0000
0000
,
0000
0000
0000
0000
,
0000
0000
0000
0000
,
0000
0000
0000
0000
,
0000
0000
0000
0000
,
1001
0000
0010
1000
0100
0000
0010
0001
1000
0010
1000
0001
0010
0100
1000
0000
,
0110
0000
0001
0100
0010
0000
1000
0000
0100
0000
0010
0001
0000
0001
1000
0000
,
1100
0000
0000
0010
0000
0000
0100
0000
0000
0001
0010
0100
1000
0100
0010
0001
0100
0010
1000
0010
0100
0001
1000
0010
,
0100
1010
0101
0011
,
1001
0000
0010
1000
0100
0000
1000
0001
0011
0000
0100
0010
1000
0000
0100
1000
,
1100
0000
0010
0100
0001
0000
0100
0010
0110
0000
0000
0101
0000
0000
1010
0000
,
1001
0000
0010
1000
0100
0000
0001
0000
0010
0000
0001
0100
0010
0000
1000
0100
,
0010
0000
0001
0100
1000
0000
1100
0000
0022
0000
0000
0000
0000
0000
0000
0000
,
0000
0000
0033
0000
1001
0000
0010
1000
0100
1000
0000
0001
0000
0001
0000
0100
,
0010
1000
0001
0000
0100
0010
1000
0010
0100
0001
0000
0010
0000
0010
0000
0010
,
0001
1000
0100
1000
0010
1000
0100
0010
0001
1000
0000
0010
0000
0100
0000
0010
,
1000
0001
1000
0100
0010
0001
0010
0100
1000
0000
0010
0100
0001
0000
0101
0000
,
1100
0000
0000
0000
0010
1000
0010
0100
0001
0000
0010
0001
0000
1000
0000
0010
,
1000
0100
0010
0000
0001
1000
0010
1000
0100
0010
0000
0001
0000
0100
0000
0001
,
0010
0100
1000
0000
0010
1000
0010
1000
0001
0100
0001
0100
0010
1000
0010
1000
,
0001
0100
0001
0100
0010
0100
0010
0100
0001
1000
0001
1000
0010
0100
0010
0100
,
0001
0000
0000
1000
0000
0000
0001
0000
0000
1000
0000
0000
0200
0000
0000
0000
0000
0000
0000
0000
0000
0000
0000
0000
0300
0000
0000
0000
0000
0000
0000
0000
0000
0000
0000
0000
1000
0000
0000
0000
0010
0000
0000
0000
0100
0000
0000
0000
,
0001
0000
0010
0000
0100
0000
1000
0000
0000
0010
0000
0000
1000
0000
0000
0101
0000
0000
0001
0000
0000
0010
0000
0000
,
0001
0000
0100
0000
0010
1000
0000
1000
0100
0000
0011
0000
0000
0001
0000
0100
,
0010
0000
1000
0001
1000
0000
0010
0000
0100
0000
0001
0010
0001
0000
0100
0010
,
0000
0010
1000
0000
1100
0000
0000
0000
0110
0000
0000
0000
0011
0000
0000
0000
,
1000
0100
0001
0100
1000
0000
0010
0000
0100
0000
0001
0010
0001
0000
1000
0100
,
0000
0100
0010
0000
0001
0000
0100
0000
0010
0000
1000
0001
1000
0000
0100
0010
,
0000
0010
0001
0000
0101
0000
0000
0000
0000
0000
0010
1000
0010
1000
0100
0010
,
0001
0100
0010
0100
0001
0000
0000
0000
1100
0000
0000
0000
0011
0000
0000
0000
,
0101
0000
0000
0000
1010
0000
0001
0000
1000
0000
0100
0010
0001
0000
0100
0000
,
0010
0000
1000
0001
1000
0000
0100
0000
0010
0000
0001
0100
0010
0000
1000
0100
,
0000
0010
0001
0000
0100
0000
0010
0000
1000
0000
0001
0000
1000
0000
0100
0000
,
0010
0000
1100
0000
0001
0000
0100
0000
0010
0000
1000
0000
0101
0000
0000
1100
,
0000
0101
1010
0001
0100
0010
1000
0100
,
0010
0000
0001
0000
0000
0000
0110
0000
1001
0000
0000
0000
0110
0000
0000
0011
,
0000
0000
0001
0100
1000
0000
0010
0000
1000
0000
0001
0000
0010
0000
0100
0000
,
1000
0000
0001
0000
0000
0000
1100
0000
0011
0000
0000
0000
0110
0000
0000
1001
,
0000
0000
0010
1000
0001
0000
0010
0100
0000
0000
1000
0010
0000
0000
0100
0001
,
0010
0000
0100
0000
1000
0000
0001
0010
0000
0000
0001
0100
0000
0000
0001
1000
,
0100
0000
0010
0001
1000
0000
0010
0100
0010
0000
0100
0010
0100
0000
0010
0100
,
0010
0000
1000
0001
1000
0000
0001
1000
0001
0000
1000
0100
0010
0000
0001
0100
,
0000
0010
1000
0000
0002
2000
0000
0000
0000
0000
0000
0000
0000
0000
0000
0000
,
3003
0000
0000
0000
0022
0000
0000
0000
0033
0000
0000
0000
1000
0010
0100
0001
,
0010
0100
1000
0001
0100
0000
0010
1000
0010
0100
0001
1000
0000
0010
0000
1000
,
0100
0010
0001
0000
0100
0001
0010
0001
0010
0100
1000
0001
0000
1000
0000
0010
,
1000
0100
0010
0001
0100
0010
0100
0010
1000
0001
0000
0010
0000
0001
0000
1000
,
0010
1000
0100
0000
0010
0001
0010
0000
0001
0100
0001
0000
1000
0010
1000
0000
,
0100
1000
0100
0000
1000
0010
0100
0001
0010
0001
0100
0010
0000
1000
0000
0100
,
1000
0010
0100
0001
0010
0100
0010
0001
0100
0010
1000
0001
0000
1000
0000
0010
,
1000
0100
0010
0001
0100
0000
0010
0000
1000
0000
0001
0010
0100
0010
0001
0100
,
0010
1000
0100
1000
0001
0000
0000
0000
0011
0000
0000
0000
0110
0000
0000
0000
,
1100
0000
0000
0000
0102
0000
0010
0000
0013
0000
0001
0100
2000
0000
0010
0000
,
3010
0000
1000
0001
0200
0000
0010
0000
0310
0000
0100
0001
1000
0010
0000
0100
,
0001
1001
0110
0001
0010
0100
1000
0010
,
1000
0000
0100
1000
0001
0000
0010
0000
0001
0000
0100
0000
0010
0000
1000
0000
,
0100
0000
0010
0000
0001
0010
0100
1000
0010
0100
0010
0100
0001
1000
0010
0100
,
0001
1000
0001
1000
0010
0000
0000
0010
0000
0000
1000
0001
0100
0000
0000
0101
,
0000
1010
0000
0000
0000
0000
0000
0000
;

//---------------dance-double - ----------------
#NOTES:
     dance-double:
     :
     Easy:
     5:
     :
00000000
00000000
00000000
00000000
,
00000000
00000000
00000000
00000000
,
00000000
00000000
00000000
00000000
,
00000000
00000000
00000000
00000000
,
00000000
00000000
00000000
00000000
,
00010000
00000000
00001000
00000000
,
00010000
00000000
00000100
00000001
,
00000100
00000000
00000001
00000010
,
00000100
00001000
00010000
00001000
,
00020000
00030000
00002000
00003000
,
00020000
00030000
01000000
00100000
,
01000000
00000000
00000000
00000000
,
00200000
00000000
00300000
00000000
,
00011000
00000200
00000000
00000300
,
00000000
00002000
00000000
00003000
,
00000000
00020000
00000000
00030000
,
00000000
01000000
01000000
00010000
,
00100000
00010000
00000000
00010000
,
00000000
10000000
00000000
10000000
,
00000000
01000000
01000000
00100000
,
00100000
00001000
00000000
00010000
,
00000000
00011000
00000000
00000000
,
00000000
00000010
00000000
00010000
,
00000000
00001000
00000000
00100000
,
00000000
00010000
00000000
00001000
,
00000000
00000100
00000100
00000100
,
00000000
00000001
00000000
00000100
,
00000100
00001000
00000000
00000100
,
00000100
00000001
00000000
00001001
,
00000000
00000000
00001000
00010000
,
01000000
00010000
00000000
10000000
,
00000000
00010000
00000000
00100000
,
00001000
00022000
00000000
00000000
,
00033000
00000200
00000000
00000000
,
00000300
00000001
00000100
00000100
,
00001000
00010000
00000000
01000000
,
00000000
10000000
01000000
01000000
,
00010000
00001000
00000000
00001000
,
00000000
00000100
00000100
00001000
,
00000000
00000100
00010000
00001000
,
00000000
00001000
00000000
00001000
,
00010000
00100000
00000000
10000000
,
00000000
02000000
00000000
00000000
,
03000000
00020000
00000000
00000000
,
00030000
00001000
00010000
00001000
,
00000000
00000100
00000010
00000100
,
00000000
00001001
00000000
00001001
,
00000000
00000100
00010000
00001000
,
00000000
00010000
00001000
00010000
,
00000000
00100000
01000000
00100000
,
00000000
00100000
00000000
00001000
,
00010000
01000000
00010000
00001000
,
00000000
00020000
00000000
00032000
,
00000000
00023000
00000000
00030010
,
00000100
00000020
00000000
00000000
,
00000030
00000200
00000000
00000000
,
00000300
00000100
00000010
00010000
,
00001000
00022000
00000000
00000000
,
00000000
00033000
00000000
00000000
,
00000000
00000000
00000000
00000000
;

//---------------dance-double - ----------------
#NOTES:
     dance-double:
     :
     Medium:
     7:
     :
00000000
00000000
00000000
00000000
,
00000000
00000000
00000000
00000000
,
00000000
00000000
00000000
00000000
,
00000000
00000000
00000000
00000000
,
00000000
00000000
00000000
00000000
,
10000000
00010000
00100000
01000000
,
00010000
00000000
00001000
00000010
,
00000002
00000000
00000000
00000003
,
00000110
00001000
00010000
00001000
,
00000100
00000000
00000000
00000100
00001000
00000000
00000000
00001000
,
00010000
00000000
00000000
00010000
00100000
00000000
10000000
00000000
,
20020000
00000000
00000000
00000000
30030000
00000000
00000000
00100000
,
00002000
00000000
00020000
00000000
,
00033000
00000220
00000000
00000000
,
00000330
00022000
00000000
00000000
,
00033000
02200000
00000000
00000000
,
03300000
00000000
10000000
10000000
10000000
00000000
01100000
00000000
,
10010000
10000000
00100000
01000000
,
00010000
00100000
00001000
00010000
,
00001000
00000010
00000001
00000100
,
00000010
00000101
00000000
00001010
,
00000000
00011000
00000000
00000000
,
00000000
00100000
00000000
10000000
,
00010000
00000000
00100000
00000000
01000000
10000000
01000000
00000000
,
00100000
00000000
01100000
00000000
00000000
00010000
00001000
00000000
,
00010000
00001000
00000110
00001001
,
00000000
00000000
00000011
00000000
00000000
00000100
00000010
00000000
,
00010000
00001000
00010000
00000000
00000000
01000000
00100000
00000000
,
10000000
01000000
10000000
00000000
02000000
00000000
00010000
00000000
,
00100000
13000000
10000000
00010000
,
10000000
00000000
11000000
00000000
00000000
00100000
00010000
00000000
,
00000000
00010000
00001000
00000000
00000000
00001000
00000010
00000000
,
00000100
00001001
00000010
00010000
,
01000000
00100000
00000000
00000000
00000000
00000000
00000000
00000000
,
00000000
00002000
00100000
00023000
,
01000000
00032000
00100000
01003000
,
01001000
00020000
00001000
00230000
,
00010000
00320000
00001000
00130000
,
01100000
20000000
01000000
30020000
,
01000000
20030000
01000000
30010000
,
00100000
10010000
10000000
01000000
,
00100000
00010000
00001000
00000100
,
00000010
00000002
00000000
00000000
,
00000000
00000020
00000000
00000000
,
00000033
00000000
00001000
00000100
00010000
00000000
00001000
00000000
,
00011000
00100000
01000000
10000000
,
00010000
00000000
00100000
01000000
00010000
00000000
00001000
00000000
,
00011000
00000100
00000001
00000010
,
00000000
00000000
00001000
00001000
00000001
00000000
00000100
00000000
,
00001000
00000000
00010000
00001000
00001000
00000000
00100000
00000000
,
01000000
00000000
10000000
00000000
00000000
00010000
00100000
01000000
,
10000000
10000000
01000000
00010000
,
00001000
00020000
01000000
00032000
,
00000100
00023000
01000000
00031000
,
00000100
00000001
00000010
00000100
,
00010000
00001000
00010000
00000000
00000000
00000000
00001000
00000000
,
00010000
01000000
10000000
00010000
,
01000000
00000000
00000000
00000000
00100000
00000000
00000000
00100000
00000000
00000000
00100000
00000000
01000000
00000000
00000000
01000000
,
00000000
01000000
00000000
00000000
00000000
00000000
00000000
00000000
,
00000000
00000000
00000000
00000000
;

//---------------dance-double - ----------------
#NOTES:
     dance-double:
     :
     Hard:
     12:
     :
00000000
00000000
00000000
00000000
,
00000000
00000000
00000000
00000000
,
00000000
00000000
00000000
00000000
,
00000000
00000000
00000000
00000000
,
00000000
00000000
00000000
00000000
,
00000001
00000000
00000010
00000000
00001000
00000000
00010000
00001000
00010000
00000000
01000000
00000000
10000000
00000000
00100000
00000000
,
01000000
00000000
00010000
00000000
10000000
00000000
01000000
00100000
01000000
00000000
00010000
00000000
00001000
00000000
00010000
00000000
,
00000020
00000000
00000000
00000000
00000030
00000000
00000100
00000001
00000010
00000000
00001000
00000000
00010000
00000000
00100000
00000000
,
01000000
00010000
00100000
10000000
,
01100000
00000000
00010000
00000000
00001000
00000000
00010000
00001000
00000010
00000000
00001000
00000000
00010000
00000000
00001000
00000010
,
00000100
00000000
00001000
00000000
00000010
00000000
00000100
00000000
00000001
00000000
00000000
00001000
00000000
00000000
00000010
00000000
,
00000100
00000000
00000001
00000000
00000010
00000000
00000100
00000000
00001000
00000000
00010000
00000000
00100000
00000000
00001000
00010000
,
00100000
01000000
00001000
00010000
00002000
00000000
00000000
00000000
,
00010000
00003000
00000000
00000000
00000000
00000000
00000000
00000000
00000000
00000000
00000000
00000000
00000000
00000000
00000000
00000000
00020200
00000000
00000000
00000000
00000000
00000000
00000000
00000000
00000000
00000000
00000000
00000000
00000000
00000000
00000000
00000000
00000000
00000000
00000000
00000000
00000000
00000000
00000000
00000000
00000000
00000000
00000000
00000000
00000000
00000000
00000000
00000000
00000000
00000000
00000000
00000000
00000000
00000000
00000000
00000000
00000000
00000000
00000000
00000000
00000000
00000000
00000000
00000000
,
00030300
02002000
00000000
00000000
,
03003000
00022000
00000000
00000000
,
00033000
00000000
00001000
00010000
00011000
00000000
00110000
00000000
,
00001010
00000000
00001000
00000100
00001000
00000000
00000100
00000010
,
00000100
00000000
00010000
00001000
00010000
00000000
00100000
01000000
,
00100000
00000000
00001000
00010000
00001000
00010000
00100000
10000000
,
01000000
00000000
00010000
00000000
00001000
00000000
00000000
00000100
00000000
00000000
00000010
00000000
00010000
00000000
00000000
01000000
,
00000000
00100000
00022000
00000000
00000000
00000000
00033000
00000000
,
00000000
00000011
00001100
00000001
,
00000100
00000010
00000001
00000000
00000010
00000000
00001000
00000000
,
00010000
00000000
01100000
00000000
00010000
01000000
10000000
00000000
,
01000000
10100000
01010000
00101000
,
00000000
00000000
00000000
00000000
00001000
00000000
00000000
00000000
00000000
00000000
00000100
00000010
00000100
00000000
00000000
00000010
,
00000000
00000000
00010000
00000000
00001000
00000000
00000000
00000000
00000000
00000000
00100000
01000000
00100000
00000000
00000000
00010000
,
00000000
00001000
00010000
00000000
00000000
00000010
00000100
00001000
,
00010000
00100000
01000000
00000000
00001000
00000000
00010000
00000000
,
00011000
00012000
00000100
00023000
,
01000000
00000000
00000000
00000000
00032000
00000000
00000000
00000000
00000100
00000000
00000000
00000000
00013000
00000000
00000000
00100000
,
00000000
10000000
00020000
00000000
01000000
00000000
10000000
00000000
,
00100000
00032000
00000000
00020000
,
00033000
00000000
00011000
00010000
00000000
01000000
00000000
10000000
,
00000000
00000000
01000000
00000000
00000000
00000000
10000000
00000000
10000000
00000000
00000000
00000000
11000000
00000000
00000000
00100000
,
00000000
00001000
00010000
00001000
00000000
00000100
00000000
00000001
,
00000000
00000000
00000100
00000000
00000000
00000000
00000001
00000000
00000001
00000000
00000000
00000000
00000101
00000000
00000000
00000010
,
00000000
00010000
00001000
00010000
00000000
01000000
00000000
10000000
,
00000000
00100000
00010000
00001000
00000000
00000100
00000000
00000001
,
00000000
00000010
00001000
00010000
00001000
00100000
01000000
10000000
,
00010000
00100000
00001000
00010000
00000100
00000010
00000001
00000100
,
00001000
00010000
02000000
00000000
00000000
00000000
00000000
00000000
,
00000000
00200000
00000000
00000000
,
03300000
00000000
10000000
00010000
00100000
00001000
01000000
10000000
,
00010000
00100000
01000000
00001000
00100000
01000000
10000000
00010000
,
00100000
00000000
00001000
00010000
00000100
00000010
00001000
00010000
,
00000010
00000100
00000001
00000010
00001000
00010000
00000010
00000100
,
00000001
00000000
00001000
00000100
00010000
00001000
00000100
00010000
,
00001000
00000100
00010000
00001000
00100000
00010000
00001000
00100000
,
00010000
00000000
00001000
00000000
00000000
00000001
00000010
00000100
,
00001000
00010000
00100000
00000000
01000000
00000000
00100000
00000000
,
01100000
00000000
00021000
00000000
00130000
00010000
00002000
00000000
,
00003010
00000000
00001000
00000000
00020000
00000000
00000000
00000000
00130000
00000000
00010000
00000000
00001000
00000000
00000000
00010000
,
00000000
00001000
00010000
00001000
00000100
00000001
00000010
00001000
,
00000010
00000001
00000100
00000010
00001000
00000100
00010000
00001000
,
01000000
00100000
10000000
01000000
00100000
00010000
01000000
10000000
,
01000000
00000000
00010000
00000000
00100000
00000000
00000000
01000000
00000000
00000000
00010000
00000000
00000100
00000000
00000000
00000010
,
00000000
00001001
00000000
00000000
00000000
00000000
00000000
00000000
,
00000000
00000000
00000000
00000000
;
