#TITLE:She Looks So Perfect;
#ARTIST:5 Seconds of Summer;
#BANNER:She Looks So Perfect-bn.png;
#BACKGROUND:She Looks So Perfect-bg.png;
#JACKET:She Looks So Perfect-jacket.png;
#MUSIC:She Looks So Perfect.ogg;
#SAMPLESTART:41.813;
#SAMPLELENGTH:20;
#DISPLAYBPM:160;
#BPMS:0=160,271.75=150,272=160,303.75=150,304=160;
#BGCHANGES:;

//---------------dance-single - ----------------
#NOTES:
     dance-single:
     :
     Beginner:
     3:
     :
0000
0000
0000
0000
,
0000
0000
0000
0000
,
0000
0000
0000
0000
,
0000
0000
0000
0000
,
0000
0000
0000
0000
,
0000
0000
0000
0000
,
0000
0000
0000
0000
,
0000
0000
0000
0000
,
1000
0000
0000
0002
,
0003
0000
1000
1000
,
0000
0000
0000
0020
,
0030
0000
0100
0100
,
0000
0000
0000
0002
,
0003
0000
0010
0010
,
0010
0000
0000
0200
,
0300
0000
1000
0000
,
0100
0000
0000
0000
,
0100
0000
0000
0000
,
1000
0000
0001
0000
,
1000
0000
0010
0000
,
0100
0000
0000
0001
,
0001
0000
0000
0000
,
0010
0000
0001
0000
,
0100
0000
0010
0000
,
1000
0000
0100
0100
,
0000
0000
0010
0010
,
0000
0000
0001
0001
,
0000
0000
1001
0000
,
0010
0010
0010
0000
,
1000
0000
0001
0000
,
0010
0010
0010
0000
,
0001
0000
0100
0000
,
0010
0000
0000
0010
,
0000
0000
0000
0000
,
1000
0000
0000
0100
,
0000
0000
0000
0000
,
1000
1000
1000
0000
,
0010
0000
0100
0000
,
0001
0001
0001
0000
,
0010
0000
0001
0000
,
1000
0000
0000
1000
,
0000
0000
0000
0000
,
0001
0000
0000
0100
,
0000
0000
1001
0000
,
0000
0000
0000
2000
,
3000
0000
0100
0100
,
0000
0000
0000
0020
,
0030
0000
0001
0001
,
0000
0000
0000
0200
,
0300
0000
0010
0010
,
0010
0000
0000
2000
,
3000
0000
0001
0000
,
0100
0000
0000
0000
,
0000
0000
0000
0000
,
0000
0000
0000
0000
,
0000
0000
0000
0000
,
0000
0000
0000
0000
,
0000
0000
0000
0000
,
0000
0000
0000
0000
,
0000
0000
0000
0000
,
0001
0001
0001
0001
,
0001
0001
0001
0000
,
1000
1000
1000
1000
,
1000
1000
1000
0000
,
0010
0000
0000
1000
,
0000
0000
0000
0000
,
0001
0000
0000
0100
,
0000
0000
1001
0000
,
0010
0010
0010
0000
,
1000
0000
0001
0000
,
1000
1000
1000
0000
,
0010
0000
0100
0000
,
0001
0000
0000
1000
,
0000
0000
0000
0000
,
0010
0000
0000
0100
,
0000
0000
0001
0000
,
0100
0100
0100
0000
,
0001
0000
0010
0000
,
0100
0100
0100
0000
,
1000
0000
0001
0000
,
1000
0000
0000
0010
,
0000
0000
0000
0000
,
1000
0000
0000
0100
,
0000
0000
0000
0000
,
1001
0000
0000
0000
;

//---------------dance-single - ----------------
#NOTES:
     dance-single:
     :
     Easy:
     7:
     :
0000
0000
0000
0000
,
0000
0000
0000
0000
,
0000
0000
0000
0000
,
0000
0000
0000
0000
,
0000
0000
0000
0000
,
0000
0000
0000
0000
,
0000
0000
0000
0000
,
0000
0000
0000
0000
,
0001
1000
0100
1000
,
0002
0000
0010
0013
,
1000
0001
0100
0001
,
2000
0000
0010
3010
,
0100
1000
0010
1000
,
0200
0000
0001
1300
,
0010
0100
0001
0100
,
0020
0030
1001
1000
,
0200
0300
0000
0001
,
0200
0300
0000
0010
,
1000
1000
0001
0001
,
1000
0010
0100
0001
,
0020
0030
0000
0001
,
2000
3000
0000
0100
,
1000
1000
0001
0010
,
0001
0001
0100
0010
,
1000
0100
1100
0001
,
0100
0010
0101
1000
,
0010
0100
0110
0001
,
1000
0000
1001
0000
,
0001
0010
0001
1000
,
0100
0010
0001
0100
,
0001
0010
0100
0100
,
0100
1000
0010
0000
,
2000
0000
0000
3002
0000
0000
0023
0000
,
0000
0000
0030
0000
,
0002
0000
0000
2003
0000
0000
3200
0000
,
0000
0000
0300
0000
,
1000
1000
1000
0010
,
1000
0001
0100
0010
,
0100
0001
0001
0010
,
0001
1000
0100
0000
,
2000
0000
0000
3020
0000
0000
0230
0000
,
0000
0000
0300
0000
,
0002
0000
0000
0023
0000
0000
0230
0000
,
0000
0300
1001
0000
,
1000
0010
1000
0001
,
0010
0100
1100
1100
,
0010
1000
0100
0010
,
0001
1000
0101
0101
,
0010
1000
0001
0010
,
0001
0100
0120
1030
,
0100
1000
0001
0010
,
0200
0300
1001
0000
,
0110
0000
0000
0000
,
0000
0000
0000
0000
,
0000
0000
0000
0000
,
0000
0000
0000
0000
,
1000
0000
0000
0001
0000
0000
2000
0000
,
0000
0000
3000
0000
,
0001
0000
0000
0010
0000
0000
0200
0000
,
0000
0000
0300
0000
,
1000
0010
1000
0010
,
0100
0001
0010
0100
,
1000
0010
0100
0010
,
1000
0001
0010
0001
,
0100
0010
1000
0100
,
1000
0010
0100
0001
,
0010
0100
1000
0001
,
0100
0000
1001
0000
,
0001
0010
0001
1000
,
0010
0100
0010
1000
,
0100
0100
1000
1000
,
0001
0010
0001
0000
,
0020
0000
0000
0032
0000
0000
0203
0000
,
0000
0000
0300
0000
,
0002
0000
0000
2003
0000
0000
3200
0000
,
0000
0300
1001
0000
,
1000
0010
1000
0100
,
0010
0001
0100
0010
,
0100
0100
0100
0001
,
0010
0001
1000
0000
,
0200
0000
0000
2300
0000
0000
3002
0000
,
0000
0000
0003
0000
,
2000
0000
0000
3020
0000
0000
0030
0200
,
0000
0000
0300
0000
,
1001
0000
0000
0000
;

//---------------dance-single - ----------------
#NOTES:
     dance-single:
     :
     Medium:
     10:
     :
0000
0000
0000
0000
,
0000
0000
0000
0000
,
0000
0000
0000
0000
,
0000
0000
0000
0000
,
0000
0000
0000
0000
,
0000
0000
0000
0000
,
0000
0000
0000
0000
,
0000
0000
0000
0000
,
0001
0100
1000
0100
0001
0000
0010
0200
,
0000
0300
1100
0101
,
1000
0010
0001
0010
1000
0000
0100
0020
,
0000
0030
0011
1010
,
0001
0010
0100
0010
0001
0000
1000
0020
,
0000
0030
0210
0302
,
1003
0010
0100
0010
1000
0000
0001
2000
,
0000
0000
3000
0000
1001
0000
0001
1000
,
0200
0000
0310
0000
0000
0000
0001
1000
,
0200
0000
0310
0000
0000
0001
1000
0001
,
0010
0000
0011
0000
1100
0000
0001
0100
,
0020
0000
1030
0000
0001
1000
0010
0200
,
0000
0301
0000
0000
0000
1000
0010
0100
,
0002
0000
1003
0000
0000
0010
0100
0000
,
1010
0000
0101
0000
1001
0000
0010
2000
,
0000
0000
3100
1000
0001
1000
0010
0100
,
0000
0100
0001
1000
0100
0000
0110
0000
,
0001
0100
1010
0101
,
0001
0000
0010
0001
0100
0000
0110
0000
,
1000
0000
0001
0000
0100
0100
0000
0010
,
1000
1100
0110
0011
,
0002
0000
1003
0001
0000
0100
0010
0100
,
0001
0010
1000
0010
0002
0000
0103
0000
,
2010
0000
3001
1000
0000
0000
0000
0010
,
2000
0000
0000
0001
0000
0000
3010
0000
,
0000
0100
0001
0100
0001
0100
0001
0100
,
0020
0000
0000
1000
0000
0000
0130
0000
,
0000
0001
1000
0001
1000
0001
1000
0001
,
0010
0000
1001
0000
0110
0000
0001
0010
,
0200
0000
1300
0001
0000
1000
0010
0100
,
0001
0000
0101
0000
1100
0000
0010
1000
,
0200
0000
1300
0001
0000
0000
0000
0010
,
0002
0000
0000
0010
0000
0000
1003
0000
,
0000
0010
1000
0010
1000
0010
1000
0010
,
2000
0000
0000
0001
0000
0000
3100
0000
,
0020
0000
0030
0000
0001
1001
0000
0000
,
0010
1000
0100
0010
0001
0000
0100
0020
,
0000
0030
1010
0011
,
0001
1000
0100
1000
0010
0000
0100
0002
,
0000
0003
0101
1100
,
0010
1000
0100
1000
0001
0000
0100
0020
,
0000
0030
0210
0302
,
1003
0100
0001
0100
0010
0000
0001
2000
,
0000
0000
3000
0000
1001
0000
0000
0001
,
1000
0000
0000
0000
,
0000
0000
0000
0000
,
0000
0000
0000
0000
,
0000
0000
0000
0000
0000
0000
0000
1000
,
0020
0000
0000
2030
0000
0000
3002
0000
,
0000
0000
0000
0000
0003
0000
0000
0010
,
0002
0000
0000
2003
0000
0000
3200
0000
,
0000
0000
0300
0000
,
1100
1100
1100
1100
,
0101
0101
0101
0101
,
1010
1010
1010
1010
,
0011
0011
0011
0011
,
1001
1001
1001
1001
,
0110
0110
0110
0110
,
1001
0110
1001
0110
,
1010
0000
0000
0000
0001
1001
0000
0100
,
0010
1010
0101
0011
,
2001
0000
3010
1000
0000
0010
0100
0001
,
1000
0100
0001
0100
2000
0000
3010
0000
,
0102
0000
0013
0001
0000
0000
0000
1000
,
0200
0000
0000
0001
0000
0000
1300
0000
,
0000
0010
0100
0010
0100
0010
0100
0010
,
2000
0000
0000
0010
0000
0000
3100
0000
,
0002
0000
0003
0000
0001
1001
0000
0010
,
1000
0000
1100
0000
0011
0000
0001
1000
,
0020
0000
1030
0100
0000
0100
1000
0001
,
0100
0000
0110
0000
1001
0000
0010
1000
,
0002
0000
1003
0010
0000
0000
0000
1000
,
0002
0000
0000
0010
0000
0000
1003
0000
,
0000
1000
0001
1000
0001
1000
0001
1000
,
0020
0000
0000
1000
0000
0000
0130
0000
,
0001
0010
1000
0000
1100
0000
0000
0000
,
1001
0000
0000
0000
;

//---------------dance-single - ----------------
#NOTES:
     dance-single:
     :
     Hard:
     12:
     :
0000
0000
0000
0000
,
0000
0000
0000
0000
,
0000
0000
0000
0000
,
0000
0000
0000
0000
,
0000
0000
0000
0000
,
0000
0000
0000
0000
,
0000
0000
0000
0000
,
0000
0000
0000
0000
,
1000
0010
0100
0001
0010
0000
0001
0100
,
1000
0100
0001
0000
0011
0000
1100
0000
,
0010
1000
0001
0010
0100
0000
1000
0010
,
0001
0010
1000
0000
1010
0000
0101
0000
,
0010
0001
0100
0010
1000
0000
0100
0001
,
0100
1000
0100
0000
0120
0000
0032
0000
,
0103
0001
1000
0100
0010
0000
0001
0100
,
1000
0100
0001
0000
1001
0000
1000
0001
,
0100
0000
0010
0000
1000
0000
0001
0010
,
0100
0000
0010
0000
0001
0100
1000
0000
,
0020
0000
2030
0000
3001
0010
0100
1000
,
0010
0100
0001
0000
0001
1000
0010
2000
,
0000
0100
3100
0000
0010
0001
1000
0001
,
0100
0000
0010
0000
1000
0100
0001
0000
,
0102
0000
2003
0000
3010
1000
0001
0020
,
0000
0001
0031
0100
0001
0010
0100
1000
,
0000
1000
0001
0100
0010
0000
1010
0000
,
0001
0100
1000
0000
0011
0000
1100
0000
,
0010
0000
1000
0100
0010
0001
0100
0000
,
0001
0000
1000
0000
1001
0110
0000
0001
,
1000
0010
0001
0010
1000
0100
0010
0000
,
0001
0010
0100
2000
0000
3010
0100
0010
,
1000
0100
0001
0100
0010
0001
0100
0000
,
2010
0000
3001
0200
0000
0010
0310
1000
,
2100
0000
0001
0001
0000
0100
3100
0000
,
0010
0001
0010
0100
1000
0010
1000
0001
,
0012
0000
1000
1000
0000
0100
0103
0000
,
0001
1000
0001
0010
0100
1000
0010
0100
,
0001
0010
0001
1000
0001
0100
1000
0100
,
0001
0010
0001
0200
0000
0010
0310
1000
,
0001
1000
0100
0000
0110
0000
0001
0100
,
0010
0100
0001
1000
0000
0100
0010
0001
,
0201
0000
1000
1000
0000
0001
0301
0000
,
0010
0001
1000
0001
0100
1000
0100
0010
,
1020
0000
0001
0001
0000
0100
0130
0000
,
0010
0000
0100
0000
1001
0110
0000
0000
,
0001
0100
0010
0100
1000
0100
0010
0100
,
0001
1000
0100
0000
1010
0000
0101
0000
,
1000
0100
0010
0100
0001
0100
1000
0100
,
0010
0001
0100
0000
0011
0000
1100
0000
,
0010
0100
1000
0100
0001
0100
0010
1000
,
0100
0010
0001
0000
2001
0000
3002
0000
,
0013
0001
0100
0010
0100
1000
0100
0001
,
0010
0100
1000
0000
0110
0000
0000
0001
,
1000
0000
0000
0000
,
0000
0000
0000
0000
,
0000
0000
0000
0000
,
0000
0000
0000
0000
0000
0000
0000
1000
,
0002
0000
0000
2003
0000
0000
3020
0000
,
0000
0000
0000
0000
0030
0000
0000
1000
,
0002
0000
0000
0023
0000
0000
0230
0000
,
0000
0000
0300
0000
,
1010
1010
0011
0011
,
1010
0011
1010
0011
,
0101
0101
1100
1100
,
0101
1100
0101
1100
,
0011
0110
1100
0110
,
0011
1001
1010
1001
,
0010
1000
0100
0010
0001
0100
0001
1000
,
0100
0000
0000
0000
1001
0110
0000
0001
,
1000
0010
0100
1000
0100
0001
0010
0000
,
0001
1000
0010
0200
0000
0301
1000
0001
,
0010
1000
0010
0100
0010
0001
0010
0000
,
0001
0100
0010
2000
0000
3100
1000
0001
,
0012
0000
0100
0100
0000
0010
0013
0000
,
0001
0100
0010
0100
1000
0100
0001
1000
,
2100
0000
0010
0010
0000
0100
3100
0000
,
0001
0100
0010
0000
1001
0110
0000
1000
,
0010
1000
0001
1000
0100
0001
0100
1000
,
0010
0100
0001
2000
0000
0100
3100
0010
,
0001
0100
1000
0000
0101
0000
0010
1000
,
0100
0010
0001
0200
0000
0310
1000
0100
,
1002
0000
0010
0010
0000
1000
1003
0000
,
0010
1000
0100
0010
0001
0100
0001
1000
,
0102
0000
0010
0010
0000
0100
0103
0000
,
0001
0100
0010
1000
0100
0010
0001
1000
,
1001
0000
0000
0000
;
