#VERSION:0.83;
#TITLE:Shamshir Dance;
#SUBTITLE:;
#ARTIST:Zektbach;
#TITLETRANSLIT:;
#SUBTITLETRANSLIT:;
#ARTISTTRANSLIT:;
#GENRE:;
#ORIGIN:;
#CREDIT:;
#BANNER:Shamshir Dance-bn.png;
#BACKGROUND:Shamshir Dance-bg.png;
#PREVIEWVID:;
#JACKET:Shamshir Dance-jacket.png;
#CDIMAGE:;
#DISCIMAGE:;
#LYRICSPATH:;
#CDTITLE:;
#MUSIC:Shamshir Dance.ogg;
#OFFSET:0.000000;
#SAMPLESTART:20.594000;
#SAMPLELENGTH:20.000000;
#SELECTABLE:YES;
#DISPLAYBPM:100.000000:155.000000;
#BPMS:0.000=100.000,
24.000=155.000,
240.000=150.000,
242.000=142.000,
244.000=134.000;
#STOPS:;
#DELAYS:;
#WARPS:;
#TIMESIGNATURES:0.000=4=4;
#TICKCOUNTS:0.000=4;
#COMBOS:0.000=1;
#SPEEDS:0.000=1.000=0.000=0;
#SCROLLS:0.000=1.000;
#FAKES:;
#LABELS:0.000=Song Start;
#BGCHANGES:;
#KEYSOUNDS:;
#ATTACKS:
;

//---------------dance-single - ----------------
#NOTEDATA:;
#CHARTNAME:;
#STEPSTYPE:dance-single;
#DESCRIPTION:;
#CHARTSTYLE:;
#DIFFICULTY:Challenge;
#METER:14;
#RADARVALUES:0.663801,0.775325,0.445077,0.587502,0.333808,522.000000,472.000000,50.000000,66.000000,0.000000,0.000000,0.000000,0.000000,0.000000,0.663801,0.775325,0.445077,0.587502,0.333808,522.000000,472.000000,50.000000,66.000000,0.000000,0.000000,0.000000,0.000000,0.000000;
#CREDIT:;
#DISPLAYBPM:100.000000:155.000000;
#NOTES:
0000
0000
0000
0000
,
0000
0000
0000
0000
0020
0000
1030
0001
,
2000
3200
0320
0032
,
0203
0000
0301
0010
0002
0000
2003
0000
,
3002
0000
0013
0100
0010
0001
1000
0001
,
2000
0000
0010
3100
,
1001
0000
1100
0001
0011
0011
0000
0100
,
0001
1000
0001
1000
0001
0000
0100
0000
0110
0000
0110
0000
0000
0000
1000
0000
,
1010
0000
0101
1000
1100
1100
0000
0001
,
0010
0100
0010
0100
0010
0000
0001
0000
1001
0000
1001
0000
0000
0000
1000
0000
,
0110
0000
0000
0000
1000
0100
1000
0100
1000
0000
0001
0000
0001
0000
0100
0000
,
2020
0000
0000
0000
3030
0000
0001
1000
0001
0000
0100
0000
0200
0000
0000
0000
,
0310
0000
1000
0100
1000
0000
0001
0000
0010
0000
1000
0000
0010
0000
0100
0000
,
0010
0001
1000
0001
0200
0010
0310
0000
,
0101
0000
0000
0000
0001
0010
0001
0010
0001
0000
0100
0000
0100
0000
0010
0000
,
2002
0000
0000
0000
3003
0000
0010
1000
0010
0000
0100
0000
0200
0000
0000
0000
,
0301
0000
0100
0010
0100
0000
1000
0000
0010
0000
0100
0000
0010
0000
0001
0000
,
0010
1000
0001
1000
1100
0000
1100
0000
,
1001
0000
0000
0000
0010
1000
0001
1000
0010
0000
0100
0000
0100
0000
0001
0000
,
0022
0000
0000
0000
0033
0000
0001
0100
0010
0000
1000
0000
2000
0000
0000
0000
,
3100
0000
0010
0100
1000
0000
0001
0000
0100
0000
1000
0000
0100
0000
0010
0000
,
0100
0001
0010
0100
2000
0001
3001
0000
,
1100
0000
0000
0000
0100
0010
0001
0010
0100
0000
1000
0000
1000
0000
0001
0000
,
0220
0000
0000
0000
0330
0000
0100
1000
0001
0000
0010
0000
0020
0000
0000
0000
,
1030
0000
0010
0001
0100
0000
0010
0000
1000
0000
0100
0000
0001
0000
0100
0000
,
0010
0100
1000
0001
0101
0000
0101
0000
,
0010
0000
1000
0100
0010
0000
0001
0000
0100
0000
0001
1000
0001
0000
0010
0000
,
0100
0000
1000
0001
0100
0000
0010
0000
1000
0000
0001
0000
1000
0000
0100
0000
,
0001
0000
0100
0010
0001
0000
1000
0000
0010
0000
0100
0001
0100
0000
0010
0000
,
1010
0011
0101
1100
,
2001
0000
3100
0010
0002
0000
0103
0010
,
1000
0001
1000
0010
0200
0001
0301
0110
,
0110
1000
0100
0001
0100
0010
0100
1000
,
0001
0100
0000
0000
0100
1000
0000
0000
1000
0010
0000
0000
0010
0001
0000
0000
,
0102
0000
1003
0010
0200
0000
0301
0010
,
1000
0010
0100
0010
0002
1000
1003
1100
,
1100
0001
0010
1000
0010
0100
0010
0001
,
1000
0010
1000
0010
0100
0010
0100
0010
0100
0001
0100
0001
1000
0001
1000
0001
,
0010
0012
2003
3002
,
0103
0000
0100
0000
0200
0000
0000
0000
0310
0000
0010
0000
0020
0000
0000
1030
,
0001
0201
0320
0230
,
0301
0001
0002
0000
1003
1000
2000
0000
,
3010
0000
1000
0100
0001
0000
0001
0000
0100
0000
1000
0010
0001
0000
0001
0000
,
0010
0000
1000
0100
0001
0000
0001
0000
0100
0000
0010
0001
1000
0000
1000
0000
,
0001
0000
0010
0100
1000
0000
1000
0000
0010
0000
0100
0001
0010
0000
0010
0000
,
0100
0000
1000
0010
0100
0000
0001
0000
0010
0000
0100
0000
1000
0001
1000
0001
,
0200
0000
0000
0000
0000
0000
0310
0100
0001
0000
0001
0000
0001
0000
1000
0000
,
0200
0000
0310
0001
2000
0000
3001
0000
,
0011
1010
1100
0101
,
0110
0000
0010
1000
0100
0000
0010
0000
0001
1000
0000
0000
0010
0100
0000
0000
,
0001
0010
0001
0010
0001
0000
0100
0000
0100
0010
0000
0000
1000
0001
0000
0000
,
0010
0010
0100
0100
1000
0001
1000
0001
,
1100
0110
0011
1001
,
1010
0000
0001
1000
0100
0000
0010
0000
0001
0100
0000
0000
0010
1000
0000
0000
,
0100
1000
0100
1000
0100
0000
0010
0000
0010
0100
0000
0000
1000
0001
0000
0000
,
0100
0000
0010
1000
0010
1000
0010
1000
0001
0000
0100
0010
0100
0010
0100
0010
,
2000
3002
0023
0130
,
2200
0000
0000
0000
3300
0000
0010
0100
0010
0000
0010
0000
1000
0001
1000
0001
,
0200
0320
2030
3001
,
0202
0000
0000
0000
0303
0000
0001
1000
0001
0000
0001
0000
1000
0100
1000
0100
,
0020
0000
0031
0100
0020
1030
0200
1300
,
2100
0010
0100
3001
,
1002
0010
0100
2003
,
3020
0000
0000
0000
0130
0000
0001
0010
1000
0000
1000
0000
0100
0000
0100
0000
,
2000
3002
0023
0032
,
0203
0000
0000
0000
,
0020
0000
0000
0000
,
0330
0000
0000
0000
;

//---------------dance-single - ----------------
#NOTEDATA:;
#CHARTNAME:;
#STEPSTYPE:dance-single;
#DESCRIPTION:;
#CHARTSTYLE:;
#DIFFICULTY:Hard;
#METER:12;
#RADARVALUES:0.536636,0.536763,0.356062,0.551896,0.000000,422.000000,382.000000,40.000000,62.000000,0.000000,0.000000,0.000000,0.000000,0.000000,0.536636,0.536763,0.356062,0.551896,0.000000,422.000000,382.000000,40.000000,62.000000,0.000000,0.000000,0.000000,0.000000,0.000000;
#CREDIT:;
#DISPLAYBPM:100.000000:155.000000;
#NOTES:
0000
0000
0000
0000
,
0000
0000
0000
0000
0020
0000
1030
0001
,
2000
3200
0320
0032
,
0203
0000
0301
0010
0002
0000
2003
0000
,
3020
0000
1030
0001
1000
0100
0010
0001
,
0200
0000
1000
0301
,
1001
0000
1100
0000
0001
0001
0000
1000
,
0010
0100
0010
1000
0001
0001
0000
0100
,
0110
0000
0101
0000
1000
1000
0000
0001
,
1000
0010
1000
0001
0100
0100
0000
0010
,
1010
0000
0001
1000
0001
0100
0010
0100
,
0002
0000
0000
1003
0010
0100
0020
0000
,
1030
0010
0100
0010
0001
0010
0100
0010
,
1000
0001
1000
0100
0020
0001
0031
0000
,
0011
0000
0100
0010
1000
0001
1000
0100
,
0020
0000
0000
0031
0010
0100
2000
0000
,
3001
0100
0010
1000
0100
0001
0100
0010
,
0100
1000
0010
0100
0001
0000
0001
0000
,
1001
0000
0100
0010
0100
0001
0010
0100
,
2000
0000
0000
3010
1000
0001
0200
0000
,
1300
0100
0001
0100
0010
0001
0010
1000
,
0010
0100
0010
1000
0002
0100
0103
0000
,
0110
0000
0001
0010
0100
0010
0001
1000
,
0200
0000
0000
0310
0100
1000
0002
0000
,
0103
0010
0001
0010
1000
0001
1000
0100
,
0010
0001
0100
0001
1000
0000
1000
0000
,
0000
0010
1000
0100
0000
0010
0001
0100
,
0000
0001
0010
1000
0000
1100
0000
0101
,
0000
0010
0100
0001
0000
0010
0100
1000
,
1010
0011
1010
0011
,
1100
0000
0001
0100
0020
0000
1030
0001
,
1000
0100
0001
0100
2000
0000
0000
0010
,
3010
0100
0010
0100
0001
1000
0001
0010
,
0100
1100
0101
1100
,
0011
0000
0100
1000
0002
0000
1003
0010
,
0100
0010
0001
0010
2000
0000
0000
0001
,
3001
1000
0100
1000
0010
0100
0001
0010
,
0100
1000
0100
1000
0001
0100
0001
0100
,
0110
2000
3002
2003
,
3010
0100
0020
0000
1030
0001
2000
0000
,
3100
0002
2003
3002
,
0103
0010
0200
0000
0301
1000
0002
0000
,
1003
0100
0001
0100
1000
0100
0001
0100
,
1000
0100
0001
0100
0010
0100
0010
0100
,
0001
0100
1000
0100
0001
0100
1000
0100
,
0001
0100
0010
0100
1000
0001
1000
0010
,
0200
0000
0000
0301
1000
0001
0010
0100
,
1000
0000
0010
0100
0002
0000
1003
0000
,
1001
1100
1001
0101
,
1001
0000
0010
0100
0002
1000
1003
0000
,
2000
0001
3001
0010
0200
1000
1300
0000
,
0010
0100
0001
0100
0010
1000
0100
0010
,
0011
0110
1100
0110
,
0011
0000
0100
0001
0020
0100
0130
0000
,
2000
0010
3010
0100
0002
1000
1003
0000
,
0010
1000
0100
0010
0001
0100
0010
1000
,
0001
0011
1100
0101
,
2020
0000
0030
0001
3001
0010
0100
1000
,
1000
1010
0011
1100
,
0202
0000
0300
1000
1003
0001
0010
0100
,
2000
3010
1001
0110
,
0002
0023
0230
2300
,
3020
0230
0302
2003
,
3200
0000
0000
1000
1300
0001
0100
0010
,
2000
3200
0320
0032
,
0203
0000
0000
0000
,
0020
0000
0000
0000
,
0330
0000
0000
0000
;

//---------------dance-single - ----------------
#NOTEDATA:;
#CHARTNAME:;
#STEPSTYPE:dance-single;
#DESCRIPTION:;
#CHARTSTYLE:;
#DIFFICULTY:Medium;
#METER:8;
#RADARVALUES:0.414558,0.477123,0.356062,0.320456,0.000000,326.000000,286.000000,40.000000,36.000000,0.000000,0.000000,0.000000,0.000000,0.000000,0.414558,0.477123,0.356062,0.320456,0.000000,326.000000,286.000000,40.000000,36.000000,0.000000,0.000000,0.000000,0.000000,0.000000;
#CREDIT:;
#DISPLAYBPM:100.000000:155.000000;
#NOTES:
0000
0000
0000
0000
,
0000
0000
0010
0100
,
0001
1000
0100
0010
,
0001
1000
0001
0100
,
0010
1000
0100
0010
,
0002
0000
2003
3001
,
1001
0000
1000
0000
1000
0001
0000
0100
,
0010
0000
0010
0000
1000
0001
0000
0000
,
0110
0000
0100
0000
0100
0010
0000
1000
,
0001
0000
0001
0000
0010
0100
0000
0000
,
1100
0000
1000
0000
0010
0100
0010
0100
,
0002
0000
0000
0000
1003
0100
1000
0000
,
0010
0010
1000
0001
,
0010
0000
0100
0000
1000
0010
1000
0000
,
0101
0000
0010
0000
1000
0001
1000
0001
,
0020
0000
0000
0000
0031
0100
0001
0000
,
0010
0100
1000
0010
,
1000
0001
0100
0100
,
1010
0000
0001
0000
1000
0100
1000
0100
,
0020
0000
0000
0000
0031
1000
0001
0000
,
0010
0100
0010
0001
,
0100
0000
0010
0000
1000
0001
1000
0000
,
0011
0000
0100
0000
0001
0010
0001
0010
,
0200
0000
0000
0000
1300
0010
1000
0000
,
0001
0010
0001
0100
,
0010
1000
0001
0001
,
2000
3100
0020
0031
,
0200
0010
1000
0301
,
0020
1030
0002
0103
,
0110
1001
0110
1001
,
0110
0001
0100
1000
,
0010
0100
0010
0100
0020
0000
0030
0000
,
1000
0100
1000
0000
0001
0100
0001
0000
,
0011
1100
0011
1100
,
0011
0100
0010
1000
,
0001
0010
0001
0010
0002
0000
0003
0000
,
1000
0100
1000
0000
0001
0100
0001
0000
,
0020
1000
0100
0031
,
0101
1000
1000
1000
,
1000
0100
0002
0000
0013
0100
1000
0000
,
1100
0001
0001
0001
,
0001
0010
2000
0000
3100
0010
0001
0000
,
1000
1010
1000
1010
,
1000
0000
1010
0000
1000
0100
0010
0000
,
0001
0011
0001
0011
,
0001
0000
0011
0000
0001
0010
0100
0000
,
2000
0000
0000
0000
3010
0000
0010
0100
,
0001
1000
0020
0130
,
1010
0101
1010
0101
,
1010
0000
0001
1000
0010
0000
0010
0000
,
0200
0000
0000
0301
1000
0000
1000
0000
,
0010
0100
0001
0000
0010
0100
1000
0000
,
1100
0101
1100
0101
,
1100
0000
0010
0100
0001
0000
0001
0000
,
0020
0000
0000
0130
1000
0000
1000
0000
,
0001
0100
0010
0000
1000
0001
0100
0000
,
1001
0110
1001
0110
,
2002
0000
3003
0000
0010
0100
0010
0100
,
0010
1000
0001
0100
,
0220
0000
0330
0000
0001
1000
0001
1000
,
0002
0000
0203
0320
,
2030
3001
2000
3100
,
0020
0032
0203
0320
,
2030
0000
3000
0000
0001
0000
0010
0001
,
0100
0100
0001
1000
,
0200
0000
0000
0000
,
0020
0000
0000
0000
,
0330
0000
0000
0000
;

//---------------dance-single - ----------------
#NOTEDATA:;
#CHARTNAME:;
#STEPSTYPE:dance-single;
#DESCRIPTION:;
#CHARTSTYLE:;
#DIFFICULTY:Easy;
#METER:5;
#RADARVALUES:0.214909,0.236781,0.000000,0.017803,0.000000,169.000000,169.000000,0.000000,2.000000,0.000000,0.000000,0.000000,0.000000,0.000000,0.214909,0.236781,0.000000,0.017803,0.000000,169.000000,169.000000,0.000000,2.000000,0.000000,0.000000,0.000000,0.000000,0.000000;
#CREDIT:;
#DISPLAYBPM:100.000000:155.000000;
#NOTES:
0000
0000
0000
0000
,
0000
0000
0010
0000
,
0010
0000
1000
1000
,
1000
0000
0001
0000
,
0100
0000
0010
0010
,
0010
0000
1000
0000
,
0001
0001
0001
0000
,
0010
0010
0010
0000
,
0100
0100
0100
0000
,
1000
1000
1000
0000
,
0010
0010
0010
0010
,
0010
0000
0100
0100
,
0100
0000
0001
0000
,
1000
0000
0001
0000
,
0100
0100
0100
0100
,
0100
0000
0001
0001
,
0001
0000
0010
0000
,
0100
0100
0100
0000
,
1000
1000
1000
1000
,
1000
0000
0010
0010
,
0010
0000
1000
0000
,
0001
0000
0100
0000
,
0001
0001
0001
0001
,
0001
0000
1000
1000
,
1000
0000
0010
0000
,
0100
0100
0100
0000
,
0001
0000
0001
0000
,
1000
0000
1000
0000
,
0001
0000
1000
0000
,
0010
0010
0010
0010
,
0010
0000
0100
0000
,
0010
0010
0010
0000
,
1000
1000
1000
0000
,
0001
0001
0001
0001
,
0001
0000
0100
0000
,
0010
0010
0010
0000
,
1000
1000
1000
0000
,
0010
0000
0000
0000
,
0000
0100
0100
0000
,
0000
0001
0000
1000
,
0000
0010
0010
0000
,
1000
0000
0001
0000
,
0010
0000
0010
0000
,
0100
0000
0100
0000
,
1000
0000
0001
0000
,
1000
0000
0001
0000
,
0100
0000
0010
0000
,
0100
0000
0001
0000
,
1000
1000
1000
1000
,
1000
0000
0001
0000
,
0010
0000
0010
0000
,
0001
0000
0100
0000
,
0010
0010
0010
0010
,
0010
0000
1000
0000
,
0100
0000
0010
0000
,
0001
0000
0100
0000
,
1000
1000
1000
1000
,
1000
0000
0010
0010
,
0010
0100
0100
0100
,
0001
0000
1000
1000
,
1000
0000
0001
0000
,
1000
0000
0100
0000
,
0010
0000
0001
0000
,
0100
0000
0001
0001
,
1000
0100
1000
0001
,
0200
0000
0300
0000
,
0020
0000
0030
0000
;

//---------------dance-single - ----------------
#NOTEDATA:;
#CHARTNAME:;
#STEPSTYPE:dance-single;
#DESCRIPTION:;
#CHARTSTYLE:;
#DIFFICULTY:Beginner;
#METER:2;
#RADARVALUES:0.123350,0.147988,0.000000,0.053409,0.000000,97.000000,97.000000,0.000000,6.000000,0.000000,0.000000,0.000000,0.000000,0.000000,0.123350,0.147988,0.000000,0.053409,0.000000,97.000000,97.000000,0.000000,6.000000,0.000000,0.000000,0.000000,0.000000,0.000000;
#CREDIT:;
#DISPLAYBPM:100.000000:155.000000;
#NOTES:
// measure 0
0000
0000
0000
0000
,  // measure 1
0000
0000
0010
0000
,  // measure 2
0000
0000
1000
0000
,  // measure 3
0001
0000
1000
0000
,  // measure 4
0000
0000
0010
0000
,  // measure 5
0100
0000
0001
0000
,  // measure 6
2000
0000
0000
0000
,  // measure 7
3000
0000
0000
0000
,  // measure 8
0001
0000
0000
0000
,  // measure 9
1000
0000
0000
0000
,  // measure 10
0010
0000
0010
0000
,  // measure 11
0100
0000
0000
0000
,  // measure 12
0001
0000
0001
0000
,  // measure 13
1000
0000
0001
0000
,  // measure 14
1000
0000
1000
0000
,  // measure 15
0100
0000
0000
0000
,  // measure 16
0010
0000
0010
0000
,  // measure 17
0001
0000
0100
0000
,  // measure 18
0001
0000
0001
0000
,  // measure 19
0010
0000
0000
0000
,  // measure 20
0100
0000
0010
0000
,  // measure 21
0100
0000
1000
0000
,  // measure 22
0010
0000
0010
0000
,  // measure 23
1000
0000
0000
0000
,  // measure 24
0001
0000
0010
0000
,  // measure 25
0001
0000
0100
0000
,  // measure 26
0020
0000
0000
0000
,  // measure 27
0030
0000
0000
0000
,  // measure 28
0100
0000
0000
0000
,  // measure 29
0001
0000
1000
0000
,  // measure 30
0001
0000
0010
0000
,  // measure 31
0001
0000
0100
0000
,  // measure 32
1000
0000
0010
0000
,  // measure 33
1000
0000
0000
0000
,  // measure 34
0100
0000
0010
0000
,  // measure 35
0100
0000
1000
0000
,  // measure 36
0010
0000
0100
0000
,  // measure 37
0001
0000
0000
0000
,  // measure 38
0100
0000
0000
0000
,  // measure 39
0000
0000
0000
0000
,  // measure 40
0010
0000
0000
0000
,  // measure 41
0000
0000
0000
0000
,  // measure 42
1000
0000
1000
0000
,  // measure 43
1000
0000
1000
0000
,  // measure 44
0001
0000
0001
0000
,  // measure 45
0001
0000
0001
0000
,  // measure 46
1000
0000
0000
0000
,  // measure 47
0000
0000
0000
0000
,  // measure 48
0010
0000
0010
0000
,  // measure 49
0100
0000
0001
0000
,  // measure 50
1000
0000
0010
0000
,  // measure 51
1000
0000
0100
0000
,  // measure 52
0010
0000
0010
0000
,  // measure 53
0001
0000
0100
0000
,  // measure 54
0001
0000
0010
0000
,  // measure 55
1000
0000
0001
0000
,  // measure 56
1000
0000
0010
0000
,  // measure 57
0200
0000
0300
0000
,  // measure 58
0010
0000
1000
0000
,  // measure 59
0002
0000
0003
0000
,  // measure 60
0010
0000
0000
0000
,  // measure 61
0001
0000
0000
0000
,  // measure 62
0100
0000
0000
0000
,  // measure 63
1000
0000
0000
0000
,  // measure 64
0010
0000
1000
0000
,  // measure 65
0200
0000
0300
0000
,  // measure 66
0020
0000
0030
0000
;
