#TITLE:SexyBack;
#ARTIST:Justin Timberlake ft. Timbaland;
#BANNER:SexyBack-bn.png;
#BACKGROUND:SexyBack-bg.png;
#JACKET:SexyBack-jacket.png;
#MUSIC:SexyBack.ogg;
#OFFSET:1.765;
#SAMPLESTART:15.924;
#SAMPLELENGTH:20;
#LASTBEATHINT:1.476;
#DISPLAYBPM:117;
#BPMS:0=117.02;
#STOPS:66=0.512,160=1.025,173=0.512;
#BGCHANGES:;

//---------------dance-single - ----------------
#NOTES:
     dance-single:
     :
     Beginner:
     3:
     :
0000
0000
0000
0000
,
0000
0000
0000
0000
,
0000
0000
0000
0000
,
0000
0000
0000
0000
,
0000
0000
0000
0000
,
1000
0000
0000
0000
,
0001
0000
0000
0000
,
0010
0010
0010
0000
,
0001
0000
0000
0000
,
1000
1000
0000
0000
,
0010
0000
0100
0000
,
0001
0001
0000
0000
,
1000
0000
0001
0000
,
0100
0100
0000
0000
,
0001
0000
0100
0000
,
0010
0010
0000
0000
,
1000
1000
1000
0001
,
0002
0000
0000
0003
,
0000
1000
0000
0010
,
0020
0000
0000
0030
,
0000
1000
0000
0100
,
0200
0000
0000
0300
,
0000
0100
0000
1000
,
2000
0000
3000
0000
,
0001
0001
0000
0010
,
0010
0000
0000
0100
,
0100
0000
0000
1000
,
1000
0000
0000
0001
,
0001
0000
0000
0010
,
0010
0000
0000
1000
,
1000
0000
0000
0100
,
0100
0000
0000
0001
,
0001
0000
0000
1000
,
1000
0000
0000
0010
,
0010
0000
0000
0100
,
0100
0000
0000
0001
,
0001
0000
0000
1000
,
1000
0000
0000
0100
,
0100
0000
0000
0010
,
0010
0000
0000
0001
,
0001
0100
0000
0000
,
0000
0010
0000
0000
,
0000
1000
1000
1000
,
0000
0001
0000
0000
,
0010
0000
0010
0000
,
0100
0000
0100
0000
,
1000
0000
0001
0000
,
1000
0000
0001
0000
,
0010
0000
0010
0000
,
0100
0000
0100
0000
,
1000
0000
0001
0000
,
1000
0000
0001
0000
,
0100
0000
0000
0000
;

//---------------dance-single - ----------------
#NOTES:
     dance-single:
     :
     Easy:
     7:
     :
0000
0000
0000
0000
,
0000
0000
0000
0000
,
0000
0000
0000
0000
,
0000
0000
0000
0000
,
0000
0000
0000
0000
,
1000
0000
0000
0000
0000
1100
0000
0000
,
0001
0000
0000
0000
0000
0101
0000
0000
,
0010
0000
0000
0010
0000
0000
0010
0000
0000
0000
0100
0000
0000
0000
0000
0000
,
0110
0000
0000
0000
0000
1001
0000
0000
,
0001
1000
0001
0000
0000
0000
0000
0000
,
0010
0001
0100
1000
,
0010
0100
0010
0000
0000
0000
0000
0000
,
1000
0010
0100
0001
,
1000
0100
1000
0000
0000
0000
0000
0000
,
0100
0010
0001
1000
,
0010
1000
0010
0000
0000
0000
0000
0000
,
1001
0000
0001
1000
0001
0000
0010
0001
,
0200
0000
0000
0300
,
0110
0000
0001
0000
0100
0000
1000
0010
,
2000
0000
0000
3000
,
1100
0000
0001
0000
0010
0000
0100
1000
,
0020
0000
0000
0030
,
0101
0000
0001
0000
0010
0000
0001
0100
,
0002
0000
0000
0003
,
0011
0000
0001
1000
0000
0000
0010
0000
,
1010
0000
0100
0000
0001
0000
1000
0001
,
0100
0000
0010
0000
1000
0000
0100
0010
,
0001
0000
1000
0000
0001
0000
1000
0100
,
1000
0000
0010
0000
0100
0000
0001
0010
,
0001
0000
0100
0000
0010
0000
1000
0100
,
1000
0000
0001
0000
0010
0000
0001
1000
,
0100
0000
0010
0000
0001
0000
0100
0010
,
1000
0000
0001
0000
0100
0000
0010
1000
,
0010
0000
1000
0000
0100
0000
0010
0001
,
0010
0000
0001
0000
0100
0000
1000
0001
,
1000
0000
0010
0000
0100
0000
0010
1000
,
0100
0000
0010
0000
0001
0000
0100
0001
,
1000
0000
0001
0000
0010
0000
0001
1000
,
0001
0000
0010
0000
0100
0000
1000
0010
,
1000
0000
0100
0000
0010
0000
0001
1000
,
0100
0000
1000
0000
0000
0000
0000
1100
,
0000
0000
0001
0000
0000
0000
0000
0101
,
0000
0000
0000
0000
0010
0000
0000
0010
0000
0000
0010
0000
0000
0000
0100
0000
,
0000
0110
0001
1001
,
0010
1000
0100
0100
,
0010
1000
0001
0010
,
0001
0100
1000
1000
,
0010
0000
1000
0000
0000
2020
0030
0000
,
3100
0001
0010
0001
,
0100
0010
1000
0100
,
1000
0010
0001
0100
,
0010
1000
0001
0100
,
1001
0000
0000
0000
;

//---------------dance-single - ----------------
#NOTES:
     dance-single:
     :
     Medium:
     9:
     :
0000
0000
0000
0000
,
0000
0000
0000
0000
,
0000
0000
0000
0000
,
0000
0000
0000
0000
,
0000
0000
0000
0000
,
1001
0000
0010
0000
1000
1100
0000
0000
,
0011
0000
0100
0000
0001
0101
0000
0000
,
0010
0000
0000
0010
0000
0000
0010
0000
0000
0000
1010
0000
0000
0000
0000
0000
,
0110
0000
0001
0000
0000
0100
0010
1000
,
0001
0001
0002
0000
0003
0011
0000
0000
,
1001
1000
0010
1000
0002
0000
0013
0100
,
1000
1000
2000
0000
3000
1010
0000
0000
,
0101
0100
0010
1000
0010
1000
0010
1000
,
0100
0100
0200
0000
0300
0110
0000
0000
,
1100
1000
0001
1000
0001
0100
0001
1000
,
0010
0010
0020
0000
0030
0110
0000
0000
,
1001
0000
0001
0100
2000
0000
3010
1000
,
0002
0000
0000
0000
0000
0100
0103
0010
,
1000
0010
1000
0100
1000
0001
0010
0100
,
2000
0000
0000
0000
0000
0001
3001
1000
,
0010
1000
0010
0100
0010
1000
0001
1000
,
0200
0000
0000
0000
0000
0010
0310
0100
,
1000
0100
1000
0001
1000
0010
1000
0100
,
0020
0000
0000
0000
0000
0001
0031
0000
,
0100
0001
1000
1000
0000
0000
0100
1000
,
0001
0000
0011
0000
1100
0000
0001
0100
,
1000
0000
1010
0000
0101
0000
0010
1000
,
0100
0000
1001
0000
0110
0000
0010
1000
,
0001
0000
0000
0001
0010
0100
1000
0010
,
0100
0000
0101
0000
1100
0000
0001
0010
,
0001
0000
0011
0000
1010
0000
0010
1000
,
0100
0000
1001
0000
0110
0000
0010
1000
,
0100
0000
1000
0001
0100
0000
0010
0010
,
0010
0000
1000
0001
0100
0000
0001
0001
,
0001
0000
0010
0100
1000
0000
1000
1000
,
1000
0000
0010
1000
0001
0000
0100
0100
,
0100
0000
0010
2020
0030
0000
3010
0010
,
0010
0000
1000
0100
0001
0000
0001
0001
,
0001
0000
1000
0010
0100
0000
1000
1000
,
1000
0000
0100
0010
0001
0000
0100
0100
,
0100
0000
1001
0000
0001
0000
0010
0011
,
0000
0000
1010
0000
1000
0000
0100
1100
,
0000
0000
0000
0000
0001
0000
0000
0001
0000
0000
0001
0000
0000
0000
0110
0000
,
0000
0002
2003
0000
3010
0000
1001
0000
,
1100
0000
1100
0000
0001
0100
0010
1000
,
0101
0000
0101
0000
0010
1000
0001
0100
,
0110
0000
0110
0000
0010
1000
0100
0010
,
0011
0000
0011
0000
1000
2020
0030
0000
,
3001
0000
0101
0000
0010
1000
0001
0100
,
1010
0000
1010
0000
0001
1000
0100
0010
,
0011
0000
0011
0000
0100
0001
1000
0010
,
0110
0000
0110
0000
1000
0010
0100
0001
,
1001
0000
0000
0000
;

//---------------dance-single - ----------------
#NOTES:
     dance-single:
     :
     Hard:
     12:
     :
0000
0000
0000
0000
,
0000
0000
0000
0000
,
0000
0000
0000
0000
,
0000
0000
0000
0000
,
0000
0000
0000
0000
,
1010
0000
0010
0000
0100
0000
0001
0000
0100
0000
0011
0000
0000
0000
1000
0001
,
1000
0100
0010
0001
0100
0110
0000
0001
,
0011
0000
0000
1100
0000
0000
0101
0000
0000
0000
1010
0000
0000
0000
0100
0000
,
1001
0001
0010
0100
1000
0010
0010
0100
,
0001
0000
0001
0000
0001
0000
0000
0000
0100
0000
1010
0000
0000
0000
1000
0100
,
1000
0001
0001
0010
0020
0000
0130
1000
,
0010
0000
0010
0000
0010
0000
0100
0000
0000
0000
0101
0000
0000
0000
0001
1000
,
0001
1000
1000
0010
1000
1000
0100
0010
,
0100
0000
0100
0000
0100
0000
0000
0000
1000
0000
0011
0000
0000
0000
0001
0100
,
0001
0010
0100
0010
0001
1000
0100
1000
,
0010
0000
0010
0000
0010
0000
1000
0000
0100
0000
1001
0000
0000
0000
0001
0010
,
0001
0000
0000
0000
1000
0001
1000
0001
2000
0000
0000
0000
3010
0000
0100
0000
,
0002
0000
1000
1000
0000
0010
0013
0001
,
0100
0010
1000
1000
0100
1000
0001
1000
,
0020
0100
0000
0001
0000
1000
1030
0100
,
0100
1000
0010
0010
0100
0001
1000
0001
,
0200
0000
1000
1000
0000
0001
0301
0010
,
0100
1000
0010
1000
0100
0010
0001
1000
,
0002
0010
0000
1000
0000
0100
0103
0000
,
0001
1000
0001
1000
0001
0000
0010
0000
0100
0000
0000
0000
1000
0100
0000
0100
,
0000
0000
0010
0000
0001
0000
0100
0000
0010
0000
1000
0000
0100
0000
1000
0001
,
1000
0000
0010
0000
0100
0000
0001
0000
1000
0000
0010
0000
0100
0001
0000
0001
,
0000
1000
0010
0100
0010
1000
0100
0100
,
0100
0000
1000
0000
0001
0000
0010
0000
0001
0000
1000
0001
1000
0000
0010
0100
,
0000
0000
0001
0000
0010
0000
0001
0000
1000
0000
0100
0000
1000
0010
1000
0000
,
0001
0000
0100
0000
0010
0000
1000
0000
0001
0000
0010
0000
0100
0000
1000
0001
,
0000
0000
1000
0000
0010
0000
0100
0000
0001
0000
0010
0000
0100
1000
0000
0001
,
0100
0000
0010
0000
1000
0000
0100
0000
1000
0000
0001
0000
0100
0010
0100
0010
,
0100
0000
0000
0000
0001
0000
0010
0000
0001
0000
1000
0000
0100
1000
0100
1000
,
0100
0000
0000
0000
1000
0000
0001
0000
0010
0000
0001
0000
1000
0010
1000
0010
,
2000
0000
0000
0000
3100
0000
0010
0000
0001
0000
0100
0000
0001
1000
0001
1000
,
0001
0000
0000
0000
0100
0000
2020
0000
0030
0000
0000
0000
3001
0010
0001
0010
,
0001
0000
0000
0000
1000
0000
0010
0000
1000
0000
0100
0000
0010
0100
0010
0100
,
0010
0000
0000
0000
0001
0000
1000
0000
0010
0000
1000
0000
0001
0100
0001
0100
,
0002
0000
0000
0000
0013
0000
0100
0000
1000
0000
0010
0000
1000
0001
1000
0001
,
1000
0000
1001
0010
1000
0100
1000
0101
,
0000
0010
1100
0000
0001
0010
0100
0110
,
0000
0000
1000
0000
1100
0000
0000
0110
0000
0000
0011
0000
0000
0000
1001
0000
,
0010
2000
3002
0010
0013
0001
0101
0000
,
0010
0000
0000
0010
1000
0000
0100
0000
1000
0000
0001
0000
1000
0000
0010
0000
,
0100
0000
0000
0100
0001
0000
0010
0000
0001
0000
1000
0000
0001
0000
0100
0000
,
0001
0000
0000
0001
1000
0000
0100
0000
1000
0000
0010
0000
1000
0000
0001
0000
,
1000
0000
0000
1000
0010
0000
0100
0000
0001
0000
2020
0000
0030
0000
0000
0000
,
3001
0000
0000
0001
1000
0000
0010
0000
0100
0000
1000
0000
0100
0000
0001
0000
,
0100
0000
0000
0100
0001
0000
0010
0000
1000
0000
0010
0000
0001
0000
1000
0000
,
0010
0000
0000
0010
1000
0000
0100
0000
0010
0000
1000
0000
0010
0000
0001
0000
,
1000
0000
0000
1000
0010
0000
0100
0000
1000
0000
0100
0000
0001
0000
0010
0000
,
0011
0000
0000
0000
;

//---------------dance-single - ----------------
#NOTES:
     dance-single:
     :
     Challenge:
     14:
     :
0000
0000
0000
0000
,
0000
0000
0000
0000
,
0000
0000
0000
0000
,
0000
0000
0000
0000
,
0000
0000
0000
0000
,
1010
0000
0001
0100
0001
0000
1000
0100
1000
0000
0011
0000
0000
0000
0001
0000
,
1100
0000
0001
0010
0001
0000
1000
0010
1000
0000
0101
0000
0010
0000
0100
0000
,
0001
0000
1000
0100
0000
0100
0010
0000
0100
0000
0110
0000
0001
0000
1000
0100
,
1000
0000
0001
0010
0001
0000
1000
0100
1000
0000
0010
0000
0010
0000
0100
0000
,
0101
0000
1100
0000
0101
0000
1000
0010
1000
0000
1100
0000
0000
0000
0001
0100
,
0001
0010
0010
0001
2000
0100
3100
1000
,
1010
0000
0011
0000
1010
0000
0100
0000
0010
0000
1001
0000
0001
0000
0100
0010
,
0100
0001
0001
1000
1000
0001
0010
0100
,
1100
0000
0110
0000
0011
0000
0100
0010
0100
0000
0101
0000
0000
0000
0001
0010
,
0001
1000
1000
0100
2000
0001
3001
0100
,
0010
0000
1001
0000
0110
0000
0001
0000
1000
0000
1100
0000
0010
0000
0100
0001
,
0100
0000
0000
0000
0001
0010
0100
1000
0010
0000
0000
0000
1001
0000
1010
0000
,
2100
0001
3001
0110
0010
2000
3002
0103
,
0100
0100
1001
0010
1000
0001
0011
1001
,
2010
0001
3001
1100
0010
2000
3002
0013
,
0010
0001
0101
1000
1000
0100
1001
0110
,
1002
0010
0013
0101
0100
0002
2003
3010
,
0010
0100
1010
0001
1000
1000
1010
0101
,
1020
0100
0130
0110
0001
2000
3200
0000
,
1300
0010
0100
0001
0010
0000
0011
0000
0100
0000
0000
0000
0001
1000
0000
1000
,
0100
0000
1000
0010
0100
0000
0100
0000
0100
0000
0001
1000
0001
0000
0010
1000
,
0100
0000
0010
0001
1000
0000
1000
0000
1000
0000
0010
0100
0001
0010
0000
0010
,
0100
0000
1000
0001
0100
0000
0100
0000
0100
0000
0010
1000
0100
0000
1100
0000
,
0101
0000
0010
1000
0001
0000
0001
0000
0001
0000
0010
0100
1000
0000
0010
0100
,
0000
0000
0001
1000
0010
0000
0010
0000
0010
0000
0100
0001
1000
0100
1000
0000
,
1000
0000
0010
0100
0001
0000
0001
0000
0001
0000
1000
0001
0100
0000
0010
1000
,
0000
0000
0100
1000
0001
0000
0001
0000
0001
0000
0010
0100
1000
0010
0000
0100
,
0001
0000
1000
0001
0010
0000
0010
0000
0010
0000
0001
0100
0001
0010
1000
0010
,
0001
0000
0100
0010
1000
0000
1000
0000
1000
0000
0001
0010
0001
0100
1000
0100
,
0001
0000
0010
0001
1000
0000
1000
0000
1000
0000
0010
0100
0001
1000
0010
1000
,
0001
0000
0100
0001
0010
0000
0010
0000
0010
0000
0100
1000
0010
0100
0001
0100
,
0010
0000
1000
0001
1000
0000
1000
0000
1000
0000
0100
0010
0001
0100
1000
0100
,
0001
0000
1000
0001
0100
0000
0100
0000
0100
0000
0010
1000
0100
0001
0100
1000
,
0100
0000
0010
0001
1000
0000
1000
0000
1000
0000
0001
0010
0100
0010
0001
1000
,
0001
0000
0100
0010
1000
0000
1000
0000
1000
0000
0001
1000
0010
0100
0010
1000
,
0001
0000
0000
0000
0011
0000
1000
0001
1000
0000
0001
1000
0001
0000
1010
0000
,
0000
0000
0200
0000
0320
0000
1030
0100
1000
0000
0001
0100
0001
0000
0110
0000
,
0010
0000
1000
0000
0100
0000
1000
0001
0000
0001
0100
0000
0010
0000
0101
0000
,
1000
0000
0100
0010
0001
0000
1000
0010
0100
0000
0002
0000
0023
0000
0030
0000
,
1001
0000
0000
1000
0100
0000
0010
0000
0011
0000
0011
0000
1100
0000
1100
0000
,
0101
0000
0000
0001
1000
0000
0010
0000
0110
0000
0110
0000
1001
0000
1001
0000
,
1010
0000
0000
0001
1000
0000
0100
0000
1100
0000
1100
0000
0101
0000
0101
0000
,
0110
0000
0000
0010
1000
0000
0100
0000
0001
0000
0012
0000
1000
0000
0103
0000
,
1010
0000
0000
0010
1000
0000
0100
0000
1001
0000
1010
0000
1100
0000
1010
0000
,
1001
0000
0000
0010
1000
0000
0100
0000
1100
0000
0110
0000
0011
0000
0110
0000
,
1100
0000
0000
0001
1000
0000
0010
0000
0101
0000
1001
0000
1100
0000
1001
0000
,
0101
0000
0000
0010
1000
0000
0001
0000
0011
0000
0101
0000
1001
0000
0101
0000
,
0011
0000
0000
0000
;
