#TITLE:Seth;
#SUBTITLE:;
#ARTIST:MonstDeath;
#TITLETRANSLIT:;
#SUBTITLETRANSLIT:;
#ARTISTTRANSLIT:;
#GENRE:;
#CREDIT:;
#BANNER:Seth-bn.png;
#BACKGROUND:Seth-bg.png;
#LYRICSPATH:;
#CDTITLE:;
#MUSIC:Seth.ogg;
#OFFSET:0.937500;
#SAMPLESTART:25.214998;
#SAMPLELENGTH:20.000000;
#SELECTABLE:YES;
#DISPLAYBPM:197.000000;
#BPMS:0.000000=197.000000
;
#STOPS:
;
#BGCHANGES:;
#KEYSOUNDS:;
#ATTACKS:;

//---------------dance-single - ----------------
#NOTES:
     dance-single:
     :
     Beginner:
     8:
     0.357352,0.438588,0.370039,0.710474,0.000000,338.000000,288.000000,50.000000,96.000000,0.000000,0.000000,0.357352,0.438588,0.370039,0.710474,0.000000,338.000000,288.000000,50.000000,96.000000,0.000000,0.000000:
0000
0000
0000
0000
,
0000
0000
0000
0000
,
0000
0000
0000
0000
,
0000
0000
0000
0000
,
2001
0000
0000
3001
,
0002
0000
0000
0103
,
0200
0000
0000
0300
,
0020
0000
0000
0130
,
0210
0000
0000
0301
,
0002
0000
0000
1003
,
2000
0000
0000
3010
,
0020
0000
0000
0030
,
1020
0000
0000
1030
,
1001
0000
0110
0000
,
0001
0100
1000
0100
,
0002
0000
0000
0003
,
0021
0001
0130
0010
,
0002
1000
1000
1003
,
0020
0100
0001
1030
,
0100
0010
1000
0001
,
1100
0000
0000
0000
,
0000
0000
0110
0000
,
1002
0000
0010
1003
,
0001
0001
2000
3100
,
2100
0000
3001
1000
,
0010
0100
0020
1030
,
0210
0000
0001
0301
,
2000
3001
1000
0100
,
1000
0000
0000
0010
0000
0000
0100
0000
,
0000
0001
0000
0000
0011
0000
1100
0000
,
2002
0000
0000
0003
,
0020
3000
2000
3030
,
2100
0000
0001
3001
,
0010
0100
0010
0001
,
0102
0000
1003
0001
,
2000
3001
0200
0310
,
1000
0000
0000
0100
0000
0000
0010
0000
,
0000
0001
0000
0000
0101
0000
1010
0000
,
2001
0000
0010
3100
,
0001
0001
1000
1000
,
0200
0000
0010
0310
,
0002
0000
1000
1003
,
0210
0000
1000
0301
,
2000
3010
0100
0100
,
0012
0000
1000
0013
,
2010
0000
0001
3100
,
1002
0000
0000
0103
,
0110
0000
1001
0000
,
1100
0000
0001
0100
,
1000
2000
0010
3100
,
0001
0001
0011
0000
,
1000
0002
0100
0103
,
0012
0000
0010
0103
,
2010
0000
3001
1000
,
2100
0000
0000
3001
,
1000
0001
1000
0100
,
0010
0001
0010
0100
,
1000
0002
0000
1003
,
0020
0000
0000
0130
,
0001
0001
1000
1000
,
0010
0010
0100
0100
,
1000
0001
1000
0001
,
0011
0000
0000
0000
,
0000
0000
0110
0000
,
1200
0000
1300
0001
,
0200
0310
0020
0130
,
1002
0000
0010
1003
,
0002
0103
1000
0001
,
0012
0000
1000
0103
,
2000
3001
1000
0100
,
0102
0000
0000
1000
0000
0000
1000
0000
,
0000
1000
0000
0000
0100
0000
0103
0000
,
2020
0000
0000
0030
,
0010
3010
1000
1001
,
0220
0030
0301
0100
,
0001
0010
0200
1300
,
0010
0010
1000
0001
,
2000
3100
0020
0031
,
0100
0000
0000
0010
0000
0000
1000
0000
,
0000
0001
0000
0000
0101
0000
1100
0000
,
2001
0000
0100
3001
,
0020
0031
2000
3010
,
2000
0000
0010
0100
,
0001
0001
3200
1300
,
0220
0030
1000
0001
,
0010
0010
0001
1300
,
2002
0000
0000
0000
,
0000
0000
0000
0003
,
0002
3003
0200
0310
,
2000
3001
0002
1003
,
1020
0000
2030
3002
,
2003
3200
0320
0032
,
0103
0010
1000
1000
,
0100
0010
0001
0001
,
2000
0000
0000
3002
0000
0000
2003
0000
,
0000
3002
0000
0000
0023
0000
0130
0000
,
2200
0000
0300
3001
,
0002
0000
0000
0013
,
0020
0000
0000
0030
,
0200
0000
0000
1300
,
0022
0000
0030
1003
,
2020
0000
0030
3010
,
0202
0000
0300
0103
,
2200
0000
0000
0300
,
0002
0000
0000
0000
,
0000
0000
0000
0000
,
0000
0000
0000
0000
,
0000
0000
0000
3003
;

//---------------dance-single - ----------------
#NOTES:
     dance-single:
     :
     Easy:
     13:
     0.563516,0.677818,0.133214,0.754879,0.000000,533.000000,515.000000,18.000000,102.000000,0.000000,0.000000,0.563516,0.677818,0.133214,0.754879,0.000000,533.000000,515.000000,18.000000,102.000000,0.000000,0.000000:
// measure 0
0000
0000
0000
0000
,  // measure 1
0000
0000
0000
0000
,  // measure 2
0000
0000
0000
0000
,  // measure 3
0000
0000
0000
0000
,  // measure 4
2020
0000
0030
3001
,  // measure 5
0022
0000
0030
1003
,  // measure 6
2100
0000
0000
0001
0000
0000
3100
0000
,  // measure 7
0120
0000
0031
0010
0100
0000
1000
0001
,  // measure 8
2000
0000
0000
0001
0000
0000
3010
0000
,  // measure 9
0202
0000
0300
0013
,  // measure 10
2002
0000
0003
3100
,  // measure 11
2000
0010
0000
0000
0001
0000
3001
0100
,  // measure 12
0020
0000
0000
1000
0000
0000
0130
0000
,  // measure 13
0002
0000
0000
0010
0000
0000
1003
0000
,  // measure 14
0200
0000
0000
0001
0000
0000
0310
0000
,  // measure 15
2000
0000
0001
0000
0001
0000
3001
0010
,  // measure 16
0200
0000
0000
0001
0000
0000
1300
0000
,  // measure 17
0002
0100
0010
1003
,  // measure 18
0010
1000
0010
0000
0100
0001
0100
0000
,  // measure 19
0001
0010
0001
0010
0100
1000
0100
2000
,  // measure 20
0002
0000
0000
0000
,  // measure 21
0000
3003
0110
0000
,  // measure 22
1001
0000
0000
1000
0001
1000
0010
0100
,  // measure 23
0002
0000
0013
0100
2000
0000
3001
0100
,  // measure 24
0020
0000
0000
1030
0001
0100
0001
0100
,  // measure 25
0020
0000
1030
0001
2000
0000
3100
0010
,  // measure 26
0002
0000
0000
0000
0013
0001
0100
0010
,  // measure 27
2000
0000
3100
1000
0002
0000
0013
0100
,  // measure 28
1000
1000
0000
0001
0001
0000
0100
0100
,  // measure 29
0000
0010
0010
0000
1000
0001
0100
0010
,  // measure 30
2000
0000
0000
3001
0100
0000
0100
0000
,  // measure 31
0020
0000
1030
0010
0200
0000
1300
0100
,  // measure 32
0002
0000
0010
0000
1003
0001
1000
0100
,  // measure 33
0020
0000
0031
1000
0200
0000
1300
0010
,  // measure 34
0200
0000
0010
0000
0310
1000
0001
1000
,  // measure 35
0200
0000
0310
0001
2000
0000
3010
0100
,  // measure 36
0001
0001
0000
0010
0010
0000
0100
0100
,  // measure 37
0000
1000
1000
0000
0010
1000
0001
0100
,  // measure 38
0020
0000
0000
1030
0001
1000
0010
1000
,  // measure 39
0200
0000
0310
0001
1000
0010
1000
0001
,  // measure 40
0200
0000
0000
0301
1000
0100
1000
0001
,  // measure 41
2000
0000
0000
3010
0200
0000
0301
1000
,  // measure 42
0002
0000
0000
0013
0001
0100
0010
1000
,  // measure 43
0002
0000
1003
0001
1000
0010
0100
0010
,  // measure 44
2000
0000
0000
0000
3010
0100
0010
0100
,  // measure 45
0002
0000
0000
0000
1003
0100
0010
0001
,  // measure 46
0200
0000
0000
0000
0000
0310
0100
0010
,  // measure 47
1000
0100
0002
0000
0010
0000
0013
0100
,  // measure 48
2000
0000
0000
0000
0000
3001
0100
0001
,  // measure 49
0010
0100
2000
0000
0000
3001
1000
0001
,  // measure 50
0010
0010
0020
0000
0000
0031
0100
0001
,  // measure 51
0010
0001
2000
0000
3001
1000
0100
0010
,  // measure 52
0200
0000
0000
0000
1300
0001
1000
0001
,  // measure 53
0200
0000
0000
0000
0301
0010
0100
1000
,  // measure 54
0020
0000
0000
0000
0000
1030
0001
0010
,  // measure 55
0001
0100
1000
1000
1000
0010
0100
0001
,  // measure 56
0020
0000
0001
0000
0031
0100
0010
1000
,  // measure 57
0100
0010
0002
0000
0103
0001
1000
0100
,  // measure 58
2000
0000
0010
0010
0000
3001
0100
1000
,  // measure 59
0010
0100
0002
0000
0013
0100
0010
0001
,  // measure 60
2000
0000
0010
0000
3001
1000
0100
0001
,  // measure 61
0020
0000
1000
0000
0031
0100
0010
1000
,  // measure 62
0002
0000
0000
0000
,  // measure 63
0000
0003
0110
0000
,  // measure 64
1001
0000
0000
0000
1000
0001
0010
0100
,  // measure 65
2000
0000
3010
0100
0002
0000
0013
0100
,  // measure 66
0020
0000
0000
0000
0031
1000
0100
0010
,  // measure 67
0002
0000
0103
0001
1000
0100
0010
0001
,  // measure 68
0200
0000
0000
0310
1000
0001
0010
0001
,  // measure 69
2000
0000
3100
0010
0001
0100
0010
1000
,  // measure 70
0001
0001
0000
1000
1000
0000
0010
0010
,  // measure 71
0000
0100
0100
0000
0001
0100
0010
1000
,  // measure 72
0200
0000
0000
0301
0100
0010
0100
1000
,  // measure 73
0002
0000
1003
0010
2000
0000
3001
0100
,  // measure 74
0020
0000
0000
0130
0010
1000
0010
1000
,  // measure 75
0001
0100
1000
0100
0002
0000
1003
0001
,  // measure 76
2000
0000
0000
3001
1000
0010
0100
0010
,  // measure 77
2000
0000
3100
1000
0020
0000
0130
0001
,  // measure 78
1000
1000
0000
0010
0010
0000
0001
0001
,  // measure 79
0000
0100
0100
0000
0001
0010
0100
1000
,  // measure 80
0200
0000
0300
0100
1000
0010
1000
0001
,  // measure 81
0200
0000
0310
0100
0002
0000
1003
0100
,  // measure 82
0002
0000
0010
0000
0013
0100
0010
0100
,  // measure 83
2000
0000
3100
1000
0001
0100
0001
0010
,  // measure 84
0200
0000
0000
0301
0100
0010
0001
1000
,  // measure 85
0020
0000
1030
0001
1000
0010
0100
0001
,  // measure 86
2000
0010
0001
0100
,  // measure 87
0010
0100
0010
3001
,  // measure 88
1100
0000
0000
0100
1000
0010
1000
0001
,  // measure 89
0200
0000
0301
0010
0200
0000
0310
0100
,  // measure 90
2000
0000
0010
0000
0001
3001
1000
1000
,  // measure 91
0010
0100
0010
0100
0001
1000
0001
1000
,  // measure 92
0100
0010
0001
1000
0010
0100
0001
0000
,  // measure 93
0010
0001
0100
0010
0100
1000
0100
0001
,  // measure 94
0010
0010
0000
0100
0100
0000
1000
0001
,  // measure 95
0000
1000
0001
0000
0100
0001
1000
0010
,  // measure 96
2000
0000
0000
3001
,  // measure 97
0022
0000
0030
0103
,  // measure 98
2010
0000
0000
0001
0000
0000
3100
0000
,  // measure 99
1002
0100
0010
1003
,  // measure 100
0202
0000
0003
0310
,  // measure 101
2020
0000
0030
3001
,  // measure 102
0220
0000
0300
0130
,  // measure 103
2200
0000
0300
0000
3001
0000
1000
0200
,  // measure 104
0002
0000
0000
0000
,  // measure 105
0000
0000
0000
0000
,  // measure 106
0000
0000
0000
0000
,  // measure 107
0000
0000
0000
0303
;

//---------------dance-single - ----------------
#NOTES:
     dance-single:
     :
     Medium:
     15:
     0.798226,1.116407,0.384840,0.754879,0.392241,755.000000,703.000000,52.000000,102.000000,0.000000,0.000000,0.798226,1.116407,0.384840,0.754879,0.392241,755.000000,703.000000,52.000000,102.000000,0.000000,0.000000:
0000
0000
0000
0000
,
0000
0000
0000
0000
,
0000
0000
0000
0000
,
0000
0000
0000
0000
,
2100
0000
0000
0001
0000
0000
3100
0000
,
0120
0000
0000
1000
0000
0000
0031
0000
,
0012
0000
0000
0100
0000
0000
1003
0000
,
0201
0000
0000
0000
0010
0000
0010
0000
0310
0000
0000
0000
1000
0001
1000
0001
,
2000
0000
0000
0100
0000
0000
3010
0000
,
1002
0000
0000
0010
0000
0000
0103
0000
,
2010
0000
0000
0001
0000
0000
3100
0000
,
2000
0000
0010
0000
0010
0000
0000
0000
0001
0000
0000
0000
3001
0000
0100
0010
,
0200
0000
0000
0001
0000
1000
1300
0000
,
0002
0000
0000
1000
0000
0000
0013
0000
,
0200
0000
0000
1000
0000
0000
0310
0000
,
2000
0000
0001
0000
0001
0000
0000
0000
0100
0000
0000
0000
3010
0000
1000
0001
,
2000
0000
3100
0010
0000
0001
0001
0000
,
0200
0000
0301
1000
0000
0010
0010
0000
,
1000
0100
1000
0100
0010
0001
0010
0001
,
1000
1000
0010
0010
0100
0100
0001
0002
,
2000
0000
0000
0000
,
0000
3003
0110
0000
,
2020
0000
0030
0001
3001
0100
0010
1000
,
0002
0000
0000
0000
1003
0100
1000
0100
2000
0000
0000
0000
3010
0100
0010
0100
,
0020
0000
0000
0130
0001
1000
0001
0100
,
1000
0100
0010
0100
0002
0000
1003
0001
,
0020
0000
0000
0031
0100
0010
1000
0100
,
0002
0000
0000
0000
0013
0100
0010
0100
0020
0000
0000
0000
0031
1000
0001
1000
,
0001
0101
0000
1000
1100
0000
0001
0011
,
0000
1000
1010
0000
0010
0100
0001
1000
,
2200
0000
0300
0010
3010
1000
0001
0100
,
0020
0000
0000
0000
1030
0001
1000
0001
2000
0000
0000
0000
3100
0010
0100
0010
,
0200
0000
1300
0010
1000
0001
0010
0100
,
1000
0010
0001
0010
2000
0000
3100
0010
,
0002
0000
0103
0010
0001
0010
1000
0001
,
0020
0000
0000
0000
0130
1000
0100
1000
0200
0000
0000
0000
1300
0001
1000
0001
,
1000
1100
0000
0001
0101
0000
1000
1010
,
0000
0001
0011
0000
1000
0100
0010
0001
,
2002
0000
3000
0100
0103
0010
0001
0010
,
1000
0000
0010
0000
0100
0010
0100
0010
0100
0000
1000
0000
0100
0001
0100
0001
,
0200
0000
0310
1000
1000
0001
0010
0100
,
2000
0000
3001
0100
0020
0000
1030
0001
,
0020
0000
1030
0010
0001
0100
1000
0100
,
0020
0000
0000
0000
1030
0100
1000
0100
1000
0000
0001
0000
0100
0010
0100
0010
,
0200
0001
0301
0100
0010
1000
0001
1000
,
0200
0000
0010
0000
0310
0000
0100
0000
2000
0000
3001
0000
1000
0100
1000
0000
,
2001
0000
0001
3001
0000
1000
0100
0010
,
0001
0100
2010
0000
3001
1000
0010
0100
,
0102
0000
0010
0013
0000
0001
0100
1000
,
0010
0100
1002
0000
1003
0010
0100
0001
,
1000
0100
1000
0100
1000
0100
2000
0000
0000
0000
3010
0000
0100
0000
0001
0000
,
1000
0000
0001
0000
0010
0100
0010
0100
0010
0000
0001
1000
0001
1000
0001
1000
,
0002
0000
0100
0103
0010
1000
0001
1000
,
0200
0000
0000
0310
0001
1000
0001
0100
,
0020
1000
1030
0110
0000
0001
0010
0100
,
1000
0000
0001
0000
1000
0010
1000
0010
1000
0100
1000
0100
1000
0000
0001
0000
,
0202
0000
0000
0000
0003
0000
0301
0100
0001
0000
1000
0000
0010
0000
0100
0000
,
0001
0010
0200
1000
1300
0001
1000
0100
,
0020
0000
0001
0000
0031
1000
0001
0000
0000
0000
0100
0000
0010
0000
1000
0000
,
0001
0000
0100
0000
2000
0000
0000
0000
3010
0100
0010
0100
0001
0000
1000
0000
,
0100
0010
0100
0010
0001
1000
0001
1000
,
0010
0100
0010
0100
0010
0100
0010
0100
0002
0000
0023
0000
0230
0000
2300
0000
,
0002
0000
0000
0000
,
0000
3003
0110
0000
,
2002
0000
3000
1000
1003
0100
0010
0001
,
0200
0000
0000
0000
0301
1000
0100
1000
0002
0000
0000
0000
0013
0001
0010
0100
,
2000
0000
0001
3001
1000
0010
1000
0100
,
0020
0000
0000
0000
0031
0100
0001
0100
0001
0000
1000
0000
0100
0000
0010
0000
,
0022
0000
0030
1000
1003
0001
0100
0001
,
0201
0000
0000
0000
0310
0100
0010
0100
0010
0000
1000
0001
1000
0001
0100
0010
,
2000
0100
0000
0001
0001
0000
0100
0100
,
0000
0010
3010
0000
1000
0100
0010
0001
,
2200
0000
3000
0001
0301
0100
1000
0100
,
0020
0000
0000
0000
0031
1000
0001
1000
0002
0000
0000
0000
0103
0010
0100
0010
,
2000
0000
3001
1000
0010
0100
0010
0001
,
0010
0100
0010
1000
0002
0100
0103
0010
,
2000
0100
3100
1000
0001
0100
0010
0001
,
0020
0000
0000
0000
1030
0100
1000
0100
0020
0000
0000
0000
0031
1000
0001
1000
,
0001
0011
0000
1000
1100
0000
0001
0101
,
0000
1000
1010
0000
0100
0010
1000
0001
,
0120
0000
0130
0001
1000
0001
1000
0100
,
0020
0000
0000
0000
0031
0100
0010
0100
0002
0000
0000
0000
1003
0100
1000
0001
,
2000
0010
0010
0000
3001
1000
0100
0010
,
0200
0000
0000
0000
0301
0100
0010
0100
1000
0000
0001
0000
1000
0000
0010
0000
,
0102
0000
1003
0001
0010
0100
0010
0001
,
2001
0000
0000
0000
3100
1000
0100
1000
0001
0000
0100
0010
0100
0001
0010
0100
,
1000
0001
0100
0010
0100
1000
0100
0010
,
0100
1000
0100
0001
0010
0100
1000
0001
,
0022
0000
0030
1000
1003
0100
0010
0001
,
0210
0000
0000
0000
0301
0100
0010
1000
0200
0000
0000
0000
1300
0010
0100
0001
,
2000
0000
0100
0000
0100
0000
3100
0000
1000
0010
1000
0010
0100
0001
0100
0001
,
0010
0100
0010
0100
0010
0001
1000
0000
0010
1000
0001
1000
0010
0000
0100
0000
,
0001
0000
0010
0000
0100
0000
1000
0000
0010
0100
0010
1000
0001
1000
0100
0000
,
0010
0001
0010
0100
1000
0001
0100
0000
0010
0000
1000
0001
1000
0100
0010
0000
,
0001
0101
0000
1000
1010
0000
0001
0011
,
0000
0000
1000
0000
1010
0000
0000
0000
0001
1000
0001
1000
0001
0000
0100
0000
,
2002
0000
0003
3001
,
0012
0000
0000
0010
0000
0000
1003
0000
,
1200
0000
0000
0001
0000
0000
0310
0000
,
0120
0000
0000
0000
1000
0000
1000
0000
1000
0000
0000
0000
0031
0100
0001
0100
,
0002
0000
1003
0001
0000
1000
0100
0000
,
1020
0000
0130
0010
0000
1000
0001
0000
,
1100
0000
0000
0110
0000
0000
0011
0000
,
1000
0000
1001
0000
0000
0000
0100
0000
0110
0000
0000
0000
0001
1000
0001
2000
,
0002
0000
0000
0000
,
0000
0000
0000
0000
,
0000
0000
0000
0000
,
0000
0000
0000
3003
;

//---------------dance-single - ----------------
#NOTES:
     dance-single:
     :
     Hard:
     18:
     0.975845,1.315765,0.310833,1.036108,0.777081,923.000000,881.000000,42.000000,140.000000,0.000000,0.000000,0.975845,1.315765,0.310833,1.036108,0.777081,923.000000,881.000000,42.000000,140.000000,0.000000,0.000000:
0000
0000
0000
0000
,
0000
0000
0000
0000
,
0000
0000
0000
0000
,
0000
0000
0000
0000
,
2010
0000
0000
0001
3001
1000
0100
0000
,
0021
0000
0000
0100
0130
0010
0001
0000
,
0102
0000
1000
1000
0000
0013
0001
0000
,
1200
0000
0000
0000
0000
0000
0010
0000
0310
0000
0000
0000
1000
0001
1000
0001
,
1000
0010
0100
0002
0000
1000
1003
0000
,
2001
0000
0010
3010
0000
1000
0001
0000
,
0120
0000
1000
1000
0000
0001
0031
0000
,
0010
0000
1000
0000
0100
0000
0000
0000
0100
0000
0000
0000
0100
0000
0010
0001
,
0010
0001
0100
2000
0000
3010
0100
0001
,
1000
0001
0010
0200
0000
0001
0301
0000
,
1100
0001
1000
0000
1010
0001
0100
0000
,
1001
0000
0010
0000
1000
0000
0001
0000
0010
0000
0100
0000
1000
0000
0001
0100
,
0002
0000
0000
1000
0000
0000
0010
0000
0000
0103
0000
0000
0001
0000
0000
0000
,
0021
0000
0000
1000
0000
0000
0100
0000
0000
1000
0000
0000
0031
0000
0000
0000
,
0010
0001
1000
0100
1000
0010
0100
0001
,
1000
0100
1000
0100
0010
0001
0010
0001
1000
0010
1000
0010
0100
0001
0100
0002
,
2000
0000
0000
0000
,
0000
3003
0110
0000
,
2001
0000
0000
0000
3100
0000
1000
0000
0010
0000
0100
0000
0001
1000
0010
1000
,
0200
0000
0000
0000
0310
0001
0100
0010
2000
0000
0000
0000
3001
1000
0100
1000
,
0020
0000
0130
0001
1000
0010
0100
0001
,
0010
0100
0010
0100
1000
0001
1000
0001
0200
0000
0000
0000
0310
0000
1000
0000
,
0002
0000
0000
0000
1003
0010
1000
0010
0100
0000
0010
0000
1000
0000
0001
0000
,
2000
0000
0000
0000
3100
1000
0001
0100
0002
0000
0000
0000
0013
0100
1000
0010
,
0200
0010
0310
2000
0001
3001
0020
0100
,
0130
0002
1000
1003
0010
0100
0001
1000
,
0012
0000
0000
2003
3002
0023
0230
1300
,
2100
0000
0000
0000
3010
0100
0001
0010
0002
0000
0000
0000
1003
0010
1000
0100
,
2000
0001
3001
0100
0010
0001
0010
1000
,
0100
0010
0001
0010
0100
1000
0001
1000
0020
0000
0000
0000
1030
0000
0001
0000
,
2000
0001
3002
0100
0103
0010
1000
0001
,
1000
0010
1000
0010
0100
0001
0100
0001
0020
0000
0000
0000
0031
0010
0100
1000
,
0001
0101
0100
0110
0110
0010
1010
1010
,
1000
0000
1100
0000
1100
0000
0001
0000
1000
0010
0100
0001
0010
0100
1000
0000
,
1002
0000
0103
0020
2030
3002
2003
3200
,
0320
0000
0031
0000
1000
0100
0001
0100
2000
0000
3020
0000
0130
0010
1000
0001
,
0020
0100
0130
0010
0001
0100
1000
0100
,
0002
0000
1000
0000
1003
0000
0010
0000
1000
0100
1000
0000
0001
0100
0001
0000
,
2000
0010
3010
0100
0001
1000
0001
0100
,
0020
0000
1030
0001
0010
0100
0010
0001
1000
0000
0010
0000
1000
0100
0010
0001
,
0200
0000
0010
0000
0310
0000
1000
0000
0001
0100
0001
0000
1000
0100
1000
0000
,
0002
0000
1000
0000
1003
0000
0100
0000
0010
1000
0010
0100
0010
0001
0010
0000
,
2100
0000
3001
1000
0000
0010
0100
0001
,
0010
0100
0120
0000
0031
0010
0100
1000
,
1020
0000
0130
0001
0010
1000
0010
0001
,
1000
0100
0102
0000
0013
0100
1000
0001
,
1000
0010
1000
0010
1000
0010
2000
0000
0000
0000
0001
0000
3001
0000
0100
0000
,
0010
0000
1000
0000
0100
0010
0100
0010
0001
0000
0100
0000
0001
0000
1000
0000
,
0020
0000
1030
0001
2000
3200
0320
0032
,
0203
0000
0310
1000
0002
0023
0230
2300
,
3002
0000
1003
0100
1000
0000
0001
0000
0000
0000
0010
0000
0100
0000
1000
0000
,
0001
0100
0001
0100
0010
1000
0010
1000
0100
0000
0010
0000
0001
0000
1000
0000
,
0200
0000
0010
0000
0310
0000
0100
1000
0001
0000
1000
0000
0010
0000
0100
0000
,
1000
0000
0100
0000
0010
1000
0001
1000
0010
0000
0100
0000
0001
0010
0001
0000
,
1000
0100
1000
0010
1000
0001
2000
0000
0000
0000
3001
0000
0010
0000
0100
0000
,
1000
0000
0010
0000
0100
0001
0010
0001
1000
0000
0010
0000
1000
0000
0100
0000
,
0010
0100
0010
0001
1000
0100
1000
0001
,
0010
0001
0010
0001
1000
0010
1000
0010
1000
0100
1000
0100
0001
0100
0001
0200
,
0020
0000
0000
0000
,
0000
0330
0110
0000
,
1002
0000
0000
0203
0320
2030
3200
0320
,
0032
0000
0000
0000
1003
0010
0100
0001
2000
0000
0000
0000
3100
0010
0001
1000
,
0020
0100
0100
0130
0001
0002
1000
1003
,
0100
1000
0100
1000
0010
0100
0001
1000
0010
0000
0100
0001
1000
0001
0010
0100
,
2000
0000
0000
0000
3001
0000
0100
0000
0010
0001
0010
1000
0100
0010
0100
1000
,
0002
0000
0000
0000
0013
0100
0010
0001
0200
0000
1300
0100
0001
1000
0100
0010
,
0002
0000
0100
0000
0103
0000
0010
1000
0001
1000
0100
0010
0001
0100
0010
1000
,
0001
0010
0100
1000
0001
0010
0100
1000
0010
0000
0100
0000
0001
0000
1000
0000
,
0202
0000
0003
0302
0023
0230
2300
3002
,
0203
0000
0000
0000
0310
1000
0100
1000
0002
0000
0000
0000
0013
0001
0010
0100
,
2000
0000
3010
0100
0010
0000
1000
0000
0001
0100
0001
0000
1000
0010
1000
0000
,
0002
0023
2030
3020
0032
0203
2300
3200
,
0302
1000
1003
0020
2030
3002
2003
3200
,
0302
0000
0103
0010
0100
1000
0010
0100
0002
0000
1003
0001
1000
0010
1000
0100
,
0010
0011
0001
0101
0101
0100
0110
0110
,
0010
0000
1010
0000
1010
0000
1000
0001
1000
0000
0010
0000
0100
0000
0001
0000
,
0020
0000
0031
0100
0010
0001
0010
1000
,
0200
0000
0000
0000
0310
0001
0010
0001
2000
0000
0000
0000
3010
0100
0010
0100
,
0002
0000
1003
0010
1000
0000
0010
1000
0010
0000
0100
0001
0100
0000
0010
0000
,
2000
0000
3100
1000
0010
1000
0100
0010
0002
0000
0203
0000
0320
0000
2030
0000
,
3001
0100
1000
0100
0001
0000
0020
0000
0130
1000
0100
1000
0001
0100
0010
1000
,
0002
0000
0013
0100
1000
0010
1000
0001
2000
0000
3200
0000
0310
0001
0010
0001
,
2000
0000
3010
0100
0001
0000
0010
0000
0100
0000
1000
0001
1000
0000
0010
0000
,
1000
0000
1000
0000
1000
0100
0010
0001
0100
0010
0100
0010
0100
0010
0100
0010
,
0200
0000
0000
0000
0301
0000
1000
0000
0010
1000
0010
1000
0100
0000
0010
0000
,
0002
0000
1000
0000
1003
0010
0001
0010
0100
0000
0100
0000
0010
0100
0001
1000
,
0100
1000
0100
1000
0100
1000
0100
1000
0001
0010
0100
1000
0010
0100
0001
1000
,
0010
0100
0010
0100
0001
0100
0001
0100
0001
1000
0001
1000
0010
1000
0010
1000
,
0100
0000
0010
0000
0001
0100
0001
1000
0010
0001
0010
0100
0010
1000
0001
0000
,
1000
0100
1000
0100
0010
0001
0010
0001
1000
0010
0100
0010
1000
0001
0100
0001
,
0010
0100
1000
0100
1000
0000
0010
0100
0001
0100
0001
0000
1000
0010
0001
0010
,
1000
0000
0001
0100
1000
0100
0001
0000
2000
0000
3020
0000
0230
0000
0302
0000
,
0023
0000
0000
1000
0000
0000
0001
0000
,
0100
0000
0000
0001
0000
0000
1000
0000
,
0031
0000
0100
0120
0000
0000
1030
0000
,
2001
0000
0000
0000
3100
0000
0010
0000
0002
0000
0000
0000
0103
0000
0010
1000
,
0002
0100
0000
0010
0000
1000
1003
0000
,
2100
0100
0000
0001
0000
0010
3010
0000
,
0201
0001
0000
0010
0000
1000
1300
0000
,
0010
0000
1010
0000
0001
0000
0100
0000
0110
0000
0000
0000
0010
1000
0010
1000
,
0002
0000
0000
0000
,
0000
0000
0000
0000
,
0000
0000
0000
0000
,
0000
0000
0000
0003
;

//---------------dance-single - ----------------
#NOTES:
     dance-single:
     :
     Challenge:
     19:
     1.155578,1.315765,0.384840,0.784482,1.202626,1093.000000,1041.000000,52.000000,106.000000,0.000000,0.000000,1.155578,1.315765,0.384840,0.784482,1.202626,1093.000000,1041.000000,52.000000,106.000000,0.000000,0.000000:
0000
0000
0000
0000
,
0000
0000
0000
0000
,
0000
0000
0000
0000
,
0000
0000
0000
0000
,
2100
0001
0001
0100
0000
0010
3010
0000
,
0102
0100
1000
1000
0000
0010
0013
0000
,
2001
0001
0010
0010
0000
0100
3100
0000
,
0011
0000
0001
0000
0100
0000
0010
0000
1000
0000
0001
0000
0100
0000
0010
1000
,
0002
0100
0010
0010
0000
1000
1003
0000
,
1020
0100
0100
0001
0000
1000
1030
0000
,
0210
1000
0001
0001
0000
0010
0310
0000
,
1000
0000
1100
0000
0110
0000
0000
0000
0001
0000
0000
0000
0001
0000
0100
0010
,
1000
0100
0010
0012
0000
0100
0103
0010
,
1010
0001
1000
0001
0101
0100
1001
1000
,
1010
0001
0010
0100
0101
0010
1000
0001
,
1000
0000
0010
0000
1000
0000
0001
0000
0010
0000
0100
0000
1000
0000
0010
0100
,
0001
0010
0001
0100
2000
0010
3010
0000
,
1000
0001
0010
0001
0200
0010
0310
0000
,
1000
1000
0001
0001
0010
0010
0100
0100
,
1000
0010
0001
0100
0001
0010
0100
0001
0100
1000
0010
1000
0010
0001
0100
1000
,
0002
0000
0000
0000
,
0000
0003
0110
0000
,
0012
0000
0100
0000
0103
0000
0010
0000
1000
0001
1000
0010
0100
0001
0010
0100
,
2000
0000
3010
0100
1000
0100
0001
0010
0200
0000
0301
0100
0010
0001
1000
0010
,
0200
0000
0301
0010
0100
0000
1000
0000
0001
0100
0010
0001
0010
0100
0010
1000
,
0200
0000
0320
0000
0230
0000
2300
0000
3001
0100
0001
0010
1000
0010
0001
0100
,
0020
0000
0000
0000
1030
0000
0001
0000
0100
0001
0010
0100
1000
0010
1000
0001
,
0020
0000
0000
0000
0031
0100
0001
0100
1000
0100
1000
0100
0001
0100
1000
0100
,
0001
0010
0001
0000
1001
0000
1001
0000
1000
0010
0100
0010
1000
0000
0001
0000
,
0010
0001
0100
1000
0001
0000
0101
0000
1000
0010
1000
0100
0001
0100
0010
0100
,
2000
0000
0000
0010
3010
0100
0001
1000
,
2100
0000
0000
0000
3001
0010
0100
1000
0002
0000
0000
0000
1003
0010
0100
0001
,
0020
0000
0001
0000
0031
0000
0100
0000
0010
1000
0010
0001
0010
0100
0001
0000
,
2000
0000
3002
0000
0023
0000
0230
0000
0310
0001
0100
0010
1000
0001
1000
0100
,
0001
0010
0001
0100
1000
0000
0010
0000
1000
0001
0010
0001
0100
0010
1000
0001
,
0010
1000
0010
0100
0010
0001
1000
0001
0100
0010
0100
0010
0100
0001
0010
1000
,
0100
1001
0010
1100
0011
0100
1010
0101
,
1000
0000
0110
0000
1001
0000
0001
0000
0010
0100
1000
0001
1000
0010
0100
0001
,
2000
0000
3010
0100
0010
1000
0001
0000
0200
0000
0302
0000
0023
0000
0230
0000
,
1300
0010
0100
0010
1000
0100
0001
0100
0010
1000
0010
0100
0010
0001
1000
0001
,
0200
0000
1000
0000
0301
0000
0110
0000
1000
0010
0100
0001
0010
0100
1000
0010
,
0200
0000
0000
0000
0301
0000
1000
0000
0100
0010
0100
0010
0001
0100
1000
0001
,
0020
0000
0000
0031
0100
0000
0001
0000
1000
0001
0100
0010
1000
0001
1000
0100
,
0020
0000
0031
0100
0010
1000
0001
1000
0200
0000
0301
0100
1000
0010
1000
0001
,
0100
0010
1000
0010
0100
0000
0001
0000
0010
0100
1000
0010
1000
0001
0100
0000
,
0001
0010
0100
1000
0100
0010
0001
0000
1000
0010
0100
0001
0010
0100
1000
0000
,
2010
0000
0001
0001
0000
3100
0011
0001
,
1001
0100
0020
1000
1030
0001
0100
0010
,
1000
0001
0010
0001
1000
0000
0010
0000
0110
0000
0001
0000
0010
0000
0100
0000
,
1000
1000
2000
0000
3001
0100
0010
1000
,
0001
0100
0001
0100
0001
0100
0001
0100
0010
0000
1000
0000
1000
0000
0001
0000
,
0010
0000
0100
0000
2000
0000
3001
0100
0010
1000
0010
1000
0100
0001
0100
0010
,
0200
0000
0000
1300
0010
0000
0100
0000
0201
0000
0001
0000
0310
0000
1000
0000
,
1200
0000
0000
0301
0100
0000
0010
0000
0002
0000
0203
0000
0320
0000
1030
0000
,
1010
0000
0001
1000
0001
0000
0010
0000
0100
0000
1000
0000
1000
0000
0001
0000
,
1001
0000
0100
0010
1000
0001
1000
0100
0001
0000
0010
0000
0100
1000
0010
0001
,
2000
0000
0100
0000
3100
0000
1000
0010
0001
0000
0200
0000
0320
0000
2030
0000
,
3001
0000
0001
0000
0001
0010
1000
0100
0001
0000
0010
0000
0100
1000
0100
1000
,
0001
0000
0100
0000
0010
1000
0010
0000
0100
0000
0001
1000
0010
0001
0100
0000
,
1000
0100
1000
0100
0020
0000
0000
0000
0031
0010
1000
0010
0001
0100
0001
0000
,
2000
0000
3010
0100
0010
0000
1000
0000
0002
0000
0100
0000
0203
0000
0010
0000
,
1300
0100
0001
0010
0100
0000
1000
0000
0001
1000
0100
0010
0100
1000
0010
0001
,
0200
0010
0010
0010
,
0010
0310
0110
0000
,
0102
0000
0000
0000
1003
0000
0001
0000
0020
0000
0230
0000
1300
0010
0100
1000
,
0100
0001
0100
0001
0010
0100
0010
0100
2000
0000
0000
0000
3001
0100
1000
0001
,
1000
0100
1000
0100
1000
0000
0001
0000
0010
0001
1000
0100
1000
0100
0010
0001
,
0100
0001
1000
0001
0010
0100
1000
0010
1000
0001
0010
0100
0010
0100
0001
1000
,
0020
0000
1000
0000
1030
0100
0001
0000
0010
0100
1000
0001
0010
1000
0100
0001
,
2000
0000
0000
0000
3100
0001
1000
0100
0002
0000
0010
0000
0103
0010
1000
0100
,
0002
0000
0010
0000
0010
0000
1003
0001
0100
1000
0001
1000
0010
0001
0010
0100
,
1000
0001
0100
0010
0001
0010
0100
1000
0020
0000
0230
0000
0302
0000
1003
0000
,
2200
0000
0300
0001
0001
0100
0010
3100
,
2001
0000
0000
0000
3010
1000
0100
0010
0002
0000
0000
0000
1003
0001
0010
0100
,
1000
0000
1000
0100
0010
0000
0010
0001
0200
0000
0320
0000
2030
0000
3002
0000
,
2003
3020
0032
0023
2030
0000
3200
0320
,
0032
0000
0100
0000
0103
0000
0020
0000
1030
0001
0020
0000
0031
0100
1000
0000
,
0020
0000
1030
0001
0100
1000
0100
0010
2000
0000
3001
0010
1000
0010
0001
0100
,
0001
0010
1000
0000
1100
0000
0001
0100
1000
0000
1010
0000
0001
0010
1000
0000
,
0101
0000
0001
0100
1000
0000
0011
0000
0010
1000
0001
1000
0100
0001
0100
0010
,
2000
0000
0100
0000
0100
0000
3001
0000
0010
1000
0010
0100
0010
1000
0010
0001
,
0200
0000
0000
0000
0310
0100
0001
0010
2000
0000
0000
3100
1000
0010
0001
0100
,
0010
1000
0010
0000
0100
0001
0100
0010
1000
0001
0010
0001
0100
0010
1000
0000
,
0120
0000
0000
0000
1030
0010
0100
0001
0010
0100
1000
0010
0001
0100
0010
1000
,
0001
1000
0001
1000
0001
0000
0101
0000
1000
0010
0100
0010
1000
0100
0010
0001
,
0100
0000
0010
1000
0001
0100
1000
0010
0100
0001
0100
0010
1000
0001
0010
1000
,
0001
0000
0001
0100
1000
0000
1000
0010
0100
0000
0100
0001
0010
0000
0010
1000
,
0001
0100
0010
0100
1000
0100
1000
0010
1000
0001
0010
0001
0100
0010
0001
1000
,
0020
0000
0000
1030
0001
0000
0100
0000
0002
0000
0013
0100
1000
0010
1000
0001
,
0200
0000
0310
1000
0100
1000
0001
0100
0020
0000
0031
0010
1000
0100
0010
0001
,
0100
0010
0100
0010
0100
0010
0100
0010
1000
0100
0010
0001
0010
0100
1000
0000
,
0001
0100
1000
0010
1000
0100
0010
0100
0001
0010
0001
1000
0010
1000
0100
0001
,
0010
1000
0100
0001
1000
0001
1000
0010
0100
0010
0001
0100
0010
1000
0001
0100
,
1000
0010
0001
0100
1000
0010
0100
0001
0010
1000
0100
0001
0100
1000
0001
0010
,
0100
0010
1000
0100
0001
0100
0010
1000
0001
0010
0100
1000
0001
1000
0001
0010
,
1000
0001
0010
0100
1000
0100
0001
0100
1000
0001
0010
1000
0010
0001
0100
0010
,
2000
0000
0010
0010
0010
0000
3001
0000
,
0012
0000
1000
1000
1000
0000
0103
0000
,
2001
0000
0100
0100
0100
0000
3001
0000
,
1020
0000
0000
0000
0100
0000
0100
0000
0100
0000
0000
0000
1030
0000
0010
0100
,
0002
0000
1000
1000
1000
0010
0103
0000
,
0210
0001
0000
1000
1000
0000
0310
0000
,
2010
0001
0001
0100
0010
0100
3100
0000
,
2100
0000
0001
0000
0100
0000
0000
0000
0010
0000
0000
0000
3100
1000
0010
0200
,
0002
0000
0000
0000
,
0000
0000
0000
0000
,
0000
0000
0000
0000
,
0000
0000
0000
0303
;
