#TITLE:Senses;
#SUBTITLE:(Kaiju Remix);
#ARTIST:JT.1UP;
#BANNER:Senses (Kaiju Remix)-bn.png;
#BACKGROUND:Senses (Kaiju Remix)-bg.png;
#JACKET:Senses (Kaiju Remix)-jacket.png;
#MUSIC:Senses (Kaiju Remix).ogg;
#OFFSET:-0.022;
#SAMPLESTART:15.988;
#SAMPLELENGTH:20;
#DISPLAYBPM:120;
#BPMS:0=120;
#BGCHANGES:;

//---------------dance-single - ----------------
#NOTES:
     dance-single:
     :
     Beginner:
     3:
     :
0000
0000
0000
0000
,
0000
0000
0000
0000
,
0000
0000
0000
0000
,
0000
0000
0000
0000
,
1000
0000
1000
0000
,
0001
0000
0001
0000
,
1000
0000
0010
0000
,
0100
0000
0001
0001
,
0000
0010
0000
0010
,
0000
0001
0000
0001
,
0000
1000
0000
1000
,
0000
0010
0000
0100
,
0000
0010
0000
1000
,
0000
0100
0000
1000
,
0000
0001
0000
0100
,
0000
0010
0000
0010
,
0000
1000
0000
0001
,
0000
0010
0000
0001
,
0000
0100
0000
0010
,
0000
1000
0000
0100
,
0000
1000
0000
1000
,
0000
0010
0000
0010
,
0000
0100
0000
0100
,
0000
0001
0000
0001
,
0000
0010
0010
0010
,
0020
0000
0030
0000
,
0001
0000
1000
0000
,
0001
0000
0100
0000
,
0010
0000
1000
0000
,
0100
0000
0010
0000
,
0001
0000
0001
0000
,
0200
0000
0000
0300
,
0000
0010
0000
1000
,
0000
0010
0000
0100
,
0000
0001
0000
0010
,
0000
0001
0000
0100
,
0000
0010
0000
1000
,
0000
0010
0000
1000
,
0000
0100
0000
1000
,
0000
0001
0000
0010
,
0000
0001
0000
0001
,
0000
1000
0000
1000
,
0000
0010
0000
1000
,
0000
0100
0000
1000
,
0000
0010
0000
0100
,
0000
0010
0000
1000
,
0000
0001
0000
0001
,
0000
1000
0000
0100
,
0000
1000
0000
1000
,
0000
1000
0000
1000
;

//---------------dance-single - ----------------
#NOTES:
     dance-single:
     :
     Easy:
     7:
     :
0000
0000
0000
0000
,
0000
0000
0000
0000
,
0000
0000
0000
0000
,
0000
0000
0000
0000
,
0000
1000
0000
0010
0000
1000
0000
0010
,
0000
0100
0000
0001
0000
0100
0000
0001
,
0000
1000
0000
0100
0000
0010
0000
0001
,
0000
0200
0000
0000
0301
1000
0001
1000
,
0000
0010
0000
1000
0000
0100
0000
0010
,
0000
0001
0000
0100
0000
0001
0000
1000
,
0000
0100
0000
0010
0000
0001
0000
0100
,
0000
0001
0000
0010
0000
0001
0000
1000
,
0000
0010
0000
1000
0000
0100
0000
0001
,
0000
1000
0000
0010
0000
0100
0000
0001
,
0000
0010
0000
0100
0000
0010
0000
0001
,
0000
0100
0000
1000
0000
0001
0000
0010
,
0000
1000
0000
0100
0000
1000
0000
0001
,
0000
0010
0000
0100
0000
1000
0000
0010
,
0000
0100
0000
0001
0000
0100
0000
0010
,
0000
1000
0000
0001
0000
0010
0000
0001
,
0000
1000
0000
0010
0000
0100
0000
0001
,
0000
0010
0000
0100
0000
1000
0000
0001
,
0000
0100
0000
0010
0000
0100
0000
0010
,
0000
1000
0000
0001
0000
1000
0000
0001
,
0000
0100
0000
0100
0000
0100
0000
0100
,
0000
0100
0000
0100
0000
0100
0000
0100
,
0000
0001
0010
0001
,
1000
0010
1000
0100
,
1000
0001
0000
0010
0000
0001
0000
0010
,
0000
0001
0100
1000
,
0010
1000
0010
0100
,
0001
0000
0020
0000
0000
0000
0000
0030
,
0000
0001
0000
1000
0000
0001
0000
0010
,
0000
0100
0000
0010
0000
0001
0000
0100
,
0000
1000
0000
0001
0000
0010
0000
0001
,
0000
1000
0000
0010
0000
1000
0000
0100
,
0000
1000
0000
0100
0000
0010
0000
0001
,
0000
0100
0000
0010
0000
1000
0000
0001
,
0000
0010
0000
0001
0000
0100
0000
0001
,
0000
0010
0000
0001
0000
1000
0000
0010
,
0000
0100
0000
0100
0000
0010
0000
0010
,
0000
1000
0000
1000
0000
0001
0000
0001
,
0000
0010
0000
0001
0000
0100
0000
0001
,
0000
0010
0000
0100
0000
1000
0000
0010
,
0000
1000
0000
1000
0000
0001
0000
0001
,
0000
0100
0000
0100
0000
0010
0000
0010
,
0000
0100
0000
0001
0000
0010
0000
1000
,
0000
0100
0000
0010
0000
0001
0000
1000
,
0000
0100
0000
0100
0000
0100
0000
0100
,
0000
0100
0000
0100
0000
0100
0000
0100
,
0000
1000
0000
1000
;

//---------------dance-single - ----------------
#NOTES:
     dance-single:
     :
     Medium:
     9:
     :
0000
0000
0000
0000
,
0000
0000
0000
0000
,
0000
0000
0000
0000
,
0000
0000
0000
0000
,
1000
0100
0010
0000
0001
0100
0010
0000
,
1000
0001
1000
0000
0100
0010
0100
0000
,
1000
0001
0100
0000
0010
1000
0001
0000
,
0010
0000
0010
0000
0001
1000
0001
1000
,
0000
0010
1000
0100
0000
1000
0001
0010
,
0000
0100
1000
0010
0000
1000
0001
0100
,
0000
0001
0010
1000
0000
0100
0010
0100
,
0000
1000
0001
1000
0000
0010
0100
0001
,
0000
0010
0001
0100
0000
0001
0010
0100
,
0000
1000
0001
1000
0000
0010
1000
0100
,
0000
0010
0001
0100
0000
0001
1000
0010
,
0000
1000
0100
1000
0000
0001
0010
0100
,
0000
0010
0100
0010
0000
0010
0001
0100
,
0000
1000
0010
1000
0000
0100
0010
0001
,
0000
0100
0001
0100
0000
1000
0001
0010
,
0000
0001
0100
1000
0000
0010
1000
0100
,
0000
0010
0001
0100
0000
0010
1000
0001
,
0000
1000
0100
0001
0000
0010
0001
0100
,
0000
0001
0010
1000
0000
0100
0010
0001
,
0000
0100
0010
1000
0000
0001
1000
0010
,
0100
0000
0110
0000
0001
0100
0001
1000
,
0100
0000
1000
0001
1000
0000
1010
0000
,
0100
0000
0010
0001
1000
0000
0011
0000
,
0100
0000
0001
1000
0010
0000
1001
0000
,
1000
0010
0100
0001
0000
0010
0001
1000
,
0010
0100
0001
0000
0010
0100
1000
0000
,
0001
0100
0001
0000
0010
0100
1000
0000
,
0001
0010
0001
0010
0001
0010
0001
0010
,
0000
0001
1000
0100
0000
1000
0010
1000
,
0000
0100
0010
0001
0000
0010
0001
1000
,
0000
0010
1000
0100
0000
0010
0001
0100
,
0000
0001
0010
1000
0000
0100
0010
0001
,
0000
0100
0010
1000
0000
0001
0010
1000
,
0000
0010
0100
0010
0000
1000
0100
0001
,
0000
0010
0001
0100
0000
0001
0010
0100
,
0000
1000
0001
1000
0000
0001
0010
0001
,
0000
0010
0001
1000
0000
0100
0010
0001
,
0000
0010
0001
0100
0000
0010
1000
0100
,
0000
1000
0001
1000
0000
0010
0100
0001
,
0000
0010
0100
0010
0000
0001
0100
1000
,
0000
0100
1000
0001
0000
0100
0010
1000
,
0000
0100
1000
0100
0000
1000
0100
1000
,
0000
0010
1000
0001
0000
0010
0001
0100
,
0000
0010
1000
0001
0000
1000
0100
0010
,
0000
0002
0000
2003
0000
3002
0000
2003
,
0000
3020
0000
0230
0000
0320
0000
0230
,
0000
0300
0001
0000
0000
0000
0001
0000
,
0000
1000
0000
0000
;

//---------------dance-single - ----------------
#NOTES:
     dance-single:
     :
     Hard:
     13:
     :
0000
0000
0000
0000
,
0000
0000
0000
0000
,
0000
0000
0000
0000
,
0000
0000
0000
0000
,
1000
0010
1000
0001
0010
1000
0010
0100
,
0010
0001
0100
0010
0001
0010
1000
0001
,
1000
0100
1000
0010
0100
1000
0100
0001
,
0010
0000
0100
0000
1000
0000
0010
0000
0100
0000
0100
0000
0100
0001
1000
0000
,
0010
1000
1000
0001
0100
0001
0100
0010
,
0001
0010
1000
0010
1000
0100
0100
0001
,
1000
0001
0100
0001
0010
0100
0010
1000
,
1000
1000
0001
0010
0010
0001
0100
0100
,
0100
0001
0010
1000
0010
0100
1000
0001
,
0010
0010
1000
0001
1000
0001
0100
0100
,
0001
0001
0100
0100
1000
1000
0010
0010
,
0010
0100
1000
1000
0010
0001
0100
0001
,
0001
0001
0010
0010
0100
1000
1000
0100
,
0010
0100
1000
0100
0001
0010
0001
1000
,
0010
0010
1000
0001
0001
0100
0100
1000
,
0001
1000
1000
0100
0100
0001
0010
0010
,
0001
0001
0010
1000
0010
0100
0100
1000
,
0010
0001
0001
1000
0100
1000
0010
0100
,
0001
0010
0010
1000
1000
0001
0100
0100
,
1000
0001
0001
1000
0100
0100
0010
0010
,
0021
0000
0031
0100
0020
0000
1030
0100
,
2000
0000
3010
0100
0002
0000
0013
0100
,
2000
0000
3001
1000
0200
0000
0310
0001
,
0020
0000
0130
1000
0002
0000
0103
0010
,
1000
0100
0001
0100
1000
0100
0001
0100
,
1000
0000
0010
0000
0100
0000
0000
0001
0000
0000
0010
0000
0000
0100
0000
0000
,
1000
0000
0000
0010
0000
0000
1000
0000
0000
0100
0000
0000
0010
0000
0000
0001
,
1000
0000
0010
0000
1000
0000
0100
0000
0010
0000
0001
0000
0100
0010
0100
0010
,
0100
0001
0010
1000
0001
1000
0010
0100
,
1000
0100
1000
0100
0001
0001
0010
0010
,
0010
0001
1000
0100
0100
0001
0010
1000
,
0100
1000
0010
0001
0001
0100
0010
1000
,
0100
0001
0100
1000
1000
0001
0010
0010
,
0010
0010
1000
0001
0001
1000
0100
0100
,
0100
0010
0100
1000
1000
0010
0001
0001
,
0001
0001
0100
0100
1000
1000
0010
0010
,
0001
0010
0010
1000
1000
0100
0100
0001
,
0100
1000
0001
1000
0010
0001
0010
0100
,
0100
0100
0001
0001
0010
1000
1000
0010
,
1000
0001
0100
0100
0010
1000
0010
0001
,
0100
0100
0001
0010
0010
0001
1000
1000
,
0001
0100
1000
0001
0100
0010
0010
1000
,
0001
0001
1000
0010
0010
0100
0100
1000
,
1000
0001
0001
0010
1000
0100
0010
0100
,
1000
0010
0001
0010
1000
0010
0001
0010
,
0000
1000
0000
0001
0000
0010
0000
0100
,
1000
1001
0001
1001
,
0010
0110
1000
0000
;

//---------------dance-double - ----------------
#NOTES:
     dance-double:
     :
     Easy:
     7:
     :
00000000
00000000
00000000
00000000
,
00000000
00000000
00000000
00000000
,
00000000
00000000
00000000
00000000
,
00000000
00000000
00000000
00000000
,
10010000
00100000
01000000
00100000
,
10000000
00010000
10000000
00010000
,
00100000
01000000
00100000
01000000
,
00000000
01100000
00000000
00000000
00001000
00010000
00001000
00010000
,
00000000
00000010
00000000
00001000
00000000
00000100
00000000
00000001
,
00000000
00000010
00000000
00000100
00000000
00000010
00000000
00000001
,
00000000
00001000
00000000
00000010
00000000
00001000
00000000
00000100
,
00000000
00010000
00000000
00001000
00000000
00010000
00000000
01000000
,
00000000
00100000
00000000
00001000
00000000
00010000
00000000
00001000
,
00000000
01000000
00000000
00100000
00000000
01000000
00000000
00010000
,
00000000
00100000
00000000
01000000
00000000
00100000
00000000
00010000
,
00000000
10000000
00000000
00100000
00000000
10000000
00000000
01000000
,
00000000
00100000
00000000
01000000
00000000
00100000
00000000
00001000
,
00000000
00010000
00000000
00000010
00000000
00001000
00000000
00000100
,
00000000
00000001
00000000
00000010
00000000
00000001
00000000
00001000
,
00000000
00000010
00000000
00000100
00000000
00000010
00000000
00010000
,
00000000
00001000
00000000
00000100
00000000
00000001
00000000
00000010
,
00000000
00000001
00000000
00000100
00000000
00000010
00000000
00010000
,
00000000
00001000
00000000
00001000
00000000
00001000
00000000
00001000
,
00000000
00001000
00000000
00001000
00000000
00001000
00000000
00001000
,
01000000
00100000
00000000
00100000
00000000
00100000
00000000
00100000
,
10000000
10000000
00010000
00010000
,
10000000
10000000
00010000
00010000
,
00001000
00010000
00001000
00010000
,
00011000
00000010
00001000
00000100
,
00001000
00000010
00000100
00000001
,
00000010
00000100
00001000
00000010
,
00001000
00000100
00010000
00001000
,
00000000
00001000
00000000
00100000
00000000
00010000
00000000
01000000
,
00000000
00100000
00000000
01000000
00000000
00010000
00000000
10000000
,
00000000
01000000
00000000
00100000
00000000
01000000
00000000
10000000
,
00000000
00100000
00000000
10000000
00000000
00010000
00000000
01000000
,
00000000
00001000
00000000
00010000
00000000
00001000
00000000
00000100
,
00000000
00000001
00000000
00000010
00000000
00001000
00000000
00000100
,
00000000
00000010
00000000
00000100
00000000
00000010
00000000
00000001
,
00000000
00001000
00000000
00000010
00000000
00010000
00000000
00001000
,
00000000
01000000
00000000
00100000
00000000
01000000
00000000
00001000
,
00000000
00010000
00000000
01000000
00000000
10000000
00000000
00010000
,
00000000
10000000
00000000
10000000
00000000
00010000
00000000
00010000
,
00000000
01000000
00000000
00100000
00000000
01000000
00000000
00010000
,
00000000
00100000
00000000
00001000
00000000
00010000
00000000
00000010
,
00000000
00000100
00000000
00000001
00000000
00001000
00000000
00000100
,
00000000
00010000
00000000
00010000
00000000
00010000
00000000
00010000
,
00000000
00010000
00000000
00010000
00000000
00010000
00000000
00010000
,
00001000
00100000
00000000
00100000
00000000
00100000
00000000
00100000
,
00000000
00010000
00000000
01000000
00000000
00100000
00000000
10010000
;

//---------------dance-double - ----------------
#NOTES:
     dance-double:
     :
     Medium:
     9:
     :
00000000
00000000
00000000
00000000
,
00000000
00000000
00000000
00000000
,
00000000
00000000
00000000
00000000
,
00000000
00000000
00000000
00000000
,
10000000
01000000
00000000
00100000
00000000
01000000
00000000
00100000
,
00000000
00001000
00000000
00010000
00000000
00001000
00000000
00010000
,
00000000
00000010
00000000
00000100
00000000
00000010
00000000
00000100
,
00000000
00000001
00000000
00001000
00000100
00000100
00000100
00000100
,
00000000
00001000
00000100
00010000
00000000
00001000
00100000
01000000
,
00000000
00100000
00010000
01000000
00000000
00010000
10000000
00100000
,
00000000
10000000
00010000
10000000
00000000
01000000
00100000
00010000
,
00000000
01000000
00010000
10000000
00000000
10100000
00000000
01010000
,
00000000
00100000
00010000
10000000
00000000
01000000
00100000
00001000
,
00000000
00010000
00000010
00000100
00000000
00000010
00001000
00000001
,
00000000
00000010
00000000
00000010
00000000
00000100
00000000
00000100
,
00000000
00001000
00000000
00000001
00000000
00001000
00000000
00010000
,
00000000
01000000
00100000
01000000
00000000
00100000
10000000
00010000
,
00000000
00100000
00001000
00010000
00000000
00001000
01000000
00100000
,
00000000
10000000
01000000
10000000
00000000
00100000
01000000
00010000
,
00000000
00100000
00010000
01000000
00000000
00110000
00000000
11000000
,
00000000
10000000
01000000
00100000
00000000
00001000
00010000
00000010
,
00000000
00001000
00000100
00001000
00000000
00000001
00000100
00000001
,
00000000
00000010
00000000
00000010
00000000
00000100
00000000
00000100
,
00000000
00001000
00000000
00010000
00000000
10000000
00000000
00010000
,
02000000
00100000
00000000
00100000
00000000
00100000
00000000
03100000
,
10000000
11000000
10000000
11000000
,
00010000
01010000
00010000
01010000
,
00001000
00011000
00001000
00011000
,
00000100
00000001
00000100
00000001
00000000
00000011
00000000
00001100
,
00000000
00000010
00000000
00000000
00001000
00000000
00000000
00000001
00000000
00000000
00001000
00000000
00000000
00000100
00000000
00000000
,
00010000
00000000
00000000
00001000
00000000
00000000
00010000
00000000
00000000
01000000
00000000
00000000
00100000
00000000
00000000
00000000
,
00001000
01000000
00001000
00100000
00001000
00001000
00010000
00010000
,
00000000
00001000
01000000
00100000
00000000
10000000
01000000
00010000
,
00000000
01000000
00100000
00001000
00000000
01000000
00100000
10000000
,
00000000
00010000
00100000
00010000
00000000
00100000
01000000
00100000
,
00000000
00001000
00010000
00000010
00000000
00000110
00000000
00001001
,
00000000
00000010
00000100
00000001
00000000
00001000
00000001
00000100
,
00000000
00000010
00001000
00000100
00000000
00010000
00001000
01000000
,
00000000
00100000
00000000
00100000
00000000
01000000
00000000
01000000
,
00000000
00001000
00000000
00010000
00000000
00001000
00000000
00000001
,
00000000
00000010
00001000
00000001
00000000
00000010
00000001
00000100
,
00000000
00000001
00000010
00000100
00000000
00001000
00000001
00001000
,
00000000
00000010
00010000
00001000
00000000
00001000
01000000
00100000
,
00000000
01000000
00010000
00100000
00000000
01100000
00000000
10010000
,
00000000
10000000
00100000
10000000
00000000
01000000
00001000
00010000
,
00000000
00010000
00001000
00000010
00000000
00000001
00000100
00000001
,
00000000
00000010
00000000
00000010
00000000
00000100
00000000
00000100
,
00000000
00001000
00000000
00010000
00000000
10000000
00000000
00010000
,
02000000
00100000
00000000
00100000
00000000
00100000
00000000
00100000
,
00000000
10000000
00000000
00010000
00000000
10000000
00000000
03010000
;

//---------------dance-double - ----------------
#NOTES:
     dance-double:
     :
     Hard:
     13:
     :
00000000
00000000
00000000
00000000
,
00000000
00000000
00000000
00000000
,
00000000
00000000
00000000
00000000
,
00000000
00000000
00000000
00000000
,
00010000
00100000
00010000
00001000
00010000
00100000
00010000
00001000
,
00010000
00100000
00010000
00001000
00010000
00100000
00010000
00001000
,
00010000
00100000
00010000
00001000
00010000
00100000
00010000
00001000
,
00000100
00000000
00000010
00000000
00000100
00000000
00001000
00000000
00000100
00000000
00000100
00000000
00000100
00000001
00000100
00000001
,
00000010
00000001
00000100
00001000
00000100
00000001
00000100
00001000
,
00000100
00000010
00010000
01000000
00010000
00000100
00010000
01000000
,
10000000
00100000
00010000
00100000
01000000
00100000
00001000
00100000
,
10000000
01000000
00001000
01000000
00100000
00001000
00010000
00000010
,
00000001
00000010
00001000
00000100
00001000
00000010
00001000
01000000
,
00001000
00000010
00001000
00100000
00001000
00000001
00000100
00000010
,
00001000
00000100
00010000
00000010
00010000
00000100
00010000
00001000
,
00010000
01000000
00100000
01000000
10000000
00100000
10000000
00010000
,
00100000
00000000
01000000
10000000
00000000
00000000
10000000
00100000
00000000
00000000
00100000
01000000
00000000
00000000
01000000
00010000
,
00000000
00000000
00100000
01000000
00000000
00000000
01000000
00100000
00000000
00000000
00100000
00001000
00000000
00000000
00010000
00001000
,
00000000
00000000
00010000
00000010
00000000
00000000
00000100
00000001
00000000
00000000
00000010
00000001
00000000
00000000
00001000
00000001
,
00000000
00000000
00001000
00000100
00000000
00000000
00000100
00010000
00000000
00000000
00010000
00001000
00000000
00000000
00001000
00010000
,
00000000
00000000
01000000
00100000
00000000
00000000
00001000
00100000
00000000
00000000
00010000
01000000
00000000
00000000
00100000
10000000
,
00000000
00000000
10000000
00010000
00000000
00000000
10000000
00100000
00000000
00000000
01000000
00100000
00000000
00000000
01000000
00001000
,
00000000
00000000
00010000
00000010
00000000
00000000
00000100
00000001
00000000
00000000
00000010
00000100
00000000
00000000
00010000
00001000
,
00010000
00000000
01000000
00000000
00010000
00000000
00000100
00000000
00010000
00001000
00010000
00001000
00010000
00001000
00010000
00001000
,
01000000
00200000
00000000
20300000
00000000
30200000
00000000
01300000
,
00010000
00100000
11000000
00000000
00010000
00100000
11000000
00000000
,
10000000
00100000
01010000
00000000
10000000
00100000
01010000
00000000
,
00001000
00010000
00100000
00010000
00001000
00010000
00100000
00010000
,
00001000
00000000
00000100
00000000
00000001
00000000
00000010
00000000
00000000
00000000
00000001
00001000
00000000
00000010
00000100
00000000
,
00000001
00000010
00000000
00000010
00000100
00000000
00000100
00001000
00000000
00001000
00010000
00000000
00010000
00100000
00000000
00100000
,
01000000
00000000
01000000
10000000
00000000
10000000
01000000
00000000
01000000
00100000
00000000
00100000
00010000
00000000
00010000
00001000
,
00000100
00000000
00000001
00000000
00000010
00000000
00000100
00000000
00001000
00000000
00000001
00000000
00000010
00000100
00000010
00000100
,
00010000
00001000
00010000
00000010
00000100
00001000
00000100
00000001
,
00000010
00000100
00000001
00000100
00001000
00000010
00001000
00010000
,
00100000
10000000
01000000
00001000
01000000
00100000
00001000
00010000
,
10000000
00010000
00001000
01000000
00100000
00001000
00000100
00000001
,
00000010
00001000
00000010
00000001
00001000
00000010
00001000
01000000
,
00001000
00000100
00010000
00000010
00000100
00010000
00000100
00000010
,
00001000
00000100
00001000
00000001
00000010
00001000
00000010
00000100
,
00010000
00001000
01000000
00100000
00010000
00100000
10000000
00010000
,
01000000
00000000
00100000
10000000
00000000
00000000
01000000
10000000
00000000
00000000
00010000
01000000
00000000
00000000
00010000
00100000
,
00000000
00000000
00001000
00010000
00000000
00000000
00010000
00000010
00000000
00000000
00000010
00000100
00000000
00000000
00000100
00000010
,
00000000
00000000
00000010
00001000
00000000
00000000
00001000
00000100
00000000
00000000
00010000
00000100
00000000
00000000
00000010
00000001
,
00000000
00000000
00001000
00000010
00000000
00000000
00001000
00000001
00000000
00000000
00000100
00000010
00000000
00000000
00000010
00010000
,
00000000
00000000
00010000
00000100
00000000
00000000
00010000
01000000
00000000
00000000
10000000
01000000
00000000
00000000
10000000
00010000
,
00000000
00000000
01000000
00100000
00000000
00000000
01000000
00010000
00000000
00000000
00100000
00010000
00000000
00000000
10000000
00010000
,
00000000
00000000
01000000
00100000
00000000
00000000
01000000
00001000
00000000
00000000
00001000
00100000
00000000
00000000
00001000
00010000
,
00001000
00000000
00000010
00000000
00001000
00000000
00100000
00000000
00001000
00010000
00001000
00010000
00001000
00010000
00001000
00010000
,
00000010
00000200
00000000
00000302
00000000
00002003
00000000
00003002
,
00000000
00000000
00000023
00000000
00000000
00000000
00000230
00000000
00000000
00000000
00002300
00000000
00000000
00000000
00013000
01000000
;
