#TITLE:Sedona;
#ARTIST:Houndmouth;
#BANNER:Sedona-bn.png;
#BACKGROUND:Sedona-bg.png;
#JACKET:Sedona-jacket.png;
#MUSIC:Sedona.ogg;
#SAMPLESTART:110.2;
#SAMPLELENGTH:20;
#DISPLAYBPM:131:150;
#BPMS:0=134,8=133,20=132,32=133.333,35=135,41=133.4,46=134,47=137,60=135.5,64=134.095,76=135.101,80=138,88=135.7,98=133.25,107=134.375,110=135.63,113=137.39,128=135.16,144=138.19,156=144,157=139,188=142,196=140,212=141.5,216=150,217=141.2,220=145,224=139.1,231=136.8,241=142.1,248=138.915,252=131,265=133.212,270=135.573,284=134.218,291=136.019,297=134.21;
#BGCHANGES:;

//---------------dance-single - ----------------
#NOTES:
     dance-single:
     :
     Beginner:
     3:
     :
0000
0000
0000
0000
,
0000
0000
0000
0000
,
0000
0000
0000
0000
,
0001
0000
1000
0000
,
0010
0000
0000
0000
,
0000
0000
0000
0000
,
1000
0000
0000
0000
,
0100
0000
1000
0000
,
0001
0000
0100
0000
,
0010
0000
0000
0000
,
0000
0000
0000
0000
,
1000
0000
0001
0000
,
0100
0000
0000
0000
,
0000
0000
0000
0000
,
0010
0000
0000
0000
,
1000
0000
0001
0000
,
0100
0100
0100
0000
,
0010
0010
0010
0000
,
1000
1000
1000
0000
,
0001
0001
0001
0000
,
0110
0000
0000
0000
,
0000
0000
0000
1000
,
1000
0000
0000
0000
,
0000
0000
0000
0000
,
1001
0000
0010
0000
,
1000
0000
0100
0000
,
1000
0000
0010
0000
,
0100
0000
0001
0000
,
0000
1001
0000
0000
,
0010
0010
0010
0000
,
1000
0000
0100
0000
,
1000
0000
0001
0000
,
0100
0100
0100
0000
,
0010
0000
1000
0000
,
0001
0001
0001
0000
,
0110
0000
0000
0000
,
1000
0000
0000
0000
,
0010
0000
0100
0000
,
0001
0000
0001
0000
,
1001
0000
0000
0000
,
1000
0000
0000
0000
,
0010
0000
0000
0000
,
0100
0000
0001
0000
,
0010
0000
0000
0000
,
0001
0000
0000
0000
,
0100
0000
0000
0000
,
0010
0000
1000
0000
,
0110
0000
0000
0000
,
0100
0000
0000
0000
,
0010
0000
0000
0000
,
1000
0000
0010
0000
,
0100
0000
0000
0000
,
0001
0000
0000
0000
,
0010
0000
0000
0000
,
0001
0000
1000
0000
,
0010
0000
0100
0000
,
0001
0001
0001
0000
,
1000
1000
1000
0000
,
0010
0010
0010
0000
,
0110
0000
0000
0000
,
0000
0000
0000
0100
,
0100
0000
0000
0000
,
0000
0000
0000
0000
,
1001
0000
0010
0000
,
1000
0000
0100
0000
,
1000
0000
0001
0000
,
0100
0000
0010
0000
,
0000
1001
0000
0000
,
1000
1000
1000
0000
,
0001
0000
0100
0000
,
0001
0000
0010
0000
,
0100
0100
0100
0000
,
1000
0000
0001
0000
,
0100
0000
0010
0000
,
0110
0000
0000
0000
,
0110
0000
0000
0000
,
0001
0000
0010
0000
,
0001
0000
1000
0000
,
1001
0000
0000
0000
;

//---------------dance-single - ----------------
#NOTES:
     dance-single:
     :
     Easy:
     7:
     :
0000
0000
0000
0000
,
0000
0000
0000
0000
,
0000
0000
0000
0000
,
0001
0001
1000
1000
,
0010
1000
0000
1000
,
0000
0001
0000
0001
,
0000
0100
0000
0010
,
1000
0100
1000
0100
,
0002
0000
0103
0010
,
1000
0100
0000
0100
,
0000
0010
0000
0010
,
0001
0001
1000
1000
,
0010
1000
0000
0001
,
0000
0010
0000
0001
,
0000
0100
0000
0010
,
1000
0100
1000
0100
,
1001
0110
1001
0110
,
0001
0010
1000
0100
,
1000
0010
1000
0010
,
1000
0100
0001
0010
,
1000
0001
0000
0010
,
0000
0001
0000
0100
,
0010
1000
0000
0100
,
0000
0110
0000
1001
,
0020
0000
1030
0100
,
1000
0001
0001
0000
,
0020
0000
0130
0000
,
0110
0001
1000
0100
,
0000
2002
3000
0100
,
1000
1000
1003
0000
,
0010
1000
0001
0000
,
0010
0001
1000
0100
,
1000
1000
0001
0001
,
0200
0000
0310
0100
,
0001
0010
0001
0100
,
1000
0000
0010
1000
,
1001
1001
1001
1001
,
0001
0100
0010
1000
,
2002
3003
0220
0330
,
1001
0010
1000
0001
,
1000
0100
0010
0100
,
1000
0010
1000
0001
,
0100
0010
0100
0010
,
1000
0110
0001
0100
,
0001
0010
0001
0100
,
0010
0100
0010
1000
,
0100
1000
0001
0100
,
0010
0010
1000
0001
,
1000
0100
0001
0010
,
0001
1000
0001
0100
,
0010
0100
0010
0100
,
0010
1000
0100
0001
,
1000
0001
1000
0010
,
1000
0100
1000
0010
,
0100
0100
0001
0001
,
0220
0330
1001
0100
,
0001
0010
0001
0100
,
1000
1000
1000
0010
,
0100
0001
1000
0001
,
0100
0010
1000
0010
,
1000
0100
1000
0001
,
0010
0001
0100
0010
,
1000
0100
1000
0001
,
0200
0000
0301
0010
,
0001
1000
1000
0000
,
0020
0000
0200
0330
,
0100
0001
0010
1000
,
0000
2002
0003
0100
,
0001
0001
3001
0000
,
1000
0100
0001
0000
,
0010
0001
0100
1000
,
0001
0001
1000
1000
,
0020
0000
1030
0100
,
1000
0010
0100
0001
,
0010
1001
1001
0100
,
0110
0110
0110
0110
,
0001
0010
1000
0100
,
2002
3003
0220
0330
,
2002
0000
0000
0000
,
0000
0000
0000
0000
,
0000
0000
0000
0000
,
0000
0000
0000
0000
,
0000
0000
0000
0000
,
0000
0000
0000
3003
;

//---------------dance-single - ----------------
#NOTES:
     dance-single:
     :
     Medium:
     9:
     :
0000
0000
0000
0000
,
0000
0000
0000
0000
,
0000
0000
0000
0000
0000
0000
0000
0000
0000
0001
0000
0100
,
0000
0000
0010
0000
0000
1000
0000
0000
0001
0000
0000
0100
,
0010
1010
0100
0001
,
0010
0011
1000
0100
,
1000
0000
0000
1001
0000
0000
0010
0000
0000
0100
0000
0001
,
0000
0000
0010
0000
0000
0001
0000
0000
1000
0100
0000
0000
,
0002
0000
0000
0000
0000
0203
0000
0000
0320
0000
0000
0000
,
1030
1100
0001
0100
,
0001
0000
0000
0101
0000
0000
0010
0000
0000
0100
0000
1000
,
0000
0000
0010
0000
0000
0100
0000
0000
0001
0000
0000
1000
,
0010
0110
0100
0101
,
0001
0011
1000
1100
,
1000
0000
0000
1010
0000
0000
0010
0000
0000
0100
0000
0001
,
0000
0000
1000
0000
0000
0001
0000
0000
0100
0010
0000
0000
,
1001
0110
1001
0110
,
1000
0000
0001
0000
0000
0100
0000
0000
0010
1000
0000
0020
,
0000
0000
0000
0130
0000
0000
0010
0000
1000
0001
0000
0000
,
2000
0000
0000
3020
0000
0000
0031
0000
0100
0000
0000
1000
,
0010
0101
0010
1100
,
0001
0000
1000
0100
0000
0000
1000
0000
0020
0000
0000
0230
,
0000
0301
1000
0010
,
1010
0000
0000
0011
0000
0000
0100
0000
0001
1000
0000
0000
,
2020
0000
0000
0030
0000
0000
3001
0000
0100
0000
0000
0020
,
0000
0000
0230
0000
0000
0302
0000
0000
0000
0003
0000
1000
,
0020
0000
0000
0030
0000
0000
0101
0000
0000
0000
0000
1000
,
0001
0000
0000
0010
0000
0001
0000
0000
1000
0010
0000
1000
,
0000
0000
0000
2002
0000
0000
3000
0000
0000
0103
0000
0100
,
0010
0000
0010
1000
0000
0000
1100
0000
0000
0000
0000
0001
,
1000
0000
0000
1000
0000
0100
0000
0000
0000
0000
0000
0010
,
0001
0000
0000
0001
0000
0100
0000
0000
0010
1000
0000
0000
,
0100
0000
0100
1000
0000
0000
0100
0000
0100
0001
0000
0000
,
0100
0000
2000
0000
0000
0000
0001
0000
0000
3100
0000
0020
,
0000
0000
0000
0031
0000
0000
0011
0000
0000
0010
0000
0001
,
0000
0000
0000
0100
0000
0020
0000
0000
0130
0000
0000
2000
,
0001
0001
0001
3001
,
0220
0000
0000
0300
0000
0001
0000
0000
1000
0030
0000
0000
,
2200
0000
0000
3300
0000
0000
0202
0000
0000
0303
0000
1000
,
0001
0000
0000
0011
0000
0000
0010
0000
0001
1000
0000
0000
,
0100
0000
0000
1100
0000
0000
1000
0000
0001
0100
0000
0000
,
0110
0000
0000
1001
0000
0000
0001
0000
0100
0010
0000
2000
,
0000
0000
3200
0000
0000
0320
0000
0000
0032
0000
0000
0103
,
0010
0000
0000
0101
0000
0000
1000
0000
0001
0100
0000
0000
,
0010
0000
0000
1010
0000
0000
0001
0000
1000
0100
0000
0000
,
1001
0000
0000
0110
0000
0000
1001
0000
0000
0100
0000
0001
,
0000
0000
0010
0000
0000
0001
0000
0000
1000
0100
0000
0000
,
1010
0000
0000
1100
0000
0000
0001
0000
0100
0001
0000
0100
,
0010
0000
0000
0110
0000
0000
1001
0000
0000
0100
0000
0001
,
1000
0000
0000
1100
0000
0000
1000
0000
0010
0100
0000
0002
,
0000
0000
2003
0000
0000
3020
0000
0000
0230
0000
0000
0310
,
1000
0000
0000
0101
0000
0000
0010
0000
0001
0100
0000
0001
,
0010
0011
0110
1100
,
1000
0000
0001
0100
0000
0000
0010
0000
1000
0010
0000
0100
,
0000
0000
0001
0000
0000
0010
0000
0000
0001
0100
0000
0000
,
1000
0000
0010
0000
0000
0100
0001
0000
0000
0110
0000
0000
,
1000
0000
0010
0100
0000
0020
0000
0000
2030
0000
0000
3002
,
0000
0000
0000
0013
0000
0000
0001
0000
1000
0100
0000
0000
,
1000
0000
0010
1000
0000
0002
0000
0000
0203
0000
0000
0310
,
2000
0001
0100
3001
,
1100
0000
0000
0101
0000
0000
0010
0000
2000
0000
0000
0002
,
3000
0100
1003
0001
,
0010
0000
0000
1001
0000
0000
0001
0000
1000
0100
0000
0000
,
0022
0000
0000
0030
0000
0000
1003
0000
0001
0000
0000
0020
,
0000
0000
0032
0000
0000
0203
0000
0000
0000
0000
0000
0310
,
2000
0000
0000
3000
0000
0000
1001
0000
0000
0000
0000
0100
,
0001
0000
0000
0100
0000
0001
0000
0000
1000
0010
0000
1000
,
0000
0000
0000
0202
0000
0000
0300
0000
0000
1003
0000
1000
,
0001
0000
0001
1000
0000
0000
1100
0000
0000
0000
0000
1000
,
0010
0000
0000
0100
0000
0001
0000
0000
0000
0000
0000
0010
,
0100
0000
0000
0010
0000
0100
0000
0000
1000
0001
0000
0000
,
0100
0000
0100
0001
0000
0000
0100
0000
0100
1000
0000
0000
,
0100
0000
0002
0000
0000
0000
0013
0000
0000
0001
0000
2000
,
0000
0000
0000
0100
0000
0000
3010
0000
0000
1000
0000
0001
,
0000
0000
0000
1001
0000
0000
1001
0000
0000
1000
0000
0001
,
0100
0100
0110
0100
,
2002
0000
0000
3000
0000
0010
0000
0000
0100
0003
0000
0000
,
0202
0000
0000
0303
0000
0000
2200
0000
0000
3300
0000
0002
,
2000
0000
0000
0000
,
0000
0000
0000
0000
,
0000
0000
0000
0000
,
0000
0000
0000
0000
,
0000
0000
0000
0000
,
0000
0000
0000
3003
;

//---------------dance-single - ----------------
#NOTES:
     dance-single:
     :
     Hard:
     12:
     :
0000
0000
0000
0000
,
0000
0000
0000
0000
,
0000
0000
0000
0000
0000
0000
0000
0000
0000
0001
0000
0100
,
0000
0000
0010
0000
0000
0100
0000
0000
0001
1000
0000
1000
,
0100
0000
0010
0001
0000
0000
0100
0000
0000
1010
0000
0000
,
0100
0000
0010
1000
0000
0000
0100
0000
0000
0011
0000
0000
,
1000
0000
0100
1000
0000
0000
1001
0000
0000
0001
0000
0100
,
0000
0000
0010
1000
0000
0100
0000
0000
1000
0010
0000
0100
,
0002
0000
0000
0103
0000
0010
0000
0000
1000
0100
0000
0000
,
0110
0000
0001
1000
0000
0000
0010
0000
1000
0001
0000
0000
,
0100
0000
0001
0010
0000
0000
0001
0000
0100
0010
0000
1000
,
0000
0000
0100
0000
0000
1000
0000
0000
0001
0000
0000
0100
,
0010
0000
1000
0001
0000
0000
0100
0000
0000
0101
0000
0000
,
0001
0000
0010
0100
0000
0000
1000
0000
0000
1100
0000
0000
,
0010
0000
1000
0100
0000
0000
1000
0000
0010
0100
0000
0001
,
0000
0000
1000
0001
0000
0100
0000
0000
0010
1000
0000
0100
,
1000
0000
0000
1100
0000
0000
0101
0000
0000
1000
0000
0100
,
1000
0000
0010
0100
0000
0001
0000
0000
1000
0010
0000
0200
,
0000
0000
0000
0301
0000
0000
1001
0000
0100
0010
0000
1000
,
0001
0000
0100
1000
0000
0010
0001
0000
0100
0000
0000
1010
,
0000
0000
0001
0010
0000
0001
0000
0000
1000
0100
0000
1000
,
0000
0000
0010
0100
0000
0001
0000
0000
0011
0000
0000
0110
,
0000
0000
1000
0100
0000
1000
0100
0000
1000
0010
0000
0001
,
0000
0000
0100
0010
0000
0000
1000
0000
0001
0100
0000
0010
,
2000
0000
0000
3100
0000
0000
1000
0000
0001
0100
0000
0020
,
0000
0000
2030
0000
0000
3002
0000
0000
0000
0103
0000
0010
,
0200
0000
0000
0301
0000
0000
0110
0000
0000
0001
0000
1000
,
0100
0000
0000
1000
0000
0010
0000
0000
1000
0100
0000
0010
,
0001
0000
0000
1002
0000
0000
0100
0000
0000
1003
0000
1000
,
0100
0000
1000
0001
0000
0000
0011
0000
0000
0100
0000
0001
,
1000
0000
0000
0100
0000
1000
0000
0000
0010
0100
0000
0001
,
0010
0000
0000
0001
0000
0100
0000
0000
0010
1000
0000
0010
,
1000
0000
1000
0100
0000
0100
0001
0000
0001
0100
0000
0100
,
1000
0000
0020
0000
0000
0000
0130
0000
0000
0001
0000
1000
,
0100
0000
0000
1100
0000
0000
0101
0000
0000
1000
0000
0001
,
0000
0000
0010
0001
0000
1000
0000
0000
0100
1000
0000
0000
,
1010
0101
1010
0101
,
1001
0000
0000
0100
0000
2000
0000
0000
3020
0000
0000
0130
,
0002
0000
0000
0003
0000
0000
0220
0000
0000
0330
0000
0001
,
1000
0000
0000
1001
0000
0000
1000
0000
0010
0100
0000
0001
,
0010
0000
0000
0011
0000
0000
1000
0000
0001
0100
0000
0010
,
0100
0000
0000
0110
0000
0000
1001
0000
0100
1000
0000
0001
,
0100
0000
0100
0010
0000
0010
1000
0000
1000
0001
0000
0001
,
0010
0000
0000
0011
0000
0000
1100
0000
0001
1000
0000
0010
,
0100
0000
0000
0101
0000
0000
1010
0000
1000
0001
0000
1000
,
0100
0000
0000
1001
0000
0000
0010
0000
0100
0001
0000
1000
,
0100
0000
0010
0100
0000
0010
0001
0000
1000
0001
0000
1000
,
0010
0000
0000
0101
0000
0000
1000
0000
0010
1000
0000
0001
,
0100
0000
0000
0011
0000
0000
0100
0000
0001
0010
0000
0001
,
1000
0000
0000
1010
0000
0000
1001
0000
0010
0100
0000
0001
,
0010
0000
0010
0001
0000
0001
0100
0000
0100
1000
0000
1000
,
0100
0000
0000
0110
0000
0000
0101
0000
0001
1000
0000
0010
,
1000
0000
0000
1001
0000
0000
0110
0000
1000
0010
0000
0100
,
0001
0000
0000
1100
0000
0000
1010
0000
0000
0100
0000
0001
,
0010
0000
0001
0100
0000
0010
0000
0000
1000
0100
0000
1000
,
0001
0000
2000
0000
0000
3010
1000
0000
0001
1000
0000
0100
,
0010
0000
0001
0100
0000
0002
0000
0000
1003
0010
0000
0200
,
0000
0000
0301
2000
0000
0000
3100
0000
0100
0010
0000
0010
,
0001
0000
0100
0001
0000
0100
0010
0000
1010
0000
0000
0001
,
1000
0000
0000
0101
0000
0000
1000
0000
0001
0100
0000
0010
,
1000
0000
0000
1100
0000
0000
0010
0000
0100
0001
0000
1000
,
0100
0011
1100
0011
,
1000
0000
0001
0100
0000
0000
0010
0000
1000
0001
0000
1000
,
0002
0000
0000
0000
0000
0000
1003
0000
0100
0000
0000
2000
,
0000
0000
3020
0000
0000
0230
0001
0000
0000
0000
0000
0310
,
2000
0000
0000
3000
0000
0000
2200
0000
0000
3300
0000
0001
,
0100
0000
0000
0010
0000
1000
0100
0000
1000
0010
0000
0100
,
0001
0000
0000
0021
0000
0000
0100
0000
0000
0031
0000
1000
,
0100
0000
1000
0002
0000
0000
0203
0000
0000
0300
0000
0010
,
1000
0000
0000
0100
0000
0010
0000
0000
0000
0001
0000
0100
,
0001
0000
0000
1000
0000
0010
0000
0000
1000
0100
0000
0010
,
0001
0000
0001
0100
0000
0100
1000
0000
1000
0100
0000
0100
,
0001
0000
0020
0000
0000
0000
0130
0000
0000
1000
0000
0020
,
0000
0000
0130
0002
0000
0000
2003
0000
0000
3001
0000
0100
,
0010
0000
0000
1001
0000
0000
1001
0000
0000
1001
0000
0001
,
0200
0000
0000
0000
0000
0000
0310
0000
1000
0010
0000
0100
,
0002
0000
0000
0013
0000
0002
0000
0000
2003
0000
0000
3010
,
0200
0000
0000
0300
0000
0000
0220
0000
0000
0330
0000
0002
,
2000
0000
0000
0000
,
0000
0000
0000
0000
,
0000
0000
0000
0000
,
0000
0000
0000
0000
,
0000
0000
0000
0000
,
0000
0000
0000
3003
;
