#TITLE:Seasons;
#SUBTITLE:;
#ARTIST:TOMOSUKE feat. Crystal Paloa;
#TITLETRANSLIT:;
#SUBTITLETRANSLIT:;
#ARTISTTRANSLIT:;
#GENRE:;
#CREDIT:;
#BANNER:Seasons.png;
#BACKGROUND:Seasons-bg.png;
#LYRICSPATH:;
#CDTITLE:;
#MUSIC:Seasons.ogg;
#OFFSET:0.000000;
#SAMPLESTART:35.720001;
#SAMPLELENGTH:20.000000;
#SELECTABLE:YES;
#BPMS:0.000000=168.000000
;
#STOPS:
;
#BGCHANGES:;
#KEYSOUNDS:;
#ATTACKS:;

//---------------dance-single - ----------------
#NOTES:
     dance-single:
     :
     Beginner:
     2:
     0.133450,0.166482,0.000000,0.000000,0.000000,101.000000,101.000000,0.000000,0.000000,0.000000,0.000000,0.133450,0.166482,0.000000,0.000000,0.000000,101.000000,101.000000,0.000000,0.000000,0.000000,0.000000:
0000
0000
0000
0000
,
0000
0000
0000
0000
,
0000
0000
0000
0000
,
0000
0000
0000
0000
,
0000
0000
0000
0000
,
1000
0000
0000
0000
,
0000
0000
0000
0000
,
0010
0000
0000
0000
,
0000
0000
0000
0000
,
0010
0000
0000
0000
,
1000
0000
1000
0000
,
0001
0000
1000
0000
,
0001
0000
0000
0000
,
0001
0000
0000
0000
,
1000
0000
1000
0000
,
0010
0000
0000
0000
,
0100
0000
0000
0000
,
0010
0000
0000
0000
,
0001
0000
0001
0000
,
1000
0000
0001
0000
,
1000
0000
0000
0000
,
1000
0000
0000
0000
,
0001
0000
0001
0000
,
0010
0000
0000
0000
,
0100
0000
0000
0000
,
1000
0000
0000
0000
,
1000
0000
1000
0000
,
0001
0000
0001
0000
,
0010
0010
0000
0000
,
0100
0000
0000
0000
,
0100
0000
0100
0000
,
0010
0000
0000
0000
,
1000
1000
1000
0000
,
0001
0000
0000
0000
,
0001
0000
0001
0000
,
1000
0000
1000
0000
,
0010
0010
0000
0000
,
0100
0000
0000
0000
,
0100
0000
0100
0000
,
0010
0000
0000
0000
,
0001
0000
0000
0000
,
1000
0000
1000
0000
,
0010
0000
1000
0000
,
1000
0000
1000
0000
,
0010
0000
0000
0000
,
0001
0000
0001
0000
,
0100
0000
0001
0000
,
0001
0000
0001
0000
,
0100
0000
0000
0000
,
1000
0000
0000
0000
,
0001
0000
0000
0000
,
0001
0000
0010
0000
,
1000
0000
1000
0000
,
0010
0000
0000
0000
,
0001
0000
0010
0000
,
0010
0000
0010
0000
,
1000
0000
0000
0000
,
0010
0010
0010
0000
,
0000
0000
0000
0000
,
0010
0010
0010
0000
,
0000
0000
0000
0000
,
0100
0100
0100
0000
,
0000
0000
0000
0000
,
0100
0100
0100
0000
,
0000
0000
0000
0000
,
0010
0010
0010
0000
,
0000
0000
0000
0000
,
0100
0100
0100
0000
,
0000
0000
0000
0000
,
0010
0010
0010
0000
,
0000
0000
0000
0000
,
1000
1000
1000
0000
,
0001
0000
0000
0000
,
0000
0000
0000
0000
;

//---------------dance-single - ----------------
#NOTES:
     dance-single:
     :
     Easy:
     5:
     0.199514,0.266371,0.000000,0.073992,0.000000,151.000000,151.000000,0.000000,8.000000,0.000000,0.000000,0.199514,0.266371,0.000000,0.073992,0.000000,151.000000,151.000000,0.000000,8.000000,0.000000,0.000000:
0000
0000
0000
0000
,
0000
0000
0000
0000
,
0000
0000
0000
0000
,
0000
0000
0000
0000
,
0000
0000
0000
0000
,
0001
0000
0001
0000
,
0001
0000
0000
0000
,
0010
0000
0010
0000
,
0010
0000
0000
0000
,
0010
0000
1000
0000
,
0001
0001
0001
0000
,
1000
1000
0001
0001
,
1000
0000
0000
0000
,
0100
0000
0001
0000
,
0010
0010
0010
0000
,
0001
1000
0001
0000
,
0001
0000
0000
0000
,
0100
0000
0001
0000
,
1000
1000
1000
0000
,
0001
0001
1000
1000
,
0001
0000
0000
0000
,
0010
0000
1000
0000
,
0100
0100
0100
0000
,
1000
0001
1000
0000
,
1000
0000
0000
0000
,
0002
0000
0000
0003
,
0001
0000
0001
0001
,
1000
0000
0010
0000
,
1000
0001
0001
0000
,
0200
0000
0000
0300
,
0100
0000
0100
0100
,
0010
0000
1000
0000
,
0010
0000
0000
0000
,
2000
0000
0000
3000
,
1000
0000
1000
1000
,
0001
0000
0100
0000
,
0001
1000
1000
0000
,
0020
0000
0000
0030
,
0010
0000
0010
0010
,
0100
0000
0001
0000
,
1000
0000
0000
0000
,
0001
1000
0001
0000
,
0010
0000
0001
0001
,
0001
0000
0001
0000
,
0010
0000
0000
0000
,
1000
0010
1000
0000
,
0100
0000
1000
0001
,
1000
0000
1000
0000
,
0100
0000
0000
0000
,
0002
0000
0000
0003
,
1000
1000
1000
1000
,
0200
0300
0020
0030
,
0002
0003
0000
0000
,
0010
0000
1000
1000
,
1000
0000
0100
0000
,
0010
0010
0010
0000
,
0001
1000
0001
0000
,
0010
1000
0001
0000
,
0100
0000
0000
0000
,
0010
1000
0001
0000
,
0010
0010
0010
0000
,
0010
1000
0001
0000
,
0100
0000
0000
0000
,
0010
1000
0001
0000
,
0001
0001
0001
0000
,
0010
1000
0001
0000
,
0100
0000
0000
0000
,
0010
1000
0001
0000
,
0100
0100
0100
0000
,
0010
1000
0001
0000
,
0001
0000
0000
0000
,
0010
1000
0001
0000
,
1000
0000
0000
0000
,
0000
0000
0000
0000
;

//---------------dance-single - ----------------
#NOTES:
     dance-single:
     :
     Medium:
     8:
     0.365995,0.398862,0.036996,0.120237,0.000000,277.000000,273.000000,4.000000,13.000000,0.000000,0.000000,0.365995,0.398862,0.036996,0.120237,0.000000,277.000000,273.000000,4.000000,13.000000,0.000000,0.000000:
0000
0000
0000
0000
,
0000
0000
0000
0000
,
0000
0000
0000
0000
,
0000
0000
0000
0000
,
0000
0000
0000
0000
,
2000
0000
0000
3000
,
1000
1000
1000
1000
,
0200
0000
0000
0300
,
0100
0000
0100
0000
0100
0100
0000
0000
,
0100
1000
0001
0000
,
1000
1000
0100
0100
,
0010
0000
0001
0000
1000
0001
1000
0000
,
0001
0000
0100
0000
0001
1000
0001
0000
,
0010
0001
1000
0000
,
0100
0100
1000
1000
,
1000
0001
1000
0010
,
1000
0010
1000
0001
,
0010
0001
1000
0000
,
0001
0001
0010
0010
,
0100
0000
1000
0000
0001
1000
0001
0000
,
1000
0000
0010
0000
1000
0001
1000
0000
,
0100
1000
0001
0000
,
0010
0010
0001
0001
,
0001
1000
0001
0100
,
0001
0100
0001
1000
,
2000
0010
0000
3010
,
1000
0000
0001
0000
1000
0100
1000
0000
,
0001
1000
0100
0010
,
0001
0000
1000
0010
1000
0000
0001
0000
,
0002
0010
0000
0013
,
0001
0000
1000
0000
0001
0100
0001
0000
,
1000
0001
0100
0010
,
1000
0000
0001
0010
0001
0000
1000
0000
,
0002
0100
0000
0103
,
0001
0000
1000
0000
0001
0010
0001
0000
,
1000
0001
0010
0100
,
1000
0000
0001
0100
0001
0000
1000
0000
,
2000
0100
0000
3100
,
1000
0000
0001
0000
1000
0010
1000
0000
,
0001
1000
0010
0100
,
0001
0000
0000
0000
,
1000
0001
1000
0000
0000
0000
0010
0000
,
0100
0000
0001
0000
1000
1000
1000
0000
,
0010
1000
1000
0100
,
0100
0000
0010
0001
1000
0000
0000
0000
,
0001
0100
0001
1000
,
0010
0000
1000
1000
0001
0000
1000
0001
,
1000
0000
1000
0010
0100
0000
0000
0000
,
0010
1001
1001
0000
,
0220
0000
0000
0330
,
0001
1000
0001
0000
0001
0010
0001
0000
,
0020
0032
2003
3200
,
0320
0000
0030
1001
,
0100
0000
0000
0000
0001
1000
0001
0000
,
0001
0000
0000
0000
1000
0010
1000
0000
,
0100
0100
0100
0100
,
1000
0001
1000
0001
,
0100
0001
1000
0100
1000
0000
0000
0000
,
0010
1000
0001
0001
,
0100
0001
1000
0100
1000
0000
0000
0000
,
0100
0000
1000
0001
1000
0000
0010
0000
,
0100
0001
1000
0100
1000
0000
0000
0000
,
0010
1000
1000
0001
,
0100
0001
1000
0100
1000
0000
0000
0000
,
0001
0000
1000
0100
1000
0000
0010
0000
,
0100
0001
1000
0100
1000
0000
0000
0000
,
0010
0010
1000
0001
,
0100
0001
1000
0100
1000
0000
0000
0000
,
1000
0000
0001
1000
1000
0000
0010
0000
,
0100
0001
1000
0100
1000
0000
0000
0000
,
0100
0010
0001
0001
,
0100
0001
1000
0100
0000
1000
0000
0001
,
0000
0000
0000
0000
;

//---------------dance-single - ----------------
#NOTES:
     dance-single:
     :
     Hard:
     12:
     0.469056,0.531816,0.221976,0.425453,0.018498,355.000000,331.000000,24.000000,46.000000,0.000000,0.000000,0.469056,0.531816,0.221976,0.425453,0.018498,355.000000,331.000000,24.000000,46.000000,0.000000,0.000000:
0000
0000
0000
0000
,
0000
0000
0000
0000
,
0000
0000
0000
0000
,
0000
0000
0000
0000
,
0000
0000
0000
0000
,
2000
0000
0000
0000
0000
0000
0000
3100
,
0000
0100
0000
0100
0010
0001
0100
0000
,
0002
0000
0000
0000
0000
0000
0003
0100
,
0000
0100
0000
0100
0010
1100
0000
0000
,
2000
0000
0100
3010
0000
0100
0001
0000
,
0001
0020
0000
0100
0031
0010
0100
0000
,
2000
0100
0010
3010
0000
0100
1000
0000
,
0002
0000
0023
0000
0031
0010
1100
0000
,
0002
0000
0100
0013
0000
0100
1000
0000
,
1000
0020
0000
0100
1030
0010
0100
0000
,
0002
0100
0010
0013
0000
0101
0000
0110
,
0000
1010
0000
0010
1000
0010
0101
0000
,
2000
0000
0010
3100
0000
0010
0001
0000
,
0001
0200
0000
0010
0301
0100
0010
0000
,
2000
0010
0100
3100
0000
0010
1000
0000
,
0002
0000
0203
0000
0301
0100
1010
0000
,
0002
0000
0010
0103
0000
0010
1000
0000
,
1000
0200
0000
0010
1300
0100
0010
0000
,
0002
0010
0100
0103
0000
0011
0000
0110
,
0000
1100
0000
0100
1000
0100
0011
0000
,
2000
0010
0010
3010
,
0001
1000
0001
0000
0100
0000
0010
0000
,
1000
0001
0100
0100
,
1000
0000
0001
0010
1001
0000
0000
0000
,
0002
0010
0010
0013
,
1000
0001
1000
0000
0100
0000
0010
0000
,
0001
1000
0100
0100
,
0001
0000
1000
0010
1001
0000
0000
0000
,
2000
0100
0100
3100
,
0001
1000
0001
0000
0010
0000
0100
0000
,
1000
0010
0001
0000
0010
0000
0010
0000
,
1000
0000
0001
0100
1001
0000
0000
0000
,
0002
0100
0100
0103
,
1000
0001
1000
0000
0010
0000
0100
0000
,
0001
0100
1000
0000
0010
0000
0010
0100
,
1001
0000
0000
0000
,
0002
0000
0000
0000
0000
0000
1000
0000
0103
0000
0000
0010
0000
0000
0100
0000
,
0000
1000
0000
0001
0100
0001
0100
0000
,
0020
0000
0000
0000
0000
0000
0100
0000
1030
0000
0000
0100
0000
0000
0010
0000
,
0000
0001
0000
0100
0010
0100
0010
0000
,
2000
0000
0000
0000
0000
0000
0010
0000
3100
0000
0000
1000
0000
0000
0001
0000
,
0000
0100
0000
0010
1000
0010
1000
0000
,
0200
0000
0000
0000
0000
0000
0010
0000
0301
0000
0000
0100
0000
0000
1000
0000
,
0000
0010
0000
0001
1000
0001
1000
0000
,
0002
0000
0000
0100
0203
0000
0000
1000
,
2300
0000
0000
0000
3100
0010
1000
2000
,
0002
0000
0000
0000
,
0003
0001
3001
1001
,
1000
0100
0010
0000
0010
0100
0000
0100
,
1000
0000
1000
0001
0000
0001
0100
0000
,
0001
0100
0001
0010
0100
0000
1000
0100
,
0000
1000
0001
0000
0001
0100
0001
0000
,
0100
1000
0001
0200
0000
0301
1000
0020
,
0000
0130
0010
0000
1000
0000
1100
0000
,
0100
1000
0001
0200
0000
0301
1000
0020
,
0000
0130
0001
1000
0001
0000
0011
0000
,
0100
1000
0001
0200
0000
0301
1000
0020
,
0000
0130
0010
0000
1000
0000
0101
0000
,
0100
1000
0001
0200
0000
0301
1000
0020
,
0000
0130
0001
1000
0001
0000
1010
0000
,
0100
1000
0001
0200
0000
0301
1000
0020
,
0000
0130
0010
0000
1000
0000
1010
0000
,
0100
1000
0001
0200
0000
0301
1000
0020
,
0000
0130
0001
1000
0001
0000
0101
0000
,
0100
1000
0001
0200
0000
0301
1000
0020
,
0000
0130
0010
0000
1000
0000
1001
0000
,
0100
1000
0001
0200
0000
0301
0000
1010
,
0000
0000
0000
0000
;

//---------------dance-double - ----------------
#NOTES:
     dance-double:
     :
     Easy:
     5:
     0.224618,0.299667,0.009249,0.120237,0.000000,170.000000,169.000000,1.000000,13.000000,0.000000,0.000000,0.224618,0.299667,0.009249,0.120237,0.000000,170.000000,169.000000,1.000000,13.000000,0.000000,0.000000:
00000000
00000000
00000000
00000000
,
00000000
00000000
00000000
00000000
,
00000000
00000000
00000000
00000000
,
00000000
00000000
00000000
00000000
,
00000000
00000000
00000000
00000000
,
00200000
00000000
00000000
00000000
,
00300000
00000000
00000000
00000000
,
00002000
00000000
00000000
00000000
,
00003000
00000000
00000000
00000000
,
01000000
00000000
10000000
00000000
,
01000000
01000000
01000000
00000000
,
00010000
00000000
10000000
10000000
,
01000000
01000000
01000000
00000000
,
00100000
00000000
00001000
00000000
,
00010000
00010000
00010000
00000000
,
00000100
00000000
00001000
00001000
,
00000010
00000010
00000010
00000000
,
00000001
00000001
00001000
00000000
,
00000100
00000100
00000100
00000000
,
00001000
00001000
00000010
00000010
,
00010000
00000000
00000100
00000000
,
00100000
00000000
00010000
00000000
,
01000000
01000000
01000000
00000000
,
10000000
10000000
00100000
00000000
,
01000000
00100000
01000000
00000000
,
00020000
00000000
00000000
00030000
,
00010000
00000000
00010000
00010000
,
10000000
00000000
00010000
00000000
,
00100000
00001000
00001000
00000000
,
00000020
00000000
00000000
00000030
,
00000100
00000000
00000100
00000100
,
00000010
00000001
00000001
00000000
,
00000100
00000000
00000000
00000000
,
00002000
00000000
00000000
00003000
,
00010000
00000000
00010000
00010000
,
00000100
00000100
00000100
00000000
,
00001000
00001000
00010000
00000000
,
00200000
00000000
00000000
00300000
,
01000000
00000000
00100000
00100000
,
01000000
00000000
00010000
00000000
,
10000000
10000000
01000000
00000000
,
10010000
00000000
00010000
00000000
,
00100000
00000000
00001000
00001000
,
00001000
00000000
00000100
00000000
,
00000020
00000000
00000000
00000030
,
00000100
00000001
00000001
00000000
,
00001000
00000000
00000010
00001000
,
00001000
00000000
00010000
00000000
,
02000000
00000000
00000000
03000000
,
00020000
00000000
00000000
00030000
,
10000000
10000000
10000000
10000000
,
02000000
03000000
00200000
00300000
,
00020000
00030000
00002000
00003000
,
00010000
00010000
00010000
00000100
,
00000100
00000100
00000010
00000010
,
00001000
00001000
00001000
00000001
,
00000001
00000001
00000100
00000100
,
00001000
00010000
00000000
00010000
,
01000000
00000000
00100000
00000000
,
00100000
00010000
10000000
00000000
,
00100000
00100000
00100000
00000000
,
00100000
10000000
00010000
00000000
,
01000000
00000000
00001000
00000000
,
00100000
10000000
00010000
00000000
,
00001000
00001000
00001000
00000000
,
00000010
00000001
00001000
00000000
,
00000100
00000000
00010000
00000000
,
00000010
00001000
00000001
00000000
,
00000100
00000100
00000100
00000100
,
00000010
00000100
00000001
00000000
,
00001000
00000000
00010000
00000000
,
00000010
00001000
00000100
00001000
,
00010000
00000000
00000000
00000000
,
00000000
00000000
00000000
00000000
;

//---------------dance-double - ----------------
#NOTES:
     dance-double:
     :
     Medium:
     8:
     0.327678,0.432101,0.101739,0.240474,0.000000,248.000000,237.000000,11.000000,26.000000,0.000000,0.000000,0.327678,0.432101,0.101739,0.240474,0.000000,248.000000,237.000000,11.000000,26.000000,0.000000,0.000000:
00000000
00000000
00000000
00000000
,
00000000
00000000
00000000
00000000
,
00000000
00000000
00000000
00000000
,
00000000
00000000
00000000
00000000
,
00000000
00000000
00000000
00000000
,
00000002
00000000
00000000
00000003
,
00000001
00000000
00000001
00000000
00000010
00000000
00000010
00000001
,
00000020
00000000
00000000
00000030
,
00000010
00000000
00000010
00000000
00000010
00000010
00000000
00000000
,
00000100
00000000
00000000
00000100
00000000
00000000
00000000
00000000
,
00000010
00000010
00000100
00000100
,
00010000
00000000
00000000
00010000
00000000
00000000
00000000
00000000
,
01000000
00000000
00100000
00000000
10000000
00010000
10000000
00000000
,
01000000
00000000
00000000
01000000
00000000
00000000
00000000
00000000
,
10000000
10000000
00010000
00010000
,
00100000
00000000
00000000
00100000
00000000
00000000
00000000
00000000
,
00010000
00001000
00000100
00001000
,
00000100
00000000
00000000
00000110
00000000
00000000
00000000
00000000
,
00000001
00000001
00000010
00000010
,
00001000
00000000
00000000
00001100
00000000
00000000
00000000
00000000
,
00001000
00000000
01000000
00000000
00010000
00100000
00010000
00000000
,
10000000
00000000
00000000
10100000
00000000
00000000
00000000
00000000
,
00010000
00010000
01000000
01000000
,
00001000
00000000
00000000
00101000
00000000
00000000
00000000
00000000
,
00100000
00001000
00010000
00000010
,
00002000
00000000
00000000
00000001
00000000
00000000
00003001
00000000
,
00000010
00000000
00001000
00000000
00000001
00001000
00000001
00000000
,
00000200
00000000
00000000
00001000
00000000
00000000
00001300
00000000
,
00010000
00001000
00011000
00000000
,
00000020
00000000
00000000
00000100
00000000
00000000
00000130
00000000
,
00000001
00000100
00001000
00010000
,
00200000
00000000
00000000
01000000
00000000
00000000
01300000
00000000
,
01000000
00100000
10010000
00000000
,
20000000
00000000
00000000
01000000
00000000
00000000
31000000
00000000
,
00100000
00000000
00010000
00000000
10000000
01000000
10000000
00000000
,
02000000
00000000
00000000
00100000
00000000
00000000
03100000
00000000
,
00001000
00010000
00001000
00000010
,
00000002
00000000
00000000
00000010
00000000
00000000
00000013
00000000
,
00000001
00000000
00001000
00000000
00000001
00000100
00000001
00000000
,
00000020
00000000
00000000
00001000
00000000
00000000
00001030
00000000
,
00020000
00000000
00000000
00030000
,
00010000
00001000
00010000
00000000
00001000
00000000
00100000
00000000
,
01000000
00100000
10000000
01000000
,
00100000
00010000
00100000
00000000
00001000
00000000
00010000
00000000
,
00001000
00000100
00000001
00001000
,
00000010
00000001
00000010
00000000
00000001
00000000
00001000
00000000
,
00000100
00000010
00010000
00001000
,
00010000
00000100
00010000
00000000
00001000
00000000
00100000
00000000
,
01000000
10000000
00010000
00100000
,
20020000
00000000
00000000
30030000
,
01000000
00000000
00100000
00000000
,
00020000
00030200
00000320
00000032
,
00002003
00000000
00003000
00000110
,
00000001
00001000
00000100
00000000
00001000
00000100
00000000
00001000
,
00000100
00000000
00001000
00000100
00000000
00001000
00000100
00000000
,
00010000
00001000
00000000
00010000
00001000
00000000
00100000
00010000
,
00000000
00100000
00010000
00000000
01000000
00000000
10010000
00000000
,
10000000
00000000
10000000
00010000
00000000
00100000
00000000
00020000
,
00000000
00000000
01030000
01000000
,
00001000
00000000
00001000
00010000
00000000
00000100
00000000
00000020
,
00000000
00000000
00000031
00000001
,
00000010
00000000
00000010
00000001
00000000
00001000
00000000
00000200
,
00000000
00000000
00010300
00010000
,
00001000
00000000
00001000
00100000
00000000
00001000
00000000
00022000
,
00000000
00000000
00000000
00033000
,
00001000
00100000
00001000
00100000
00000000
00010000
00000000
20000000
,
00000000
00000000
30010000
10000000
,
00010000
01000000
00010000
01000000
00000000
00001000
00000000
00020000
,
00000000
00000000
00031000
00000100
,
00000010
00000100
00000010
00000100
00000000
00000001
00000000
00002000
,
00000000
00000000
00003010
00001000
,
00000001
00000010
00000100
00001000
00000000
00000010
00000000
00001001
,
00000000
00000000
00000000
00000000
;

//---------------dance-double - ----------------
#NOTES:
     dance-double:
     :
     Hard:
     12:
     0.503409,0.565055,0.295967,0.360710,0.018498,381.000000,349.000000,32.000000,39.000000,0.000000,0.000000,0.503409,0.565055,0.295967,0.360710,0.018498,381.000000,349.000000,32.000000,39.000000,0.000000,0.000000:
00000000
00000000
00000000
00000000
,
00000000
00000000
00000000
00000000
,
00000000
00000000
00000000
00000000
,
00000000
00000000
00000000
00000000
,
00000000
00000000
00000000
00000000
,
00001001
00000000
00000002
00000000
00000000
00000000
00000000
00000103
,
00000000
00000100
00000010
00000000
00001000
00000100
00001000
00000000
,
00000100
00000100
00010000
00002000
00000000
01000000
00000000
00103000
,
00000000
01000000
00000000
00010000
10000000
01100000
00000000
00000000
,
02000000
00000000
00010000
03001000
00000000
01000000
00000000
00100000
,
00000000
01000000
00010000
10000000
01000000
00100000
00001000
00000000
,
00010100
00000000
00000010
00000001
00000000
00000100
00000000
00000001
,
00000000
00001000
00000020
00000000
00001030
00000010
00000101
00000000
,
00000020
00000000
00001000
00010030
00000000
00000100
00000000
00001000
,
00000000
00000010
00010000
00001000
01000000
00010000
00100000
00000000
,
00200000
00010000
00001000
00301000
00000000
00010100
00000000
00001000
,
00000000
00110000
00000000
00001000
00010000
01000000
11000000
00000000
,
00200000
00000000
00001000
00310000
00000000
00001000
00000000
00100000
,
00000000
00010000
10000000
00100000
01000000
00001000
00010000
00000000
,
00020000
00001000
00000010
00030010
00000000
00000100
00000000
00000110
,
00001000
00000200
00000000
00001300
00000100
00000010
00000011
00000000
,
00000002
00000000
00000010
00001003
00000000
00000001
00000000
00000100
,
00000000
00001000
00010000
00001000
00100000
01000000
00100000
00000000
,
20000000
00100000
01000000
31000000
00000000
10000000
00000000
01010000
,
00000000
00100000
00000000
00010100
00001000
00000010
00000101
00000000
,
00000002
00000010
00000010
00000013
,
00000001
00000100
00001000
00000000
00010000
00100000
10000000
00000000
,
20000000
00000000
01000000
00000000
01000000
00000000
01000000
30000000
,
00100000
00000000
01000000
00010000
00011000
00000000
00000000
00000000
,
00002000
00000010
00000010
00003010
,
00000001
00001000
00010000
00000000
00000010
00001000
00010000
00000000
,
00100000
10000000
01000000
00010000
,
00100000
00000000
10000000
01000000
10010000
00000000
00000000
00000000
,
00020000
10000000
01000000
10030000
,
01010000
00010000
00001000
00000000
00001000
00000000
00000010
00000000
,
00001000
00000100
00000001
00000000
00000100
00000000
00000100
00000000
,
00000001
00000000
00001000
00000100
00001001
00000000
00000110
00000000
,
00002000
00000100
00000001
00003100
,
00001000
00000001
00001000
00000000
00000100
00000000
00000010
00000000
,
00000001
00000010
00001000
00000000
00010000
00000000
00000100
00010000
,
00001100
00000000
00000000
00000000
,
00200000
00000000
00000000
00000000
00000000
00000000
00010000
00000000
00301000
00000000
00000000
00000010
00000000
00000000
00000100
00000000
,
00000000
00001000
00000000
00000001
00000100
00000001
00000100
00000000
,
00000020
00000000
00000000
00000000
00000000
00000000
00001000
00000000
00010030
00000000
00000000
00100000
00000000
00000000
01000000
00000000
,
00000000
10000000
00000000
00100000
01000000
00100000
01000000
00000000
,
00002000
00000000
00000000
00000000
00000000
00000000
00010000
00000000
00103000
00000000
00000000
00010000
00000000
00000000
00001000
00000000
,
00000000
00000100
00000000
00000010
00000001
00000100
00001000
00000000
,
00020000
00000000
00000000
00000000
00000000
00000000
00001000
00000000
00030010
00000000
00000000
00001000
00000000
00000000
00010000
00000000
,
00000000
01000000
00000000
00100000
10000000
01000000
00010000
00000000
,
00002000
00000000
00003200
00000000
,
00000302
00000000
00000000
00000000
00001003
00000001
00000100
00002000
,
00020000
00000000
00000000
00033000
,
00000000
00010000
00101000
01100000
,
00010000
10000000
10000000
01000000
00100000
00100000
00001000
00010000
,
00010000
00001000
00000010
00000010
00000001
00000100
00000100
00000000
,
00000001
00000001
00000010
00000100
00000100
00010000
00001000
00001000
,
00010000
00100000
00100000
10000000
01000000
01000000
00000000
01000000
,
10010000
00100000
00010000
20000000
00000000
30010000
01000000
00200000
,
00000000
01300000
00010000
10000000
01000000
00010000
00001000
00000000
,
00000100
00000001
00001000
00000200
00000000
00001300
00000001
00000020
,
00000000
00000130
00001000
00000001
00000100
00000000
00010010
00000000
,
00000100
00010000
00001000
00200000
00000000
00310000
01000000
00200000
,
00000000
10300000
00010000
00000000
01000000
00000000
10100000
00000000
,
01000000
00100000
00001000
00020000
00000000
00030010
00000100
00000002
,
00000000
00000013
00000100
00000010
00000100
00000010
00001001
00000000
,
00000101
00000001
00001000
00000200
00000000
00001000
00010300
00002000
,
00000000
00013000
00100000
00000000
01000000
00000000
10100000
00000000
,
10010000
10000000
00100000
02000000
00000000
00010000
03001000
00200000
,
00000000
00301000
00010000
00000100
00000010
00000000
00001001
00000000
,
00000110
00000001
00001000
00000020
00000000
00001000
00010030
00000200
,
00000000
00001300
00000010
00000000
00000100
00001000
00010000
00001000
,
00000100
00000010
00010000
00010010
00000000
00101000
00000000
00011000
,
00000000
00000000
00000000
00000000
;

//---------------dance-single - ----------------
#NOTES:
     dance-single:
     :
     Challenge:
     14:
     0.774272,0.841079,0.517943,0.212727,0.402331,586.000000,530.000000,56.000000,23.000000,0.000000,0.000000,0.774272,0.841079,0.517943,0.212727,0.402331,586.000000,530.000000,56.000000,23.000000,0.000000,0.000000:
// measure 0
0000
0000
0000
0000
,  // measure 1
0000
0000
0000
0000
,  // measure 2
0000
0000
0000
0000
,  // measure 3
0000
0000
0000
0000
,  // measure 4
0000
0000
0000
0000
,  // measure 5
1100
0000
0000
0001
1000
1000
0000
0101
,  // measure 6
0000
0001
0010
1000
0001
0100
1000
0000
,  // measure 7
0011
0100
0010
1000
0001
0010
0100
1000
,  // measure 8
0010
0000
0000
0100
0000
0000
0010
0000
0000
0000
0000
0000
1000
0000
0000
0000
0000
0000
0000
0000
0000
0001
0000
0000
0100
0000
0000
0000
0000
0000
2020
0000
0000
0000
0000
0000
0000
0000
0000
0000
0000
3030
0000
0000
0000
0000
0000
0000
,  // measure 9
1001
0000
0010
0110
1000
0001
0000
0101
,  // measure 10
0000
0000
1000
0000
0010
0000
0000
1000
0100
0000
0010
0000
0011
0000
0000
0100
,  // measure 11
0010
0000
1000
1100
0000
0001
0100
1000
,  // measure 12
0000
0000
0010
0000
0100
0000
0000
0001
1000
0000
0100
0000
1010
0000
0000
0010
,  // measure 13
1000
0000
0100
1001
0000
0010
1000
0001
,  // measure 14
0000
0000
0010
0000
0100
0000
0000
1000
0100
0000
0001
0000
0110
0000
0000
0010
,  // measure 15
0001
0000
0100
1010
0000
1000
0001
0010
,  // measure 16
0000
0000
0100
0000
1000
0000
0000
0010
0100
0000
0001
0000
1001
0000
0000
1000
,  // measure 17
0010
0000
1000
1100
0001
1000
0010
0100
,  // measure 18
0000
0000
0001
0000
0010
0000
0001
1000
0001
0000
0100
0000
0010
0000
1000
0100
,  // measure 19
1000
0000
0001
0011
0000
1010
0100
0000
,  // measure 20
0001
0000
1000
0000
0010
0000
0100
0010
0100
0000
0001
0000
1000
0000
0010
0100
,  // measure 21
0010
0000
1000
0101
0000
0010
1000
0100
,  // measure 22
0000
0000
1000
0000
0001
0000
1000
0100
1000
0000
0010
0000
0100
0000
0001
0010
,  // measure 23
0001
0000
0010
0110
0000
1000
0100
0001
,  // measure 24
0000
0000
0010
0000
0001
0000
1000
0010
1000
0000
0100
0000
0001
0000
0000
0000
,  // measure 25
0012
0000
0103
0010
1000
0010
0100
0001
,  // measure 26
0020
0000
0100
0000
0130
0000
1000
0010
2000
0000
0001
0000
3001
0000
0000
0000
,  // measure 27
1000
0000
0100
0000
0010
0000
0001
0000
0100
0000
0010
0000
1000
0000
0000
0001
,  // measure 28
0010
0000
0001
0000
0100
0000
0010
0000
1000
0000
0001
0000
1000
0100
1000
0100
,  // measure 29
2000
0000
0000
0000
3010
0000
0100
0001
0100
0000
0010
0000
1000
0000
0001
0010
,  // measure 30
0002
0000
1000
0000
1003
0000
0000
0010
0100
0010
0100
0000
0001
0000
0000
0000
,  // measure 31
0010
0001
0100
0010
1000
0100
0001
1000
,  // measure 32
0010
0000
0100
0001
0100
0000
0010
0000
1000
0000
0001
0000
1000
0010
1000
0010
,  // measure 33
2000
0000
0100
0000
3100
0000
1000
0001
1000
0000
0010
0000
0100
0000
0000
0010
,  // measure 34
0200
0000
0001
0000
0301
0000
1000
0100
2000
0000
0010
0000
3010
0000
0000
0000
,  // measure 35
1000
0100
0010
0001
0000
0001
0010
0100
1000
0010
0000
0100
,  // measure 36
0001
0010
0001
0010
0100
0010
0100
1000
0100
1000
0001
1000
,  // measure 37
0002
0000
0100
0000
0103
0000
0010
1000
0010
0000
1000
0000
0100
0000
0000
0010
,  // measure 38
0002
0000
1000
0000
1003
0000
0010
1000
0020
0000
0100
0000
0130
0000
0001
0000
,  // measure 39
1000
0000
0100
0000
0010
0000
0001
1000
0001
0000
0100
0000
0010
0000
0000
0000
,  // measure 40
1000
0000
0001
0100
0001
0100
0001
0000
0010
0000
0200
0000
2300
0000
3020
0000
,  // measure 41
0130
0001
0010
0100
1001
0100
0010
1010
,  // measure 42
0000
0000
0101
0000
1000
0000
0010
0100
0010
0100
0010
0000
1000
0000
0001
0000
,  // measure 43
0010
0100
1000
0001
0110
0010
1000
1100
,  // measure 44
0001
0000
0100
0000
1000
0000
0010
0000
0100
0001
0100
0000
0010
0000
1000
0000
,  // measure 45
0100
1000
0010
0100
0101
0001
1000
1100
,  // measure 46
0000
0000
0010
0000
0001
0000
1000
0010
1000
0000
0100
0000
0001
0000
0010
0000
,  // measure 47
0100
1000
0001
0010
0011
1000
0010
0110
,  // measure 48
0001
0000
0000
0000
0010
0000
0000
0000
0100
0000
0000
0000
2000
0000
0000
0000
0000
0000
0000
0000
0000
0000
0000
0000
3010
0000
0000
0100
0000
0000
0010
0000
0000
0100
0000
0000
0001
0000
0000
0000
0000
0000
1000
0000
0000
0000
0000
0000
,  // measure 49
1010
0000
0000
0001
0100
0100
0000
1001
,  // measure 50
0000
0101
0100
0010
1000
0001
1000
0220
,  // measure 51
0000
0000
0000
0000
0000
0000
0000
0000
0000
0000
0000
0000
0000
0000
0000
0000
0000
0000
0000
0000
0000
0000
0000
0000
0000
0000
0000
0000
0000
0000
0000
0000
0000
0000
0000
0000
0000
0000
0000
0000
0000
0000
0000
0000
0000
0000
0000
0000
0000
0000
0000
0000
0000
0000
0000
0000
0000
0000
0000
0000
0000
0000
0000
0000
0000
0330
0000
0000
0000
0000
0000
0000
0010
0000
0000
0000
0000
0000
0000
0000
0000
0000
0000
0000
0000
0000
0000
0000
0000
0000
0000
0000
0000
0000
0000
0000
1000
0000
0000
0000
0000
0000
0000
0000
0000
0000
0000
0000
0000
0000
0000
0000
0000
0000
0000
0000
0000
0000
0000
0000
1000
0000
0000
0000
0000
0000
0000
0000
0000
0000
0000
0000
0000
0000
0000
0000
0000
0000
0000
0000
0000
0000
0000
0000
0000
0000
0000
0000
0000
0000
0000
0000
0000
0000
0000
0000
0000
0000
0000
0000
0000
0000
0000
0000
0000
0000
0000
0000
0011
0000
0000
0000
0000
0000
0000
0000
0000
0000
0000
0000
0000
0000
0000
0000
0000
0000
0000
0000
0000
0000
0000
0000
,  // measure 52
0000
0000
0000
0000
0000
0000
0000
0000
0000
0000
0000
0000
1000
0000
0000
0000
0100
0000
0000
0000
0000
0000
0000
0000
0000
0000
0000
0000
0010
0000
0000
0000
0001
0000
0000
0000
0000
0000
0000
0000
0000
0000
0000
0000
0100
0000
0000
0000
0020
0000
0000
0000
0000
0000
0000
0000
0000
0030
0000
0000
0000
0000
0000
0000
,  // measure 53
0110
0000
0100
0000
0001
0000
1000
0000
0010
0100
0010
0000
1000
0000
0001
0010
,  // measure 54
0100
0000
1000
0000
0010
0000
0100
0000
0001
1000
0001
0000
0010
0000
0001
1000
,  // measure 55
0100
0000
0010
0000
0100
0000
1000
0000
0001
0010
0001
0000
0100
0000
0010
1000
,  // measure 56
0001
0000
1100
0000
1100
0000
0010
0100
0010
1000
0001
0000
1000
0100
1000
0000
,  // measure 57
0010
0001
0100
1001
0000
1010
0001
0100
,  // measure 58
0000
0000
0010
0000
1000
0100
1000
0010
0100
0000
0001
0000
0010
0000
0100
0000
,  // measure 59
1000
0001
0010
1100
0000
0101
0010
1000
,  // measure 60
0000
0100
1000
0010
0100
0001
1000
0001
,  // measure 61
0100
0001
0010
0110
0000
1100
0001
1000
,  // measure 62
0000
0000
0010
1000
0100
0010
0001
0000
1000
0000
0010
0000
0100
0000
0001
0000
,  // measure 63
1000
0100
0001
0011
0000
0110
0010
1001
,  // measure 64
0000
0000
1000
0000
0010
0100
0001
0000
0010
0000
0100
0000
1000
0000
0001
0000
,  // measure 65
0100
0010
1000
1010
0000
0011
0001
0100
,  // measure 66
0000
0000
0010
1000
0100
0000
0010
0001
1000
0001
0100
0000
0010
0000
1000
0000
,  // measure 67
0100
0010
0001
0101
0000
0110
1000
0001
,  // measure 68
2000
0000
0000
0000
3001
1000
0100
0000
0000
0000
0010
0000
0001
0000
0100
0000
,  // measure 69
0010
1000
0001
0101
0000
1001
0010
1000
,  // measure 70
0100
1000
0001
1000
0010
0000
0000
0010
0100
0001
1000
0000
0100
0000
0001
0000
,  // measure 71
1000
0100
0010
0011
0000
0101
0001
1010
,  // measure 72
2200
0000
0000
3300
;
