#TITLE:Scarborough Fair;
#SUBTITLE:;
#ARTIST:Age of Passion;
#TITLETRANSLIT:;
#SUBTITLETRANSLIT:;
#ARTISTTRANSLIT:;
#GENRE:;
#CREDIT:;
#BANNER:Scarborough Fair.png;
#BACKGROUND:Scarborough Fair-bg.png;
#LYRICSPATH:;
#CDTITLE:;
#MUSIC:Scarborough Fair.ogg;
#OFFSET:0.031250;
#SAMPLESTART:22.462999;
#SAMPLELENGTH:20.000000;
#SELECTABLE:YES;
#DISPLAYBPM:160.000000;
#BPMS:0.000000=160.039993
;
#STOPS:
;
#BGCHANGES:;
#KEYSOUNDS:;
#ATTACKS:;

//---------------dance-single - ----------------
#NOTES:
     dance-single:
     :
     Hard:
     13:
     0.513464,0.682479,0.293408,0.179305,0.081502,441.000000,405.000000,36.000000,22.000000,0.000000,0.000000,0.513464,0.682479,0.293408,0.179305,0.081502,441.000000,405.000000,36.000000,22.000000,0.000000,0.000000:
0000
0000
0000
0000
,
0000
0000
0000
0000
,
0000
0000
0000
0000
,
0000
0000
0000
0000
,
0000
0000
0000
0000
,
0000
0000
0000
0000
,
0000
0000
0000
0000
,
0000
0000
0000
0000
,
0000
0000
0000
0000
,
0000
0000
0000
0000
,
0000
0000
0000
0000
,
0000
0000
0000
0000
,
0000
0000
0000
0000
,
0000
0000
0000
0000
,
0000
0000
0000
0000
,
0001
0010
0100
1000
,
0001
0100
0010
1000
,
0001
1000
0010
0100
,
0001
0010
0100
1000
0010
0001
0010
1000
,
0100
0010
0100
1000
0001
0100
1000
0100
,
0001
1000
0010
0100
1000
0100
0001
0100
,
0010
1000
0100
0010
0001
0100
1000
0100
,
0010
1000
0001
0100
0010
0001
0010
1000
,
0100
0001
0100
1000
0010
0001
0010
1000
,
0001
1000
0100
0010
1000
0010
0001
0010
,
0100
0000
0001
0000
0100
0000
1000
0000
0010
0000
1000
0001
1000
0000
0010
0000
,
1000
0001
0000
0000
0001
0100
0000
0000
0010
0000
1000
0000
0100
0000
0000
0000
,
0010
0001
0000
0000
0001
1000
0000
0000
0100
0000
1000
0000
0010
0000
0000
0000
,
2000
0000
0100
0000
3100
0000
0000
0000
1000
0010
0000
0000
0001
0010
0000
0000
,
1000
0001
0010
0001
0100
0010
0100
1000
,
0100
0001
0010
0100
2000
0001
3002
0000
,
1003
0100
0010
0001
0010
0100
1000
0000
,
0020
0000
0100
0000
0130
0000
0000
0000
0001
0010
0000
0000
1000
0010
0000
0000
,
0100
0010
1000
0001
0010
0100
1000
0001
,
0100
0001
1000
0100
1000
0010
0001
0010
,
1000
0001
0100
0001
0010
0100
1000
0000
,
0001
0010
0100
1000
0100
0010
0001
0000
,
0200
0000
0001
0000
0301
0000
1000
0000
0010
0100
0000
0000
0001
1000
0000
0000
,
0010
1000
0100
1000
0001
0100
0010
0000
,
1000
0001
0010
1000
0010
0001
0100
0000
,
0010
1000
0100
0001
0100
1000
0010
0000
,
2000
0000
0010
0000
3010
0000
0000
0000
0001
0000
0100
1000
0100
0000
0001
0000
,
0101
0000
0000
0000
0101
0000
0100
0000
0010
0000
1000
0001
1000
0000
0100
0000
,
1100
0000
1100
1000
0001
0100
0001
1000
,
1010
0000
0000
0000
1010
0000
0010
0000
0100
0000
0001
1000
0001
0000
0010
0000
,
0011
0000
0011
0001
1000
0100
0010
0001
,
0101
0000
0000
0000
0101
0000
0001
0000
0010
0000
0100
1000
0100
0000
0010
0000
,
0011
0000
0011
0010
0001
0100
0001
1000
,
1010
0000
0000
0000
1010
0000
0010
0000
0100
0000
0001
0010
0001
0000
1000
0000
,
1100
0000
1100
1000
0001
0010
0100
1000
,
0010
1000
0001
0000
0100
0010
0001
0000
,
0200
0001
0301
0000
1000
0010
0001
0000
,
2000
0100
3100
0000
1000
0001
0010
0000
,
0001
0000
1000
0000
0010
0000
0100
0100
,
0100
0000
0001
0000
2000
0001
3002
0000
,
0023
0000
1000
0000
0031
0100
0010
0000
,
2000
3100
1001
0110
,
1001
0000
0100
0000
0010
0000
0001
0001
,
0001
1000
0010
0100
,
0120
0000
0130
0000
0010
1000
0001
0000
,
2000
0000
3010
1000
0002
0100
0103
0000
,
0002
0000
0010
0000
1003
0001
0100
0100
,
0100
1000
0010
0001
,
1000
0100
0010
0001
,
1000
0010
0100
0001
,
1000
0001
0100
0010
,
0101
0000
0000
0000
0101
0000
1000
0000
0001
0000
0100
0010
0100
0000
0001
0000
,
1001
0000
1001
0010
1000
0100
0010
0001
,
0011
0000
0000
0000
0011
0000
0100
0000
1000
0000
0010
0100
0010
0000
1000
0000
,
1100
0000
1100
0001
1000
0001
0010
0100
,
0110
0000
0000
0000
0110
0000
0001
0000
0100
0000
0010
1000
0010
0000
1000
0000
,
1010
0000
1010
0001
1000
0100
0010
0001
,
0101
0000
0000
0000
0101
0000
0010
0000
1000
0000
0001
1000
0001
0000
0100
0000
,
0110
0000
0110
0001
1000
0100
1000
0001
,
0020
0000
0000
0031
,
2000
0002
0000
0000
3000
0000
0013
0000
,
2000
0000
0100
3001
,
0200
0000
1000
0310
,
0002
0000
0000
0000
,
0000
0000
0000
0003
;

//---------------dance-single - ----------------
#NOTES:
     dance-single:
     :
     Medium:
     9:
     0.370253,0.487485,0.138554,0.301558,0.000000,318.000000,301.000000,17.000000,37.000000,0.000000,0.000000,0.370253,0.487485,0.138554,0.301558,0.000000,318.000000,301.000000,17.000000,37.000000,0.000000,0.000000:
0000
0000
0000
0000
,
0000
0000
0000
0000
,
0000
0000
0000
0000
,
0000
0000
0000
0000
,
0000
0000
0000
0000
,
0000
0000
0000
0000
,
0000
0000
0000
0000
,
0000
0000
0000
0000
,
0000
0000
0000
0000
,
0000
0000
0000
0000
,
0000
0000
0000
0000
,
0000
0000
0000
0000
,
0000
0000
0000
0000
,
0000
0000
0000
0000
,
0000
0000
0000
0000
,
0001
0001
0001
0001
,
1000
1000
1000
1000
,
0020
0000
0001
1030
,
0001
0100
0000
0010
0000
1000
0001
1000
,
0000
0100
0000
0010
0000
0001
0100
0001
,
0000
0010
0000
0100
0000
1000
0001
1000
,
0000
0001
0000
0010
0000
0100
1000
0100
,
0000
0010
0000
0100
0000
0010
0001
1000
,
0000
0001
0000
0100
0000
0010
1000
0100
,
0000
0010
0000
0100
0000
1000
0001
0100
,
0000
0001
0000
1000
0000
0100
0010
0001
,
2000
3002
0010
0103
,
0101
1200
0001
1300
,
1002
0103
1020
1030
,
0001
0010
0000
0001
0000
0100
0010
1000
,
0000
0001
0000
1000
0020
0000
0130
0000
,
0201
1000
0001
0310
,
2000
0000
3100
0000
1000
0001
0100
0000
,
0001
0010
0000
0100
0000
1000
0010
1000
,
0000
0100
0000
0010
0000
0001
1000
0001
,
0020
0000
0100
0000
0031
1000
0100
0000
,
0110
0000
0001
0000
1000
0010
0100
0000
,
0002
0203
2300
3200
,
0302
0000
2003
0000
3010
0100
0001
1000
,
0200
0000
0010
0000
1300
0001
0100
0000
,
0020
0000
0001
0000
0130
0010
1000
0000
,
2100
3001
0210
0310
,
1010
0000
0011
0000
1000
0100
0010
0001
,
0100
0000
0100
0000
0001
1000
0001
0010
,
0001
0000
0001
0000
1000
0010
0100
0001
,
0010
0000
0010
0000
0001
1000
0100
0010
,
0100
0000
0100
0000
1000
0010
1000
0001
,
1000
0000
1000
0000
0010
0100
0010
1000
,
0100
0000
0100
0000
1000
0010
0100
0001
,
0010
0000
0010
0000
0001
0100
0010
1000
,
0001
1000
0010
0100
,
0010
1000
0100
0010
,
0001
0100
0001
1000
,
0010
0000
1000
0000
0100
0000
1000
0001
,
1000
0010
0100
0001
,
2100
0010
0100
3001
,
0021
1000
0100
0031
,
1000
0000
0001
0000
0010
0000
0100
0010
,
0100
1000
0010
0001
,
0200
0320
2030
3002
,
2003
3100
0002
0103
,
0010
0000
0100
0000
0001
0000
1000
0100
,
1000
0010
0100
0001
,
2001
0100
0100
3100
,
1020
0100
0100
0130
,
0202
0300
1000
0103
,
0110
0000
1001
0000
0010
1000
0001
0100
,
0010
0000
0010
0000
0100
0001
0010
0100
,
1000
0000
1000
0000
0100
1000
0010
0100
,
0001
0000
0001
0000
0010
0001
0100
0010
,
1000
0000
1000
0000
0100
0010
0100
1000
,
0001
0000
0001
0000
0010
0001
0100
0010
,
1000
0000
1000
0000
0001
1000
0001
0100
,
0010
0000
0010
0000
0100
0001
0100
0001
,
2000
0000
0000
3001
,
0100
0002
0000
0000
0000
0000
0013
0000
,
2000
0000
0001
3100
,
0020
0000
1000
0030
,
0002
0000
0000
0000
,
0000
0000
0000
0003
;

//---------------dance-single - ----------------
#NOTES:
     dance-single:
     :
     Easy:
     6:
     0.296901,0.454986,0.358610,0.195605,0.000000,255.000000,211.000000,44.000000,24.000000,0.000000,0.000000,0.296901,0.454986,0.358610,0.195605,0.000000,255.000000,211.000000,44.000000,24.000000,0.000000,0.000000:
0000
0000
0000
0000
,
0000
0000
0000
0000
,
0000
0000
0000
0000
,
0000
0000
0000
0000
,
0000
0000
0000
0000
,
0000
0000
0000
0000
,
0000
0000
0000
0000
,
0000
0000
0000
0000
,
0000
0000
0000
0000
,
0000
0000
0000
0000
,
0000
0000
0000
0000
,
0000
0000
0000
0000
,
0000
0000
0000
0000
,
0000
0000
0000
0000
,
0000
0000
0000
0000
,
0001
0001
0001
0001
,
1000
0000
0000
0010
,
0200
0000
1000
0301
,
0010
0001
0100
0010
,
1000
0100
0001
0010
,
0100
0010
0100
1000
,
0010
1000
0100
0001
,
1001
0010
1000
0100
,
0010
0001
0100
0010
,
0100
1000
0001
1000
,
0100
0010
0001
0100
,
0001
2000
0000
3010
,
0100
0002
0000
1003
,
0022
0030
1000
0103
,
1000
1000
0010
0100
,
0001
0010
1100
1100
,
0201
0010
0000
0310
,
2000
0000
0001
3100
,
0010
0010
1000
0100
,
0001
0010
1000
0001
,
0020
1000
0000
0031
,
0200
0010
0000
0301
,
2020
0030
0100
3001
,
2000
3020
0100
1030
,
0210
1000
0000
0310
,
0001
0100
0010
1000
,
2200
0300
0010
3010
,
0101
0101
0001
0010
,
1100
1100
0010
0100
,
1001
1001
0010
0100
,
0110
0110
0010
1000
,
1010
1010
1000
0100
,
0011
0011
0001
0100
,
0101
0101
0010
0100
,
0110
0110
1000
0100
,
1000
0010
0000
0100
,
0001
0000
0010
0010
,
0100
0000
1000
0001
,
0010
0000
0010
0000
,
0001
0000
0011
0011
,
2200
0000
0300
3001
,
0010
0000
0001
1000
,
1001
0000
0100
0000
,
0010
0000
1000
0001
,
1000
0000
0100
0010
,
1000
0000
0100
0000
,
0001
0000
0010
0010
,
0001
0100
0000
0000
,
1000
1000
1000
1000
,
0001
0000
0000
0100
,
0020
0000
0001
1030
,
1100
1100
0010
0100
,
1001
1001
0010
0001
,
0101
0101
1000
0010
,
1010
1010
0100
0001
,
0110
0110
1000
0100
,
0011
0011
0010
0001
,
1001
1001
0010
1000
,
1100
1100
0010
0100
,
0002
0000
0000
1003
,
0200
0000
0000
0310
,
2000
0000
0100
3000
,
0020
0000
0100
0030
,
0002
0000
0000
0000
,
0000
0000
0000
0003
;

//---------------dance-single - ----------------
#NOTES:
     dance-single:
     :
     Beginner:
     3:
     0.139718,0.190715,0.016300,0.000000,0.000000,120.000000,118.000000,2.000000,0.000000,0.000000,0.000000,0.139718,0.190715,0.016300,0.000000,0.000000,120.000000,118.000000,2.000000,0.000000,0.000000,0.000000:
// measure 0
0000
0000
0000
0000
,  // measure 1
0000
0000
0000
0000
,  // measure 2
0000
0000
0000
0000
,  // measure 3
0000
0000
0000
0000
,  // measure 4
0000
0000
0000
0000
,  // measure 5
0000
0000
0000
0000
,  // measure 6
0000
0000
0000
0000
,  // measure 7
0000
0000
0000
0000
,  // measure 8
0000
0000
0000
0000
,  // measure 9
0000
0000
0000
0000
,  // measure 10
0000
0000
0000
0000
,  // measure 11
0000
0000
0000
0000
,  // measure 12
0000
0000
0000
0000
,  // measure 13
0000
0000
0000
0000
,  // measure 14
0000
0000
0000
0000
,  // measure 15
0001
0000
0000
0100
,  // measure 16
0100
0000
0000
0010
,  // measure 17
0010
0000
1000
0000
,  // measure 18
0001
0000
0001
0000
,  // measure 19
1000
0000
1000
0000
,  // measure 20
0010
0000
0010
0000
,  // measure 21
0100
0000
0100
0000
,  // measure 22
0001
0000
0010
0000
,  // measure 23
0100
0000
1000
0000
,  // measure 24
0010
0000
1000
0000
,  // measure 25
0001
0000
0100
0000
,  // measure 26
0001
0001
0000
0000
,  // measure 27
1000
1000
0000
0000
,  // measure 28
0010
0000
1000
0000
,  // measure 29
0100
0000
0000
0000
,  // measure 30
0000
0000
0010
0010
,  // measure 31
0010
0000
0000
0001
,  // measure 32
0001
0000
1000
0000
,  // measure 33
1001
0000
0000
0000
,  // measure 34
0000
0000
0000
0100
,  // measure 35
0100
0000
0000
0010
,  // measure 36
0010
0000
0000
1000
,  // measure 37
1000
0000
0001
0000
,  // measure 38
0100
0100
0000
0000
,  // measure 39
0001
0000
0000
1000
,  // measure 40
1000
0000
0000
0100
,  // measure 41
0100
0000
1000
0000
,  // measure 42
0010
0010
0000
0000
,  // measure 43
0010
0010
0000
0000
,  // measure 44
0100
0100
0000
0000
,  // measure 45
0100
0100
0000
0000
,  // measure 46
0001
0001
0000
0000
,  // measure 47
0001
0001
0000
0000
,  // measure 48
1000
1000
0000
0000
,  // measure 49
1000
1000
0000
0000
,  // measure 50
0001
0001
0000
0000
,  // measure 51
1000
0000
0100
0000
,  // measure 52
1000
0000
1000
0000
,  // measure 53
0010
0000
0000
0000
,  // measure 54
0000
0000
0100
0100
,  // measure 55
0100
0000
0000
0001
,  // measure 56
0001
0000
1000
0000
,  // measure 57
1001
0000
0000
0000
,  // measure 58
0000
0000
0000
1000
,  // measure 59
1000
0000
0010
0000
,  // measure 60
1000
0000
0001
0000
,  // measure 61
0010
0000
0001
0000
,  // measure 62
0100
0100
0000
0000
,  // measure 63
0001
0000
0000
0010
,  // measure 64
0010
0000
0000
0100
,  // measure 65
0100
0000
1000
0000
,  // measure 66
0010
0010
0000
0000
,  // measure 67
0010
0010
0000
0000
,  // measure 68
0100
0100
0000
0000
,  // measure 69
0100
0100
0000
0000
,  // measure 70
0001
0001
0000
0000
,  // measure 71
0001
0001
0000
0000
,  // measure 72
1000
1000
0000
0000
,  // measure 73
1000
1000
0000
0000
,  // measure 74
0010
0000
0000
0000
,  // measure 75
1000
0000
0000
0000
,  // measure 76
0100
0000
1000
0000
,  // measure 77
0001
0000
0000
0000
,  // measure 78
0001
0000
0000
0000
;
