#TITLE:Sax;
#ARTIST:Fleur East;
#BANNER:Sax-bn.png;
#BACKGROUND:Sax-bg.png;
#JACKET:Sax-jacket.png;
#MUSIC:Sax.ogg;
#OFFSET:-0.111;
#SAMPLESTART:103.314;
#SAMPLELENGTH:20;
#DISPLAYBPM:118;
#BPMS:0=118;
#BGCHANGES:;

//---------------dance-single - ----------------
#NOTES:
     dance-single:
     :
     Beginner:
     3:
     :
0000
0000
0000
0000
,
0000
0000
0000
0000
,
0000
0000
0000
0000
,
0000
0000
0000
0000
,
0000
0000
0000
0000
,
0010
0000
1000
0000
,
0100
0000
0001
0000
,
1000
0000
0001
0000
,
0010
0000
0100
0000
,
0010
0000
0001
0000
,
1000
0000
0100
0000
,
1000
0000
0010
0000
,
0100
0000
0001
0000
,
0010
0000
0001
0000
,
0100
0000
0010
0000
,
2000
0000
3000
0000
,
0002
0000
0003
0000
,
0010
0000
0001
0000
,
1000
0000
0001
0000
,
0200
0000
0300
0000
,
0020
0000
0030
0000
,
1000
0000
0100
0000
,
1000
0000
0100
0000
,
0010
0000
0001
0000
,
0010
0000
0001
0000
,
0100
0000
0010
0000
,
1000
0000
0001
0000
,
0100
0000
0010
0000
,
0110
0000
0000
0000
,
1000
0000
0010
0000
,
0100
0100
0100
0000
,
0001
0000
0010
0000
,
0001
0000
1001
0000
,
0010
0000
1000
0000
,
0100
0100
0100
0000
,
1000
0000
0010
0000
,
0100
0000
0110
0000
,
0001
0000
0001
0000
,
0010
0010
0010
0000
,
0001
0000
0100
0000
,
1000
1000
1000
0000
,
0010
0000
1000
0000
,
0100
0100
0100
0000
,
0000
0000
1000
0000
,
0001
0001
0001
0000
,
0010
0000
0010
0000
,
0001
0000
0100
0000
,
0010
0000
0010
0000
,
1000
0000
0001
0000
,
1000
0000
0100
0000
,
1000
0000
0010
0000
,
0200
0000
0300
0000
,
0020
0000
0030
0000
,
1000
0000
0001
0000
,
1001
0000
0000
0000
,
0010
0000
0100
0000
,
0001
0001
0001
0000
,
0010
0000
0100
0000
,
1000
0000
0110
0000
,
0100
0100
0100
0000
,
0010
0010
0010
0000
,
0001
0001
0001
0000
,
1000
0000
1001
0000
,
0010
0000
0010
0000
,
0100
0000
0100
0000
,
0001
0000
0001
0000
,
1000
1000
1000
0000
;

//---------------dance-single - ----------------
#NOTES:
     dance-single:
     :
     Easy:
     7:
     :
0000
0000
0000
0000
,
0000
0000
0000
0000
,
0000
0000
0000
0000
,
0000
0000
0000
0000
,
0000
0000
0000
0000
,
0010
0100
0010
0100
,
0001
0010
0100
1000
,
0100
0010
0100
0010
,
0001
1000
0010
0100
,
0001
1000
0001
1000
,
0010
1000
0001
0100
,
1000
0001
1000
0001
,
0010
0100
1000
0001
,
0100
0100
0010
0010
,
1000
0100
1000
0001
,
0100
0010
0100
0010
,
1000
0100
0010
0001
,
0100
0100
0010
0010
,
1000
0001
0010
0100
,
0010
0001
0100
1000
,
0010
1000
0100
0010
,
0001
0001
1000
1000
,
0001
0100
0010
1000
,
0100
0100
0010
0010
,
0100
0010
0001
1000
,
0010
1000
0100
0010
,
0001
0100
0001
1000
,
0010
1000
0100
0010
,
0001
1000
0001
0100
,
0010
1000
0010
0100
,
0010
1000
0100
0010
,
0001
0100
0001
0010
,
0001
0100
0010
1000
,
0100
0010
0001
1000
,
0010
0001
1000
0100
,
1000
0001
0010
1000
,
0100
0010
0001
0100
,
0010
0010
0010
0010
,
1000
1000
1000
1000
,
0001
0001
0100
0100
,
0001
0010
1000
0000
,
0100
0100
0010
0010
,
0100
1000
0010
1000
,
0000
0001
0100
0010
,
1000
0001
0010
0100
,
0010
0010
0001
0001
,
0100
0001
1000
0100
,
1000
1000
0010
0010
,
1000
0001
0100
0010
,
0100
0001
0010
0100
,
1000
0010
1000
0001
,
0100
0100
0100
0010
,
0100
0100
0100
0010
,
1000
0100
0001
0100
,
0010
1000
0100
0010
,
0001
0010
0001
0100
,
0010
1000
0100
0010
,
0001
0010
0001
0100
,
1000
0010
0001
1000
,
0001
0010
0100
0010
,
0001
0100
0010
1000
,
0100
0001
0100
0010
,
0001
0100
0010
1000
,
0001
1000
0001
1000
,
0010
1000
0100
0001
,
0010
0100
0010
0100
,
1000
0010
0100
0001
;

//---------------dance-single - ----------------
#NOTES:
     dance-single:
     :
     Medium:
     10:
     :
0000
0000
0000
0000
,
0000
0000
0000
0000
,
0000
0000
0000
0000
,
0000
0000
0000
0000
,
0000
0000
0000
0000
,
0010
0100
0010
0100
,
0010
1000
0001
1000
0010
0100
0001
0000
,
0100
0010
0100
0010
,
1000
0001
0100
0001
0010
0100
1000
0000
,
0001
1000
0001
1000
,
0010
1000
0100
0010
0001
1000
0100
0000
,
1000
0001
1000
0001
,
0010
0001
0010
0100
1000
0001
1000
0000
,
0010
1000
0100
0001
,
0010
0001
0100
0010
1000
0000
1100
0000
,
0001
0100
1000
0010
,
0100
0001
0010
0100
1000
0001
1000
0000
,
0100
1000
0010
0001
,
1000
0001
0100
0001
0010
0000
0011
0000
,
1000
0100
0001
0010
,
0100
1000
0010
0100
0001
1000
0001
0010
,
0002
0000
2003
0000
3010
1000
0100
0010
,
0001
2000
0000
3020
0000
1030
0100
0010
,
0002
0000
0203
0000
0310
0100
0001
1000
,
0100
0020
0000
0032
0000
0103
0001
1000
,
0020
0000
2030
0000
3100
0010
0001
0100
,
0001
0020
0000
0230
0000
1300
0001
1000
,
0001
0001
1000
1000
,
0010
0100
0000
0110
0000
0001
1000
0000
,
0001
0011
1000
1010
,
0001
0010
0001
0100
0010
1000
0001
0000
,
1000
1100
0001
0101
,
0010
0001
0010
0100
1000
0010
1000
0000
,
0010
1001
0010
1001
,
0100
0001
0010
0001
0100
0010
1000
0000
,
0100
0110
0100
0110
,
0001
0010
0001
0100
0010
1000
0001
0000
,
1000
0000
1010
0000
0001
0100
0010
0000
,
1000
0001
1000
0100
0010
0001
0100
0000
,
0001
0010
0100
0000
1000
0010
0100
0000
,
0001
1000
0100
1000
0001
0000
0000
0000
,
0010
1000
0100
0000
1000
0001
0010
0000
,
0001
0100
0010
0100
0001
1000
0100
0010
,
0000
0001
0100
0010
1000
0001
0100
0000
,
0001
0010
0001
0100
0010
1000
0100
0000
,
2000
0000
3020
0000
0030
0010
1000
0001
,
0010
0002
0000
0203
0000
0301
1000
0100
,
2000
0000
3002
0000
1003
0010
0100
0001
,
0010
0200
0000
0320
0000
0031
1000
0100
,
0020
0000
0032
0000
1003
0010
0100
0001
,
1000
0200
0000
2300
0000
3010
0100
0001
,
1000
0000
1000
0000
1000
0000
0001
0100
,
1000
0000
1000
0000
1000
0000
0001
0100
,
1000
1000
0001
0001
,
0100
0010
0000
0110
0000
0001
1000
0000
,
0001
0011
0100
1010
,
0001
0010
0001
0100
0010
1000
0001
0000
,
0100
1010
0100
0101
,
0001
0010
0100
0010
0001
1000
0100
0000
,
1000
1100
0001
0101
,
0010
0100
0010
0001
0100
0010
1000
0000
,
0100
1100
0001
0011
,
0010
0001
0100
0010
1000
0100
1000
0010
,
0100
0000
0000
0100
0001
0000
0000
0010
,
0001
0100
0010
1000
0001
0000
0000
1000
,
0100
0000
0000
1000
0001
0000
0000
0100
,
0010
1000
0010
0100
0001
0000
1000
1001
;

//---------------dance-single - ----------------
#NOTES:
     dance-single:
     :
     Hard:
     12:
     :
0000
0000
0000
0000
,
0000
0000
0000
0000
,
0000
0000
0000
0000
,
0000
0000
0000
0000
,
0000
0000
0000
0000
,
0010
1000
0100
1000
0010
1000
0100
0000
,
0010
0001
0100
0001
0010
0001
0100
0000
,
0101
0000
1100
0000
0001
0100
1000
0000
,
0010
1000
0001
1000
0010
1000
0001
0000
,
0100
0001
0010
0100
1000
0001
1000
0000
,
0001
1000
0100
1000
0010
0100
0001
0000
,
0011
0000
1010
0000
0001
0010
1000
0000
,
0100
0010
0100
1000
0001
0010
0100
0000
,
1000
1000
0010
0010
0100
0100
0001
0001
,
0010
0000
0001
0000
1000
0000
0001
0000
0100
0000
0000
0000
0010
0000
0000
1000
,
0000
0100
1000
0000
1001
0000
0110
0000
,
0001
0010
0001
0100
1000
0010
0001
0000
,
0010
0010
0001
0001
1000
1000
0100
0100
,
1000
0000
0010
0000
0100
0000
0001
0000
0010
0000
0000
0000
0001
0000
0000
1000
,
0000
0010
0100
0000
0110
0000
1001
0000
,
1000
0010
1000
0001
0010
0100
1000
0001
,
0101
0000
1010
0000
1000
0010
0100
0001
,
0010
0100
0010
0001
1000
0010
1000
0100
,
1100
0000
0011
0000
0100
0001
1000
0010
,
1000
0100
1000
0001
0010
0100
0010
0001
,
1001
0000
0110
0000
1000
0010
1000
0001
,
0010
0100
0010
0001
1000
0100
1000
0001
,
1000
1000
0010
0010
0100
0100
0001
0001
,
1000
0000
0100
0000
0000
0000
1001
0000
0000
0000
0001
1000
0001
0000
0100
0000
,
0010
1000
0100
0001
0100
0010
0100
0001
,
0100
0010
0100
1000
0010
0001
0010
0100
,
0010
0001
0010
1000
0010
0100
0010
1000
,
0100
0000
0001
0000
0100
0000
1000
0001
1000
0000
0010
0000
0100
0000
0001
0000
,
0010
1000
0010
0100
0010
1000
0010
0100
,
0001
0100
1000
0010
0001
0010
0100
0010
,
0001
0010
1000
0001
0010
1000
0010
0100
,
0010
0000
0001
0000
0100
0000
0010
1000
0010
0000
0100
0000
0001
0000
1000
0000
,
0001
0100
1000
0100
0001
0100
0010
0000
,
1000
0001
1000
0000
0100
0000
0010
0000
0001
0000
0010
0000
0100
0000
1000
0000
,
1000
0010
0100
0001
0001
0010
0100
1000
,
0010
0000
0100
0000
0010
0000
1000
0001
0000
0000
1100
0000
1100
0000
0000
0000
,
0001
0100
1000
0100
0001
0100
0010
0000
,
1000
0001
1000
0000
0100
0000
0010
0000
0001
0000
0100
0000
0010
0000
0110
0000
,
0000
0000
1000
0000
1000
0000
0001
0000
0100
0001
0000
0010
0000
0000
0000
0000
,
0001
1000
0001
0000
0100
0000
0010
0000
1000
0000
0100
0000
0010
0000
0001
0000
,
0011
0000
1010
0000
0001
0100
0010
1000
,
0100
0001
0100
0010
0100
1000
0010
0100
,
0101
0000
1100
0000
0001
0010
0100
1000
,
0001
1000
0010
0100
1000
0100
0001
0010
,
0110
0000
1001
0000
0010
1000
0001
1000
,
0100
0010
0001
0100
0010
1000
0001
1000
,
0001
0100
1000
0100
0001
0000
0010
0100
,
0001
0100
1000
0100
0001
0000
0010
0100
,
0001
0001
1000
1000
0010
0010
0100
0100
,
0001
0000
1000
0000
0000
0000
1001
0000
0000
0000
0010
1000
0010
0000
0100
0000
,
0001
0010
1000
0010
0100
0010
1000
0000
,
0010
0001
0010
0100
1000
0001
1000
0000
,
0100
0001
0010
0001
0010
0100
1000
0000
,
0010
0000
0100
0000
0001
0000
1000
0100
1000
0000
0001
0000
0100
0000
0000
0000
,
0010
1000
0100
0001
0100
0010
0100
0000
,
1000
0010
1000
0001
0010
0100
1000
0000
,
0001
0100
0001
0010
0001
1000
0100
0000
,
1000
0000
0010
0000
0100
0000
0001
1000
0001
0000
0100
0000
0010
0000
1000
0000
,
0001
1000
0001
1000
,
0010
1000
0100
0010
0001
0000
1000
0100
,
0001
1000
0001
1000
,
0001
0000
0100
0000
0010
0000
1000
0000
1001
0000
0000
0000
0001
0100
0001
0100
;

//---------------dance-single - ----------------
#NOTES:
     dance-single:
     :
     Challenge:
     15:
     :
0000
0000
0000
0000
,
0000
0000
0000
0000
,
0000
0000
0000
0000
,
0000
0000
0000
0000
,
0000
0000
0000
0000
,
0010
0000
1000
0000
0100
0000
1000
0001
1000
0010
0000
0100
0000
0000
0001
0010
,
0001
0000
1000
0000
0010
0000
1000
0100
0010
0100
0000
1000
0000
0001
0100
0000
,
1020
0000
0000
0000
0130
0000
0000
0000
0001
1000
0000
0110
0000
0000
0010
0100
,
0001
0000
0010
0000
0001
0100
0010
0100
0001
1000
0000
1100
0000
0000
1000
0010
,
1000
0000
0100
0000
0010
0000
0100
1000
0001
0000
0010
0001
0000
1000
0001
0100
,
0010
0000
1000
0000
0100
0000
1000
0001
0100
0000
0010
1000
0000
0001
0010
0000
,
0201
0000
0000
0000
0310
0000
0000
0000
1000
0001
0000
0110
0000
0000
0010
0100
,
0001
0000
0010
0000
0100
1000
0010
1000
0001
0100
0000
0101
0000
0000
0000
0000
,
1000
1000
0001
0001
0100
0100
0010
0010
,
1000
0100
1000
0000
0001
0000
0001
0000
0100
0010
0000
0100
0001
0000
0000
0010
,
0001
1000
0100
0000
0110
0000
0000
0000
1001
0000
0000
0000
0110
0000
0000
0010
,
1000
0010
0100
0000
0001
0000
0010
0000
0001
0100
0010
0100
0001
1000
0100
0000
,
0010
0010
0100
0100
1000
1000
0001
0001
,
0100
0001
0100
0000
0010
0000
1000
0000
0100
0010
0000
0001
1000
0000
0000
0100
,
1000
0001
0010
0000
0011
0000
0000
0000
1100
0000
0000
0000
0011
0000
0000
0100
,
0001
1000
0001
0000
0100
0000
0010
0000
1000
0000
0100
0000
1000
0000
0001
0000
,
0010
0100
0001
0010
0001
1000
1000
0100
,
0010
0001
0001
0100
1000
0010
1000
0100
,
0010
1000
0001
0100
0001
0010
1000
0100
,
0010
0100
0001
0010
0100
0001
1000
1000
,
0001
0001
1000
0100
0010
1000
0010
0100
,
0010
1000
0010
0100
0001
0100
1000
0001
,
0100
0010
0001
1000
0010
0001
0100
1000
,
1010
0000
0101
0000
0000
0000
1001
0000
0000
0000
1000
0100
1000
0010
0100
0001
,
0000
0010
0001
0010
0100
0010
0001
0100
0010
1000
0000
1100
0000
1000
0001
1000
,
0000
0010
0100
0010
1000
0100
0010
0001
1000
0001
0000
0011
0000
1000
0001
0100
,
0000
0001
0010
0100
0010
0100
1000
0001
1000
0010
0000
1010
0000
0001
1000
0100
,
0000
0010
0100
0010
0001
1000
0001
0100
0010
1000
0000
1001
0000
0010
0100
0001
,
0000
0001
0010
0100
1000
0100
0010
0001
0100
0010
0000
0110
0000
1000
0001
1000
,
0000
0100
0010
0001
0100
0010
1000
0100
1000
0010
0000
1010
0000
0010
1000
0001
,
0000
0010
0100
0010
0100
1000
0001
1000
0001
0100
0000
0101
0000
0010
1000
0001
,
0000
1000
0100
1000
0001
0100
0001
1000
0010
0100
0000
1001
0000
0001
0010
0000
,
0001
0000
0001
0000
0001
0100
0000
0010
0000
0010
0000
0010
1000
0000
0100
0000
,
1000
0000
1000
0000
1000
0001
0000
0100
0000
0100
0000
0100
0010
0000
1000
0000
,
0100
0000
0100
0000
0100
0000
0000
1000
0000
0001
0000
1000
0001
0000
0100
0000
,
0010
0000
0010
0000
0010
1000
0000
0100
0000
0010
0000
0001
1000
0000
0001
0000
,
0100
0000
0100
0000
0100
0010
0000
1000
0000
0001
0000
1000
0010
0000
0010
0000
,
1000
0000
1000
0000
1000
0100
0000
0010
0000
0001
0000
0100
0001
0000
0001
0000
,
0010
0000
0010
0000
0010
0000
0000
0001
0000
0100
0000
0010
1000
0000
1000
0000
,
0001
0000
0001
0000
0001
1000
0000
0010
0000
1000
0100
0000
0010
0000
0100
0000
,
1000
0001
0010
0100
0100
0010
1000
0001
,
1000
0010
1000
0001
0100
0001
0100
0010
,
0100
0010
0100
0010
1000
1000
0001
0001
,
0001
0001
0100
0100
0010
0010
1000
1000
,
1000
0010
0001
0001
0100
0010
1000
0100
,
0100
0001
0010
0100
0010
1000
1000
0001
,
1000
0010
0100
0100
0001
0010
0001
1000
,
1000
1000
0010
0001
0100
0001
0100
0010
,
0010
0100
1000
1000
0001
0001
0010
0100
,
1100
0000
0011
0000
0000
0000
1001
0000
0000
0000
0010
1000
0010
0100
0001
1000
,
0000
0100
0010
0100
1000
0010
0100
0001
1000
0010
0000
0110
0000
0001
1000
0001
,
0000
0010
0001
0010
0100
0010
0100
1000
0001
1000
0000
1010
0000
1000
0001
0100
,
0000
0010
0100
0001
1000
0001
0010
0100
1000
0100
0000
1100
0000
0010
0001
1000
,
0000
0010
0100
0001
1000
0100
1000
0001
1000
0010
0000
0110
0000
0100
0001
0010
,
0000
0001
1000
0010
0100
0010
1000
0100
0010
0001
0000
0011
0000
1000
0100
0001
,
0000
0010
0100
0010
0001
1000
0100
1000
0001
0010
0000
0101
0000
0100
0001
1000
,
0000
0100
1000
0010
1000
0001
0010
0100
0010
0001
0000
1001
0000
1000
0100
0001
,
0000
0010
0100
1000
0001
0100
0010
0100
0001
1000
0000
1010
0000
0010
0100
0000
,
0101
0000
1000
0100
0001
0000
1100
0010
,
0100
0001
0100
0000
0010
1000
0010
0000
0100
0000
0000
0000
0001
1000
0001
1000
,
0010
0000
0110
0100
0001
0000
1000
0001
,
0010
0100
0000
0010
0000
0001
1000
0000
1001
0000
0000
0000
1000
0001
0100
0010
;
