#TITLE:Savage Love;
#SUBTITLE:(Laxed - Siren Beat);
#ARTIST:Jawsh 685 ft. Jason Derulo;
#BANNER:Savage Love (Laxed - Siren Beat)-bn.png;
#BACKGROUND:Savage Love (Laxed - Siren Beat)-bg.png;
#JACKET:Savage Love (Laxed - Siren Beat)-jacket.png;
#MUSIC:Savage Love (Laxed - Siren Beat).ogg;
#OFFSET:-0.25;
#SAMPLESTART:53.05;
#SAMPLELENGTH:20;
#DISPLAYBPM:150;
#BPMS:0=150;
#BGCHANGES:;

//---------------dance-single - ----------------
#NOTES:
     dance-single:
     :
     Beginner:
     3:
     :
0000
0000
0000
0000
,
0000
0000
0000
0000
,
0000
0000
0000
0000
,
0000
0000
0000
0000
,
0000
0000
0000
0000
,
0000
0000
0000
0000
,
0000
0000
0000
0000
,
0000
0000
0000
0000
,
0000
0000
0000
0000
,
0001
0001
0000
0000
,
1000
0000
0001
0000
,
1000
1000
0000
0000
,
0100
0000
0010
0000
,
0001
0000
1000
0000
,
0000
0000
0010
0000
,
1000
0000
0001
0000
,
0000
0000
0100
0000
,
0010
0010
0000
0000
,
1000
0000
0001
0000
,
0100
0100
0000
0000
,
0100
0000
0010
0000
,
1000
0000
0100
0000
,
0000
0000
0010
0000
,
0001
0000
0100
0000
,
0000
0000
0010
0000
,
0000
0000
1000
0000
,
0000
0000
1000
0000
,
0000
0000
0001
0000
,
0000
0000
0001
0000
,
0000
0000
0100
0000
,
0000
0000
0100
0000
,
0000
0000
0010
0000
,
0100
0000
0000
0000
,
0001
0001
0001
0000
,
0000
0000
0000
0000
,
1000
1000
1000
0000
,
0000
0000
0000
0000
,
0010
0010
0010
0000
,
0000
0000
0000
0000
,
0100
0100
0100
0000
,
0010
0010
0000
0000
,
1000
1000
1000
0000
,
0000
0000
0000
0000
,
0100
0100
0100
0000
,
0000
0000
0000
0000
,
0010
0010
0010
0000
,
0000
0000
0000
0000
,
0001
0001
0001
0000
,
0100
0100
0000
0000
,
0001
0000
0000
0000
,
1000
0000
0000
0000
,
0010
0000
0000
0000
,
0100
0000
0000
0000
,
0001
0000
0000
0000
,
0010
0000
0000
0000
,
0100
0000
0000
0000
,
1000
0000
0000
0000
,
0010
0010
0010
0000
,
0000
0000
0000
0000
,
1000
1000
1000
0000
,
0000
0000
0000
0000
,
0001
0001
0001
0000
,
0000
0000
0000
0000
,
0100
0100
0100
0000
,
0001
0001
0000
0000
,
0100
0100
0100
0000
,
0000
0000
0000
0000
,
0010
0010
0010
0000
,
0000
0000
0000
0000
,
1000
1000
1000
0000
,
0000
0000
0000
0000
,
0001
0001
0001
0000
,
1000
1000
0000
0001
,
0001
0000
0000
0000
;

//---------------dance-single - ----------------
#NOTES:
     dance-single:
     :
     Easy:
     5:
     :
0000
0000
0000
0000
,
0000
0000
0000
0000
,
0000
0000
0000
0000
,
0000
0000
0000
0000
,
0000
0000
0000
0000
,
0000
0000
0000
0000
,
0000
0000
0000
0000
,
0000
0000
0000
0000
,
0000
0000
0000
0000
,
0001
0100
0000
0100
,
0000
0010
0000
0010
,
0000
1000
0000
1000
,
0000
0001
0000
0001
,
0000
0010
0000
0001
,
0000
0010
0000
0100
,
0000
1000
0000
0010
,
0000
1000
0000
0001
,
1000
0100
0000
0100
,
0000
0010
0000
0010
,
0000
0001
0000
0100
,
0000
0110
0000
0000
,
1000
0001
0000
0010
,
0000
0001
0000
0100
,
0000
1000
0000
0010
,
0000
0100
0000
0001
,
0010
0000
0010
0000
,
0010
0000
0010
0000
,
0001
0000
0001
0000
,
0001
0000
0001
0000
,
0100
0000
0010
0000
,
0100
0000
0010
0000
,
1000
0000
0010
0000
,
0110
0000
0000
0000
,
0001
1000
0010
0000
,
2000
3000
0002
0003
,
1000
0001
0010
0000
,
0002
0003
2000
3000
,
0001
1000
0010
0000
,
0200
0300
0200
0300
,
1000
0001
0010
0000
,
0100
0100
0000
0110
,
0001
1000
0010
0000
,
2000
3000
0200
0300
,
1000
0001
0010
0000
,
0200
0300
0002
0003
,
0001
1000
0010
0000
,
2000
3000
0020
0030
,
1000
0001
0010
0000
,
0001
0100
0000
0110
,
0001
0100
0000
0000
,
1000
0100
0000
0000
,
0001
0010
0000
0000
,
1000
0010
0000
0000
,
0100
0010
0000
0000
,
1000
0001
0000
0000
,
1001
0110
0000
0000
,
2002
0000
0000
3003
,
0001
1000
0010
0000
,
0200
0300
0020
0030
,
1000
0001
0010
0000
,
0200
0300
0020
0030
,
0001
1000
0010
0000
,
2000
3000
0002
0003
,
1000
0001
0010
0000
,
0001
0100
0000
1001
,
0001
1000
0010
0000
,
2000
3000
0002
0003
,
1000
0001
0010
0000
,
0200
0300
2000
3000
,
0001
1000
0010
0000
,
0020
0030
0020
0030
,
1000
0001
0010
0000
,
0001
0100
0000
0110
,
2002
0000
0000
3003
;

//---------------dance-single - ----------------
#NOTES:
     dance-single:
     :
     Medium:
     7:
     :
0000
0000
0000
0000
,
0000
0000
0000
0000
,
0000
0000
0000
0000
,
0000
0000
0000
0000
,
0000
0000
0000
0000
,
0000
0000
0000
0000
,
0000
0000
0000
0000
,
0000
0000
0000
0000
,
0000
0000
0000
0000
,
0001
0100
0000
0100
,
0001
0001
1000
0100
,
1000
0010
0000
0010
,
0100
0100
0001
1000
,
0100
0110
0000
1001
,
0000
0001
0100
1000
,
0010
0110
0000
1001
,
0000
0010
1000
0001
,
0010
0100
0000
0100
,
1000
0010
1000
0001
,
0010
0100
0000
0100
,
0010
0001
0100
0001
,
1000
1001
0000
0110
,
0000
0010
1000
0001
,
0010
1001
0000
0110
,
0000
0100
0010
1000
,
0001
0000
2000
0000
,
3002
0000
0013
0100
,
2000
3000
0010
0100
,
0002
0003
0020
0030
,
0002
0003
2000
3000
,
0020
0030
0200
0300
,
0001
0000
1000
0000
,
0020
0000
0000
0030
,
1000
1001
1001
0000
,
0010
1000
0010
1000
,
0100
0110
0110
0000
,
0010
0001
0010
0001
,
0100
1001
1001
0000
,
0010
1000
0001
1000
,
0010
0110
0110
0000
,
0001
0100
0000
0110
,
1001
1100
1100
0000
,
0010
0010
1000
0001
,
0100
0101
0101
0000
,
0001
0010
0001
1000
,
0100
1100
1100
0000
,
0010
0100
0010
1000
,
0001
0101
0101
0000
,
0001
0010
0000
0110
,
1001
0100
0000
0100
,
0000
0100
0000
0100
,
0001
1000
0000
1000
,
0000
1000
0000
1000
,
0100
0010
0000
0010
,
0000
0010
0000
0010
,
0001
0100
0000
1001
,
0220
0000
0000
0330
,
1000
1100
0101
0000
,
0001
0010
0001
0100
,
1000
1100
0101
0000
,
0010
1000
0100
0010
,
0001
0101
1100
0000
,
0010
0100
0010
0100
,
0001
0101
1100
0000
,
0010
0100
0000
0110
,
1001
0101
0101
0000
,
0001
0010
0001
0100
,
1000
1100
1100
0000
,
1000
0010
1000
0100
,
0010
1100
1100
0000
,
0100
1000
0010
0100
,
0001
0101
0101
0000
,
0010
0100
0000
0110
,
2002
0000
0000
3003
;

//---------------dance-single - ----------------
#NOTES:
     dance-single:
     :
     Hard:
     9:
     :
0000
0000
0000
0000
,
0000
0000
0000
0000
,
0000
0000
0000
0000
,
0000
0000
0000
0000
,
0000
0000
0000
0000
,
0000
0000
0000
0000
,
0000
0000
0000
0000
,
0000
0000
0000
0000
,
0000
0000
0000
0000
,
0001
0000
0000
0000
0000
0010
0001
0000
0000
0011
0000
0000
,
1000
0000
0000
0000
0000
0010
1000
0000
0000
1010
0000
0000
,
0100
0000
0000
0000
0000
1000
0001
0000
0000
0101
0000
0000
,
0100
0000
0000
0000
0000
0001
1000
0000
0000
1100
0000
0000
,
0010
0000
0000
0000
0000
1000
0100
0000
0000
0110
0000
0000
,
0010
0000
0000
0000
0000
0001
1000
0000
0000
1001
0000
0000
,
0010
0000
0000
0000
0000
0010
0100
0000
0000
0110
0000
0000
,
0001
0000
0000
0000
0000
1000
0001
0000
0000
1001
0000
0000
,
0010
0000
0000
0001
0000
1000
0100
0000
0000
1100
0000
0000
,
1000
0000
0000
0010
0000
0100
0001
0000
0000
0011
0000
0000
,
0001
0000
0000
0100
0000
0010
1000
0000
0000
1010
0000
0000
,
0010
0000
0000
0101
0000
0000
1000
0000
0001
0100
0000
0000
,
0010
0000
0000
0001
0000
1000
0100
0000
0000
1100
0000
0000
,
0010
0000
0000
0100
0000
1000
0001
0000
0000
0101
0000
0000
,
1000
0000
0000
0100
0000
0010
0001
0000
0000
0011
0000
0000
,
0001
0000
0000
0010
0000
0100
1000
0000
0000
1010
0000
0000
,
1001
0000
0000
0000
0120
0000
0000
0230
,
0000
0000
0320
0000
0000
2030
0000
0000
,
3001
0000
0000
0000
0002
0000
0000
2003
,
0000
0000
3002
0000
0000
0203
0000
0000
,
0320
0000
0000
0000
2030
0000
0000
3002
,
0000
0000
0203
0000
0000
0320
0000
0000
,
0230
0000
0000
0000
0310
0000
0000
2000
,
0000
0002
0000
0000
0000
0000
3003
0000
,
1001
1010
1100
0000
,
1000
0000
1000
0100
0000
0000
0001
0000
0001
0100
0000
0000
,
0110
0101
0011
0000
,
0100
0000
0100
1000
0000
0000
0001
0000
0001
0100
0000
0000
,
0011
0101
1001
0000
,
1000
0100
1000
0000
0001
0100
0001
0000
,
1010
1100
0110
0000
,
0001
0000
1000
0001
0000
1000
0000
0000
0010
0100
0000
0000
,
0101
1100
0101
0000
,
1000
0000
1000
0001
0000
0000
0010
0000
0010
0100
0000
0000
,
1100
0101
1100
0000
,
0010
0000
0010
1000
0000
0000
0001
0000
0001
0010
0000
0000
,
0011
1010
0011
0000
,
0100
0000
0100
0010
0000
0000
1000
0000
1000
0010
0000
0000
,
1010
0011
1010
0000
,
0001
0000
1000
0001
0000
1000
0000
0000
0010
0100
0000
0000
,
0001
0000
0010
0001
0000
0010
0000
0000
0000
0011
0000
0000
,
0100
0000
1000
0100
0000
1000
0000
0000
0000
1100
0000
0000
,
0010
0000
1000
0010
0000
1000
0000
0000
0000
1010
0000
0000
,
0001
0000
0100
0001
0000
0100
0000
0000
0000
0101
0000
0000
,
0100
0000
0010
0100
0000
0010
0000
0000
0000
0110
0000
0000
,
1000
0000
0001
1000
0000
0001
0000
0000
0000
1001
0000
0000
,
1000
0000
0010
0100
0000
0001
0000
0000
0000
0000
0000
0000
,
0001
0010
0200
2000
0300
0000
3001
0000
,
0011
0110
1100
0000
,
0001
0000
0001
0010
0000
0000
1000
0000
1000
0100
0000
0000
,
1010
1001
0101
0000
,
0010
0000
0010
1000
0000
0000
0001
0000
0001
0100
0000
0000
,
0110
1001
0110
0000
,
0001
0010
0100
0000
1000
0001
0100
0000
,
1001
0110
1001
0000
,
1000
0000
0001
1000
0000
0001
0000
0000
0100
0010
0000
0000
,
1010
0101
1010
0000
,
0100
0000
1000
0001
0000
0000
0100
0000
0001
1000
0000
0000
,
1100
0011
1100
0000
,
0010
0000
1000
0001
0000
0000
0010
0000
0001
1000
0000
0000
,
0101
1010
0101
0000
,
1000
0000
0001
0010
0000
0000
0001
0000
1000
0100
0000
0000
,
0011
1100
0011
0000
,
0100
0000
0010
0100
0000
0010
0000
0000
1000
0001
0000
2000
,
0002
0000
0000
3003
;

//---------------dance-single - ----------------
#NOTES:
     dance-single:
     :
     Challenge:
     11:
     :
0000
0000
0000
0000
,
0000
0000
0000
0000
,
0000
0000
0000
0000
,
0000
0000
0000
0000
,
0000
0000
0000
0000
,
0000
0000
0000
0000
,
0000
0000
0000
0000
,
0000
0000
0000
0000
,
0000
0000
0000
0000
,
0001
0000
0100
0001
0000
0010
0000
0000
0010
0100
0000
1000
,
0010
0000
0010
1000
0000
1000
0001
0000
0001
1000
0000
0000
,
0100
0000
1000
0001
0000
0010
0000
0000
0010
0001
0000
0100
,
0001
0000
0001
0010
0000
0010
0100
0000
0000
1100
0000
0000
,
0010
0000
1000
0001
0000
0011
0000
0000
0010
0001
0000
0100
,
0000
0000
0001
0010
0000
0001
1000
0000
1000
0100
0000
0000
,
1000
0000
0010
0100
0000
0101
0000
0000
0001
1000
0000
1000
,
0000
0000
0010
1000
0000
0001
1000
0000
0001
0100
0000
0000
,
0010
0000
0010
1000
0000
0001
0000
0000
1000
0100
0000
0010
,
0001
0000
0001
0100
0000
0100
0001
0000
1000
0100
0000
0000
,
0010
0000
0001
0100
0000
0100
0000
0000
0010
1000
0000
0001
,
1000
0000
1000
0100
0000
0100
0010
0000
0010
0002
0000
0000
,
0013
0000
0001
0100
0000
0110
0000
0000
0010
1000
0000
1000
,
0000
0000
0100
1000
0000
1000
0001
0000
0001
0200
0000
0000
,
0301
0000
0010
0001
0000
1001
0000
0000
1000
0010
0000
0100
,
0000
0000
0001
0010
0100
1000
0000
1000
0001
0000
0000
0000
,
0100
0000
0000
0000
2020
0000
3030
1000
,
0002
0000
0003
1000
0001
0100
0020
0000
,
0200
0000
0330
0000
0001
1000
0200
0000
,
2000
3300
0022
0033
,
2020
0030
0002
3000
,
0020
0000
0003
0000
0200
0000
0330
1000
,
0002
0000
0000
0000
0103
0000
0000
0101
,
0000
2200
0000
0000
0000
0000
3300
0000
,
1001
1010
1100
0000
,
1000
0000
1000
0001
0000
0001
1000
0000
1000
0100
0000
0100
,
0010
0011
1100
0000
,
0001
0000
0001
0100
0000
0100
0010
0000
0010
1000
0000
1000
,
0100
1100
0101
0000
,
1000
0001
1000
0001
0100
0010
1000
0001
,
0011
0000
0000
0110
0000
0000
1100
0000
0000
0000
0000
0010
,
1000
0000
0001
1000
0000
0100
0000
0000
0100
0010
0000
0010
,
0001
0101
1020
0130
,
0001
0000
0001
0010
0000
0010
0001
0000
0001
1000
0000
1000
,
0010
0000
0010
0000
0010
0000
0020
0000
0000
0130
0000
0000
,
0010
0000
1000
0010
0000
1000
0100
0000
0100
0010
0000
0010
,
0001
0000
0001
0000
0001
0000
0002
0000
0000
0103
0000
0000
,
0001
0000
0001
1000
0000
1000
0001
0000
0001
0010
0000
0010
,
0100
0000
0000
0110
0000
0000
1002
0000
0000
0013
0000
0100
,
1000
0000
1000
0010
0000
0010
0100
0000
0100
0001
0000
0001
,
1000
0000
0100
1000
0000
1000
0000
0000
0000
0101
0000
0000
,
0001
0000
0100
0001
0000
0001
0000
0000
0010
0100
0000
0100
,
1000
0000
1000
0000
1000
0000
1000
0000
0000
0011
0000
0000
,
0010
0000
0001
0100
0000
0100
0000
0000
0010
1000
0000
0001
,
0100
0000
0100
0000
0100
0000
0100
0000
0000
0110
0000
0000
,
0010
1000
0001
2000
0000
0000
3200
0000
,
0310
0000
0001
0010
0000
0010
0000
0000
0000
1100
0000
0000
,
0001
0100
0010
1000
0100
0010
0001
0000
,
0011
0101
1001
0100
,
0010
0000
0010
1000
0000
1000
0100
0000
0100
0010
0000
0010
,
0001
0101
1100
1000
,
0010
0000
0010
0100
0000
0100
0010
0000
0010
0100
0000
0100
,
0001
1001
1010
0100
,
0001
0010
0001
0010
0100
1000
0010
0100
,
0110
0000
0000
1001
0000
0000
0110
0000
0000
0001
0000
1000
,
0010
0000
1000
0100
0000
0010
0000
0000
0001
1000
0000
0001
,
1000
1010
0102
0013
,
0001
0000
0001
1000
0000
1000
0100
0000
0100
0010
0000
0010
,
0001
0000
0100
0000
0010
0000
1000
0000
0000
1100
0000
0000
,
0010
0000
0010
1000
0000
1000
0001
0000
0001
0100
0000
0100
,
0010
0000
1000
0000
0001
0000
0100
0000
0000
1001
0000
0000
,
0010
0000
1000
0100
0000
0100
0010
0000
0001
0100
0000
0100
,
0001
0000
0000
0101
0000
0000
2010
0000
0000
3100
0000
0010
,
0001
0000
0100
0001
0000
1000
0000
0000
1000
0100
0000
2000
,
0002
0000
0000
3003
;
