#TITLE:Samurai Shogun vs. Master Ninja;
#ARTIST:96;
#BANNER:Samurai Shogun vs. Master Ninja.png;
#BACKGROUND:Samurai Shogun vs. Master Ninja-bg.png;
#JACKET:Samurai Shogun vs. Master Ninja-jacket.png;
#MUSIC:Samurai Shogun vs. Master Ninja.ogg;
#SAMPLESTART:60.923;
#SAMPLELENGTH:20;
#DISPLAYBPM:260;
#BPMS:0=260;
#BGCHANGES:;

//---------------dance-single - ----------------
#NOTES:
     dance-single:
     :
     Beginner:
     3:
     :
0000
0000
0000
0000
,
0000
0000
0000
0000
,
0000
0000
0000
0000
,
0000
0000
0000
0000
,
0000
0000
0000
0000
,
0000
0000
0000
0000
,
0000
0000
0000
0000
,
0000
0000
0000
0000
,
0000
0000
0000
0000
,
0000
0000
0000
0000
,
1000
1000
0000
0000
,
0000
0000
0000
0000
,
0001
0001
0000
0000
,
0000
0000
0000
0000
,
0010
0020
0000
0000
,
0000
0000
0000
0000
,
0030
0000
0000
0000
,
0000
0000
0000
0000
,
0001
0000
0000
0000
,
1000
0000
0000
0000
,
0001
0000
0001
0000
,
0001
0000
0000
0000
,
1000
0000
0000
0000
,
0001
0000
0000
0000
,
1000
0000
1000
0000
,
1000
0000
0000
0000
,
0010
0000
0000
0000
,
0100
0000
0000
0000
,
0010
0000
0010
0000
,
0010
0000
0000
0000
,
0001
0000
0000
0000
,
1000
0000
0000
0000
,
0001
0000
0001
0000
,
1000
0000
0000
0000
,
1001
0000
0000
0000
,
0000
0000
0000
0000
,
0010
0000
0010
0000
,
0010
0000
0000
0000
,
0002
0000
0000
0003
,
1000
0000
0000
0000
,
2000
0000
0000
3000
,
0001
0000
0000
0000
,
0110
0000
0000
0000
,
0000
0000
0000
0000
,
0010
0000
0010
0000
,
0010
0000
0000
0000
,
2000
0000
0000
3000
,
0001
0000
0000
0000
,
0200
0000
0000
0000
,
0000
0300
0000
0000
,
0001
0000
0000
0000
,
0001
0000
0000
0000
,
0010
0000
0000
0000
,
0010
0000
0000
0000
,
1000
0000
0000
0000
,
1000
0000
0000
0000
,
0100
0000
0000
0000
,
0100
0000
0000
0000
,
0001
0000
0000
0000
,
0001
0000
0000
0000
,
0100
0000
0000
0000
,
0100
0000
0000
0000
,
1000
0000
0000
0000
,
1000
0000
0000
0000
,
0010
0000
0000
0000
,
0010
0000
0010
0000
,
0010
0000
0000
0000
,
0001
0000
0001
0000
,
0001
0000
0000
0000
,
1000
0000
1000
0000
,
1000
0000
0000
0000
,
0010
0000
0010
0000
,
0010
0000
0000
0000
,
0000
0000
0000
0000
,
0001
0000
0000
0000
,
0010
0000
0010
0000
,
0010
0000
0000
0000
,
1000
0000
1000
0000
,
0001
0000
0001
0000
,
0001
0000
0000
0000
,
1001
0000
0000
0000
,
0000
0000
0000
0000
,
1000
0000
0000
0000
,
0100
0000
0000
0000
,
0001
0000
0001
0000
,
1000
0000
0000
0000
,
0010
0000
0000
0000
,
0100
0000
0000
0000
,
0010
0000
0010
0000
,
0100
0000
0000
0000
,
0001
0000
0000
0000
,
0100
0000
0000
0000
,
0010
0000
0010
0000
,
1000
0000
0000
0000
,
0100
0000
0010
0000
,
0100
0000
0010
0000
,
1000
0000
1000
0000
,
1000
0000
0000
0000
,
1001
0000
0000
0000
,
0000
0000
0000
0000
,
0010
0000
0010
0000
,
0010
0000
0010
0000
,
0100
0000
0000
0000
,
0000
0000
0000
0000
,
0010
0000
0010
0000
,
0010
0000
0010
0000
,
1000
1000
0000
0000
,
0000
0000
0000
0000
,
0001
0001
0000
0000
,
0000
0000
0000
0000
,
1000
2000
0000
0000
,
0000
0000
0000
3000
,
0001
0000
0001
0000
,
1000
0000
1000
0000
,
0000
0000
0000
0000
;

//---------------dance-single - ----------------
#NOTES:
     dance-single:
     :
     Easy:
     7:
     :
0000
0000
0000
0000
,
0000
0000
0000
0000
,
0000
0000
0000
0000
,
0000
0000
0000
0000
,
0000
0000
0000
0000
,
0000
0000
0000
0000
,
0000
0000
0000
0000
,
0000
0000
0000
0000
,
0000
0000
0000
0000
,
0000
0000
0000
0010
,
0010
0010
0000
0000
,
0000
0000
0000
1000
,
1000
1000
0000
0000
,
0000
0000
0000
0001
,
0001
0002
0000
0000
,
0000
0000
0000
0000
,
0003
0000
0000
0000
,
0000
0000
0000
0000
,
0001
0000
1000
0000
,
0010
0100
0010
0000
,
1000
0000
0001
0000
,
0010
0100
0010
0000
,
0001
0000
1000
0000
,
0100
0010
0100
0000
,
1000
0000
0100
0000
,
0010
0000
0001
0000
,
0001
0000
1000
0000
,
0010
0010
0010
0000
,
0100
0000
0001
0000
,
1000
1000
1000
0000
,
0001
0000
0010
0000
,
1000
0000
0010
0000
,
0001
0000
1000
0000
,
0001
0001
0001
0000
,
0200
0000
0000
0300
,
0020
0000
0000
0030
,
1000
0000
0010
0000
,
1000
0001
1000
0000
,
0100
0000
0100
0000
,
0001
0000
0001
0000
,
0010
0000
0010
0000
,
0100
0000
0010
0000
,
2000
0000
0000
3000
,
0020
0000
0000
0030
,
0001
0000
0010
0000
,
0001
1000
0001
0000
,
0100
0000
0100
0000
,
1000
0000
0001
0000
,
0010
0000
0010
0000
,
0010
0000
0000
0000
,
0001
0001
0000
0000
,
1000
0000
1000
0000
,
0010
0000
0000
0000
,
0100
0000
0100
0000
,
1000
1000
0000
0000
,
0001
0000
0001
0000
,
0010
0000
0000
0000
,
0100
0000
0100
0000
,
0010
0010
0000
0000
,
0001
0000
0001
0000
,
0100
0000
0000
0000
,
0001
0000
0001
0000
,
0010
0010
0000
0000
,
0001
0000
0001
0000
,
1000
0000
0001
0000
,
0010
0000
0100
0100
,
0100
0000
0010
0000
,
0001
0000
1000
0001
,
1000
0000
0010
0000
,
0100
0000
0001
1000
,
0001
0000
0010
0000
,
0010
0000
0100
0010
,
0200
0000
0000
0300
,
0100
0000
0001
0000
,
0001
0000
0010
0000
,
1000
0000
0010
1000
,
0010
0000
0100
0000
,
0001
0000
1000
0000
,
0010
0100
0010
0000
,
0100
0010
0100
0000
,
0002
0000
0000
0000
,
1003
0000
0000
0000
,
0001
0000
0100
0000
,
1000
0000
0100
0000
,
0001
0000
0100
0000
,
0001
0100
0001
0000
,
1000
0000
0010
0000
,
0001
0000
0010
0000
,
1000
0000
0100
0000
,
1000
0100
1000
0000
,
0001
0000
0001
0000
,
0010
0000
0010
0000
,
1000
0000
0010
0000
,
0001
1000
0001
0000
,
0001
0100
0001
0000
,
1000
0100
1000
0000
,
0010
0100
0010
0000
,
0100
0010
0100
0000
,
0001
0000
0001
0000
,
1000
0000
0001
0000
,
0100
0000
0010
0000
,
1000
0010
1000
0000
,
0001
0000
0001
0000
,
0100
0000
0001
0000
,
1000
0100
1000
0000
,
0001
0100
0001
0000
,
1000
1000
0000
0000
,
0000
0000
0000
0010
,
0001
0001
0000
0000
,
0000
0000
0000
0100
,
1000
2000
0000
0000
,
0000
0000
0000
3000
,
0001
0000
0010
0000
,
1000
0000
0100
0000
,
0000
0000
0000
0000
;

//---------------dance-single - ----------------
#NOTES:
     dance-single:
     :
     Medium:
     12:
     :
0000
0000
0000
0000
,
0000
0000
0000
0000
,
0000
0000
0000
0000
,
0000
0000
0000
0000
,
0000
0000
0000
0000
,
0000
0000
0000
0000
,
0000
0000
0000
0000
,
0000
0000
0000
0000
,
0000
0000
0000
0000
,
0000
0000
0000
0001
,
1000
0010
0000
0000
,
0000
0000
0000
0100
,
0001
1000
0000
0000
,
0000
0000
0000
0010
,
0001
0200
0000
0000
,
0000
0000
0000
0000
,
0300
0000
0000
0000
,
0000
0000
0000
0000
,
0010
0001
1000
0000
,
0001
0010
0100
1000
,
0010
0100
0001
0000
,
1000
0010
1000
0100
,
1000
0001
0010
0000
,
1000
0010
0100
0001
,
0010
0100
1000
1000
,
0010
0010
0100
0100
,
0001
1000
0100
0000
,
0010
0001
0010
1000
,
0010
0001
0100
0000
,
0001
0010
0001
1000
,
0010
0100
0010
0000
,
1000
0100
0010
0001
,
1000
0010
0100
0100
,
0001
0001
1000
1000
,
0200
0000
0001
0000
,
0010
0000
1000
0300
,
0001
0010
1000
0010
,
0001
0100
1000
0100
,
0001
0000
1000
0000
,
0010
0010
0100
0000
,
0001
1000
0100
0100
,
1000
0001
0100
0100
,
0020
0000
1000
0000
,
0100
0000
0001
0030
,
1000
0010
0001
0010
,
1000
0100
0001
0100
,
1000
0000
0001
0000
,
0010
0010
0100
0000
,
1000
1000
0001
0001
,
0010
0001
0100
0000
,
1000
0000
0010
0000
0000
0001
0000
0000
,
0100
0000
0000
0010
0000
0000
0100
0000
,
0000
0000
1001
0000
1001
0000
0000
0100
,
0000
0000
0010
0000
0000
1001
0000
0000
,
0001
0000
0010
0000
0000
1000
0000
0000
,
0100
0000
0000
0010
0000
0000
0100
0000
,
0000
0000
1001
0000
1001
0000
0000
0010
,
0000
0000
0100
0000
0000
1001
0000
0000
,
0100
0000
1000
0000
0000
0010
0000
0000
,
0001
0000
0000
0100
0000
0000
1000
0000
,
0000
0000
0101
0000
0101
0000
0000
0010
,
0000
0000
0100
0000
0000
1000
0000
0000
,
0100
0000
0001
0000
0000
0010
0000
0000
,
1000
0000
0000
0100
0000
0000
0001
0000
,
0000
0000
1010
0000
1010
0000
0000
1001
,
0000
0100
0010
0100
,
0001
0000
0000
1000
0000
0000
0010
0000
,
0100
0000
0001
0000
1000
0100
1000
0000
,
0010
0000
0000
0100
0000
0000
0001
0000
,
1000
0000
0010
0000
0100
0001
0100
0000
,
0001
0000
0000
0010
0000
0000
0001
0000
,
0100
0000
0010
0000
1000
0100
1000
0000
,
0001
0100
0010
0100
,
1000
0100
0010
0010
,
1000
0000
0000
0001
0000
0000
0100
0000
,
0010
0000
1000
0000
0001
0010
0001
0000
,
0100
0000
0000
0001
0000
0000
0010
0000
,
0100
0000
1000
0000
0001
0100
0001
0000
,
1000
0000
0100
0000
1000
0001
1000
0000
,
0100
0000
1000
0000
0010
1000
0010
0000
,
0200
0000
0000
0300
,
0002
0000
0003
0000
,
1001
0100
0110
0000
,
0001
0010
0001
1000
,
0010
1000
0010
0000
1000
0001
1000
0000
,
0001
0100
0001
0000
1000
0000
0000
0000
,
0010
0010
1001
0000
,
0100
0001
1000
0100
,
0010
0001
0010
0000
0001
1000
0001
0000
,
1000
0100
1000
0000
0001
0000
0000
0000
,
1000
0000
0001
0010
0001
0000
0010
0000
,
0100
0000
1000
0000
0100
1000
0100
0000
,
1000
0001
1000
0000
0010
0000
0100
0000
,
0001
0100
0001
0000
0100
0000
0000
0000
,
0001
0010
0001
0000
0010
0001
0010
0000
,
0100
0010
0100
0000
1000
0100
1000
0000
,
0001
0000
1000
0000
0100
1000
0100
0000
,
0001
1001
1100
0000
,
0100
0010
0100
0000
1000
0000
0001
0000
,
0010
0100
1000
0001
,
1000
1000
0001
0010
,
0100
0010
1000
0000
,
0001
0100
0001
0000
1000
0000
0010
0000
,
0100
0001
0010
0100
,
1000
1000
0100
0010
,
0001
0010
1000
0000
,
0001
0101
0000
0000
,
0010
1000
0010
0100
,
0001
0101
0000
0000
,
0010
0001
0010
0100
,
1000
2200
0000
0000
,
0000
0000
3300
0000
,
0001
0010
0001
0000
0100
0000
0010
0000
,
1000
0100
0001
0100
,
0000
0000
0000
0000
;

//---------------dance-single - ----------------
#NOTES:
     dance-single:
     :
     Hard:
     14:
     :
0000
0000
0000
0000
,
0000
0000
0000
0000
,
0000
0000
0000
0000
,
0000
0000
0000
0000
,
0000
0000
0000
0000
,
0000
0000
0000
0000
,
0000
0000
0000
0000
,
0000
0000
0000
0000
,
0000
0000
0000
0000
,
0000
0000
0000
1010
,
1001
1001
0000
0000
,
0000
0000
0000
0011
,
0110
0110
0000
0000
,
0000
0000
0000
1100
,
1001
0102
0000
0000
,
0000
0000
0000
0000
,
0003
0000
0000
0000
,
0000
0000
0000
0000
,
1000
0000
0001
0000
1000
0100
0000
0001
,
0100
0001
0100
0010
0100
0010
1000
0000
,
0001
0000
1000
0000
0010
0100
0000
0001
,
0100
0010
1000
0100
0010
0100
1000
0100
,
0010
0000
0001
0000
1000
0100
0000
1000
,
0001
1000
0001
0010
1000
0001
0100
0000
,
1000
0001
1000
0000
1000
0001
0100
0001
,
0100
0010
0100
0000
0010
1000
0010
0100
,
0001
0000
0001
0000
1000
0100
0000
0001
,
0100
0001
0100
0010
0100
0001
1000
0000
,
0100
0000
1000
0000
0010
0100
0000
1000
,
0100
0010
0001
0100
0010
0100
0001
0100
,
0010
0000
1000
0000
0010
0100
0000
0001
,
1000
0001
1000
0010
0100
0001
0100
0000
,
0010
0100
0001
0100
0010
1000
0010
0100
,
0001
0100
0001
0010
0001
1000
0100
0000
,
2000
3100
0020
0031
,
2000
3200
0320
0032
,
2003
0000
3010
0000
1000
0100
0010
0100
,
1000
0100
0001
0100
1000
0100
1000
0000
,
0001
0000
1000
0000
0100
1000
0100
0000
,
0001
0100
0001
0000
0010
0000
1000
0000
,
0001
0100
0001
0000
1000
0100
1000
0000
,
0011
0000
1001
0000
0100
0010
0100
0000
,
0020
0130
2000
3100
,
0002
0203
0320
2030
,
3002
0000
0013
0000
0001
0100
0010
0100
,
0001
0100
1000
0100
0001
0100
0001
0000
,
1000
0000
0001
0000
0100
0001
0100
0000
,
1000
0100
1000
0000
0010
0000
0001
0000
,
1000
0100
1000
0000
0001
0100
0001
0000
,
1010
0011
0101
0000
,
1001
0000
0100
0000
0001
1000
0000
0010
,
0100
0000
0001
0010
0001
0000
1100
0000
,
0011
0000
0011
0000
0010
0001
1000
1001
,
0000
0000
1100
0000
0001
0100
0010
1000
,
0001
0000
0101
0000
0010
0100
0000
1000
,
0001
0000
1000
0010
0100
0000
0101
0000
,
1010
0000
1010
0000
0010
1000
0001
1001
,
0000
0000
0101
0000
1000
0100
0010
0001
,
1000
0000
1001
0000
0001
0100
0000
0010
,
0100
0000
1000
0100
0010
0000
0101
0000
,
1100
0000
1100
0000
1000
0100
0010
0011
,
0000
0000
0110
0000
0010
0001
0100
0000
,
1001
0000
0101
0000
1000
0100
0000
0010
,
0100
0000
0001
0100
0010
0000
1100
0000
,
0011
0000
0011
0000
0010
0001
1000
1010
,
0000
0000
1001
0000
0010
1000
0010
0100
,
0001
0000
1000
0010
1000
0000
0102
0000
,
0103
0001
1000
0100
1000
0001
0010
0100
,
1000
0000
0010
1000
0010
0000
0021
0000
,
0031
0010
0001
1000
0001
0100
1000
0100
,
0010
0000
1000
0010
1000
0000
0102
0000
,
0103
0001
1000
0100
0010
0100
0001
0100
,
1000
0000
0001
0000
0100
0010
0100
0001
,
1000
0100
1000
0000
1000
0100
0010
0100
,
1000
0000
0010
0001
0010
0000
2100
0000
,
3010
1000
0010
0100
0010
1000
0001
0100
,
1000
0000
0001
0010
0001
0000
2010
0000
,
3100
1000
0001
0100
0001
0100
0010
0100
,
0001
0010
0100
1000
0001
0100
0010
1000
,
0001
0100
0010
1000
0001
0010
0100
0000
,
1000
1000
0001
0100
,
2000
0000
0000
0000
3000
0100
0010
0100
,
1000
1000
0110
1001
,
0001
0100
0010
0100
0001
0000
1100
0000
,
0010
0001
0010
0001
0010
0100
0010
0100
,
1000
0100
1000
0001
0100
0001
0100
0000
,
0010
0100
0010
0000
1001
0000
0110
0000
,
0100
0010
0001
0010
0100
0000
1001
0000
,
0010
0100
0001
0100
0001
1000
0000
0100
,
0000
0002
0000
0103
1000
0100
0001
0000
,
1000
0000
0001
0100
0001
1000
0010
0100
,
1000
0100
1000
0001
0010
0100
0001
0000
,
1000
0100
0010
0001
1000
0100
0010
0100
,
1000
0001
0100
0010
0100
0001
0100
0000
,
1000
0100
0010
1000
0100
0010
0001
0010
,
0100
0001
0100
1000
0001
1000
0100
0000
,
0001
0100
0010
0100
1000
0100
0010
0100
,
0001
0010
0100
0010
1000
0000
0000
0000
,
0110
0000
0001
0000
1000
0010
0100
0000
,
0010
0000
0001
0000
1000
0100
1000
0000
,
0001
0100
0001
0000
1000
0100
0010
0100
,
1000
0010
0100
0001
,
1001
0000
0100
0000
0001
1000
0010
0000
,
0001
0000
0100
0000
0010
1000
0010
0000
,
1000
0001
1000
0000
0001
0100
0010
0100
,
0001
1000
0100
0010
,
1001
0000
0110
0000
1000
0100
1000
0000
,
0010
0000
1000
0100
0010
0000
1010
0000
,
1001
0000
0101
0000
0010
0100
0010
0000
,
0001
0000
0010
0100
0001
0000
0011
0000
,
1001
0000
1100
0000
0001
0010
0001
0000
,
1000
0010
0100
0010
1000
0000
0100
0000
,
0010
0001
1000
0010
1000
0001
0100
0010
,
0001
0010
1000
0100
1000
0010
0100
0001
,
0000
0000
0000
0000
;

//---------------dance-single - ----------------
#NOTES:
     dance-single:
     :
     Challenge:
     19:
     :
0000
0000
0000
0000
,
0000
0000
0000
0000
,
0000
0000
0000
0000
,
0000
0000
0000
0000
,
0000
0000
0000
0000
,
0000
0000
0000
0000
,
0000
0000
0000
0000
,
0000
0000
0000
0000
,
0000
0000
0000
0000
,
0000
0000
0000
0000
,
1000
0100
0010
0000
0010
0001
0000
0001
,
0100
0000
0010
1000
0001
0000
1000
0100
,
0010
0001
0100
0000
0010
1000
0000
1000
,
0100
0010
0000
0010
0001
0000
0100
0010
,
1000
0001
1000
0000
0100
0010
0000
0010
,
0001
0000
1000
0010
1000
0000
0100
0010
,
0000
0001
0100
0000
0010
1000
0000
0100
,
0000
1000
0001
1000
0010
0100
0001
1000
,
0100
0010
0001
0100
1000
0010
1000
0001
,
0010
0001
0100
0010
0001
0010
1000
0100
,
0010
0001
1000
0100
1000
0010
1000
0001
,
0100
0010
0100
1000
0100
0001
0010
0100
,
1000
0010
1000
0001
0010
0100
0001
0100
,
0010
0100
0001
0100
1000
0010
0001
0010
,
1000
0001
1000
0100
0010
1000
0010
0100
,
0010
0001
0100
0001
0010
0100
1000
0010
,
0100
0001
0010
0001
1000
0001
0010
1000
,
0010
0100
0010
1000
0010
0001
0100
1000
,
0010
0100
0010
1000
0001
0010
0001
1000
,
0100
0001
0010
0100
0001
0100
1000
0010
,
1000
0001
1000
0010
0100
1000
0100
0001
,
0010
0100
0010
0001
1000
0010
1000
0001
,
0100
1000
0100
0001
0100
1000
0100
0001
,
0010
0100
1000
0010
1000
0001
0100
0010
,
2000
0000
3100
0000
1100
0000
0001
0010
,
1000
0000
0100
0010
0001
0000
0100
0001
,
1000
0000
0010
1000
0010
0100
0001
0010
,
0001
0100
0010
0001
0010
1000
0100
0010
,
0002
0000
1003
0010
1000
0001
0010
0100
,
1000
0010
1000
0001
0100
0000
0001
1000
,
0010
0100
0010
1000
0001
0010
1000
0100
,
0000
0010
0001
0100
0001
1000
0100
0001
,
0010
0001
1000
0000
0100
1000
0010
0100
,
0000
0001
0010
0001
1000
0010
1000
0001
,
0000
0100
0010
1000
0001
0010
1000
0100
,
0001
1000
0010
0001
0100
0010
1000
0001
,
0200
0000
0310
1000
0010
0100
0001
0010
,
1000
0000
0001
0100
1000
0010
0001
0000
,
0201
0000
0310
1000
0100
0010
0001
0100
,
0001
1000
0010
0100
0001
0010
0100
1000
,
0010
0010
0000
1000
1000
0000
0100
0100
,
0000
0010
0010
0000
0001
0100
1000
0001
,
1000
1000
0000
0001
0001
0000
0010
0010
,
0000
0100
0100
0000
1000
0010
1000
0001
,
0010
0010
0000
0001
1000
0100
1000
0010
,
0000
0100
0100
0010
1000
0001
1000
0100
,
0010
0001
1000
0010
1000
0100
1000
0001
,
0000
0100
0001
0010
1000
0001
1000
0100
,
0010
0010
0001
1000
1000
0010
0100
0100
,
0000
0001
0001
0010
0001
0100
1000
0010
,
1000
1000
0001
0010
0010
0001
0100
0100
,
0000
0001
0001
1000
0100
0010
0100
1000
,
1010
1000
0100
0001
0010
0000
0011
0001
,
0100
1000
0010
0000
1000
0001
0010
0100
,
1100
0001
0000
0011
1000
0000
1010
0100
,
0000
0101
0010
0000
1000
1000
0001
0001
,
0200
0000
0301
2000
0000
3010
0200
0000
,
0301
0010
1000
0100
1000
0001
0010
0100
,
2000
0001
3100
0020
0001
1030
0200
0000
,
0310
0002
0000
1003
0010
0001
0010
0100
,
0002
0000
0013
2000
0000
3010
0200
0000
,
1300
0010
1000
0001
0010
0100
1000
0010
,
0100
0001
1000
0010
0001
1000
0010
0100
,
0001
0010
1000
0001
0100
1000
0100
0010
,
2000
0100
3010
0002
1000
0013
0200
0000
,
1300
0010
0001
0100
0010
0001
1000
0100
,
0002
0010
0103
0020
0001
1030
0002
1000
,
0013
0200
1000
0310
0001
0100
0010
1000
,
0002
0100
1003
0002
0010
1003
0002
0100
,
1003
0002
0010
1003
0002
0100
1003
0000
,
0110
0000
1001
0000
1000
0100
0010
0001
,
0100
0001
1000
0010
1000
0001
0100
0010
,
2010
0000
0001
0100
0001
0100
3010
0000
,
0110
0010
1000
0001
0010
0000
0012
0000
,
1003
0010
0001
0100
1000
0001
0010
0100
,
1000
0001
1000
0100
0012
0100
0103
0000
,
0010
1000
0001
1000
0100
0010
0001
0100
,
1000
0001
0010
0100
1000
0001
1000
0010
,
0100
0100
0010
0010
1000
1000
0001
0101
,
0000
1100
0000
0101
1200
0010
0310
0000
,
0001
0100
1000
0010
1000
0100
0010
1001
,
0000
1010
0002
0000
1003
0010
1000
0100
,
0010
0001
1000
0001
0010
1000
0100
0001
,
0010
0001
0100
0010
2000
0001
3100
0000
,
2000
0010
3001
2000
0100
3001
2000
0010
,
3001
2000
0100
3001
2000
0010
3001
0000
,
0100
0001
0100
0010
1000
0010
1000
0001
1000
0001
0010
0100
,
1000
0000
0100
0000
1000
0000
0001
0000
0100
0000
0001
0000
0020
0000
0000
0100
0000
0000
0130
0000
0000
0000
0000
0000
,
1000
0010
1000
0001
0010
0100
1000
0010
,
0001
0010
1000
0001
1000
0100
0010
0001
,
0100
0001
0010
0100
1000
0010
1000
0001
,
0100
1000
0100
0001
0100
1000
0100
0010
,
0001
0010
1000
0001
1000
0100
0001
0010
,
0100
0001
0100
0010
0100
1000
0001
0100
,
0010
0001
1000
0010
1000
0100
0001
0100
,
0010
0001
0100
1000
0010
1000
0001
0010
,
0100
1000
1000
0000
0001
0001
0000
0100
,
0010
1000
0001
0010
1000
0100
0001
1000
,
0010
0100
0100
0000
0001
0001
0000
1000
,
0100
0010
0001
0100
1000
0000
1000
0001
,
0010
0100
0100
0010
0001
0001
1000
0100
,
0100
0010
0001
1000
0001
0100
0010
1000
,
0000
0002
0100
1003
0002
0010
1003
0002
,
0100
1003
0002
0010
1003
0010
0110
1001
;

//---------------dance-double - ----------------
#NOTES:
     dance-double:
     :
     Easy:
     7:
     :
00000000
00000000
00000000
00000000
,
00000000
00000000
00000000
00000000
,
00000000
00000000
00000000
00000000
,
00000000
00000000
00000000
00000000
,
00000000
00000000
00000000
00000000
,
00000000
00000000
00000000
00000000
,
00000000
00000000
00000000
00000000
,
00000000
00000000
00000000
00000000
,
00000000
00000000
00000000
00000000
,
00000000
00000000
00000000
00001000
,
00010000
00010000
00000000
00000000
,
00000000
00000000
00000000
01000000
,
10000000
10000000
00000000
00000000
,
00000000
00000000
00000000
00100000
,
00010000
00020000
00000000
00000000
,
00000000
00000000
00000000
00000000
,
00030000
00000000
00000000
00000000
,
00000000
00000000
00000000
00000000
,
00001000
00000000
00000010
00000000
,
00000001
00000000
00000001
00000000
,
00000100
00000000
00001000
00000000
,
00010000
00000000
00010000
00000000
,
00100000
00000000
10000000
00000000
,
01000000
00000000
01000000
00000000
,
00010000
00000000
00000000
00000000
,
00001000
00000000
00000000
00000000
,
00000010
00000000
00001000
00000000
,
00010000
00010000
00010000
00000000
,
00100000
00000000
00010000
00000000
,
00001000
00001000
00001000
00000000
,
00000100
00000000
00000001
00000000
,
00000010
00000000
00001000
00000000
,
00010000
00000000
01000000
00000000
,
10000000
10000000
10000000
00000000
,
00200000
00000000
00000000
00300000
,
01000000
00000000
00000000
00000000
,
00100000
00000000
00010000
00000000
,
00001000
00000000
00010000
00000000
,
00001000
00000000
00001000
00000000
,
00000100
00000000
00000100
00000000
,
00000001
00000000
00000010
00000000
,
00001000
00000000
00010000
00000000
,
02000000
00000000
00000000
03000000
,
00100000
00000000
00000000
00000000
,
01000000
00000000
00010000
00000000
,
00001000
00000000
00010000
00000000
,
00001000
00000000
00001000
00000000
,
00000010
00000000
00000010
00000000
,
00000001
00000000
00000100
00000000
,
00001000
00000000
00000000
00000000
,
00010000
00010000
00000000
00000000
,
00001000
00000000
00100000
00000000
,
01000000
00000000
00000000
00000000
,
00100000
00000000
00100000
00000000
,
00010000
00010000
00000000
00000000
,
00001000
00000000
00000100
00000000
,
00000010
00000000
00000000
00000000
,
00000100
00000000
00000100
00000000
,
00010000
00010000
00000000
00000000
,
00001000
00000000
00010000
00000000
,
00000100
00000000
00000000
00000000
,
00010000
00000000
00010000
00000000
,
00001000
00001000
00000000
00000000
,
01000000
00000000
00100000
00000000
,
00010000
00000000
00000000
00000000
,
00001000
00000000
00000010
00000010
,
00000010
00000000
00000010
00000000
,
00000001
00000000
00000100
00000010
,
00000100
00000000
00000100
00000000
,
00001000
00000000
00010000
00001000
,
00010000
00000000
00010000
00000000
,
01000000
00000000
00100000
01000000
,
00200000
00000000
00000000
00300000
,
00001000
00000000
00010000
00000000
,
01000000
00000000
01000000
00000000
,
00100000
00000000
10000000
01000000
,
10000000
00000000
10000000
00000000
,
01000000
00000000
00010000
00000000
,
00001000
00010000
00001000
00000000
,
00001000
01000000
00001000
00000000
,
00020000
00000000
00000000
00000000
,
00031000
00000000
00000000
00000000
,
00000100
00000000
00000001
00000000
,
00000010
00000000
00001000
00000000
,
00010000
00000000
00001000
00000000
,
00100000
00010000
00100000
00000000
,
00010000
00000000
01000000
00000000
,
10000000
00000000
01000000
00000000
,
00010000
00000000
00001000
00000000
,
00000010
00001000
00000010
00000000
,
00000001
00000000
00000010
00000000
,
00001000
00000000
00000010
00000000
,
00000100
00000000
00001000
00000000
,
00010000
00001000
00010000
00000000
,
00001000
00000000
01000000
00000000
,
00100000
00000000
00010000
00000000
,
00001000
00010000
00001000
00010000
,
00001000
01000000
00010000
00000000
,
00100000
00000000
00000000
00000000
,
00100000
00000000
00001000
00000000
,
00000100
00000000
00000010
00000000
,
00001000
00000100
00001000
00000000
,
00000010
00000000
00000000
00000000
,
00000100
00000000
00001000
00000000
,
00010000
00001000
00010000
00000000
,
00000010
00000100
00000010
00000000
,
00001000
00001000
00000000
00000000
,
00000000
00000000
00000000
00100000
,
01000000
01000000
00000000
00000000
,
00000000
00000000
00000000
00010000
,
00001000
00002000
00000000
00000000
,
00000000
00000000
00000000
00003000
,
00010000
00000000
00001000
00000000
,
00010000
00000000
00001000
00000000
,
00000000
00000000
00000000
00000000
;

//---------------dance-double - ----------------
#NOTES:
     dance-double:
     :
     Medium:
     12:
     :
00000000
00000000
00000000
00000000
,
00000000
00000000
00000000
00000000
,
00000000
00000000
00000000
00000000
,
00000000
00000000
00000000
00000000
,
00000000
00000000
00000000
00000000
,
00000000
00000000
00000000
00000000
,
00000000
00000000
00000000
00000000
,
00000000
00000000
00000000
00000000
,
00000000
00000000
00000000
00000000
,
00000000
00000000
00000000
00001000
,
00010000
01000000
00000000
00000000
,
00000000
00000000
00000000
00010000
,
00001000
00000100
00000000
00000000
,
00000000
00000000
00000000
00000010
,
00010000
00002000
00000000
00000000
,
00000000
00000000
00000000
00000000
,
00003000
00000000
00000000
00000000
,
00000000
00000000
00000000
00000000
,
00100000
00010000
01000000
00000000
,
00100000
00010000
00001000
00000100
,
00000001
00001000
00000100
00000000
,
00000010
00001000
00000010
00001000
,
00010000
00001000
00100000
00000000
,
01000000
10000000
00100000
00010000
,
00001000
00010000
01000000
01000000
,
00010000
00010000
00001000
00001000
,
00000100
00000001
00001000
00000000
,
00000100
00000010
00001000
00010000
,
00001000
00000010
00000100
00000000
,
00000010
00001000
00010000
00100000
,
00010000
00001000
00000010
00000000
,
00000001
00000100
00001000
00010000
,
00100000
00010000
00001000
00001000
,
00010000
00010000
01000000
01000000
,
20000000
00000000
00010000
00000000
,
00100000
30000000
00100000
00000000
,
00010000
00001000
00000010
00001000
,
00010000
00001000
00000100
00000001
,
00000010
00000000
00001000
00000000
,
00010000
00001000
00010000
00000000
,
00001000
00000100
00000010
00000010
,
00001000
00000100
00000010
00000010
,
00000002
00000000
00001000
00000000
,
00000010
00000003
00000010
00000000
,
00001000
00010000
00100000
00010000
,
00001000
00010000
01000000
10000000
,
00100000
00000000
00010000
00000000
,
00001000
00010000
00001000
00000000
,
00000100
00000001
00000100
00000001
,
00000010
00001000
00010000
00000000
,
00001000
00000000
00010000
00000000
00000000
00010000
00000000
00000000
,
00100000
00000000
00000000
10000000
00000000
00000000
00010000
00000000
,
00000000
00000000
10010000
00000000
01010000
00000000
00000000
00100000
,
00000000
00000000
00010000
00000000
00000000
00011000
00000000
00000000
,
00010000
00000000
00001000
00000000
00000000
00001000
00000000
00000000
,
00000010
00000000
00000000
00000001
00000000
00000000
00001000
00000000
,
00000000
00000000
00001001
00000000
00001100
00000000
00000000
00000010
,
00000000
00000000
00001000
00000000
00000000
00011000
00000000
00000000
,
01000000
00000000
10000000
00000000
00000000
00100000
00000000
00000000
,
00010000
00000000
00000000
00001000
00000000
00000000
00000010
00000000
,
00000000
00000000
00001001
00000000
00000101
00000000
00000000
00000100
,
00000000
00000000
00001000
00000000
00000000
00010000
00000000
00000000
,
00000100
00000000
00000001
00000000
00000000
00000010
00000000
00000000
,
00001000
00000000
00000000
00010000
00000000
00000000
00100000
00000000
,
00000000
00000000
10010000
00000000
01100000
00000000
00000000
10010000
,
00000000
00100000
00010000
00001000
,
00010000
00000000
00000000
00001000
00000000
00000000
00000100
00000000
,
00000010
00000000
00000100
00000000
00000001
00000100
00000001
00000000
,
00000010
00000000
00000000
00001000
00000000
00000000
00010000
00000000
,
00001000
00000000
01000000
00000000
00100000
00010000
00100000
00000000
,
10000000
00000000
00000000
00100000
00000000
00000000
00010000
00000000
,
00001000
00000000
00010000
00000000
00001000
00010000
00001000
00000000
,
00000100
00000001
00000010
00001000
,
00010000
01000000
10000000
00100000
,
00010000
00000000
00000000
00001000
00000000
00000000
00000010
00000000
,
00000001
00000000
00000010
00000000
00000100
00001000
00000100
00000000
,
00000010
00000000
00000000
00001000
00000000
00000000
00010000
00000000
,
00100000
00000000
10000000
00000000
00010000
01000000
00010000
00000000
,
10000000
00100000
10000000
00000000
00100000
01000000
00100000
00000000
,
00010000
00001000
00010000
00000000
00000100
00001000
00000100
00000000
,
00000001
00000100
00001000
00010000
,
00200000
00000000
00300000
00000000
,
00011000
00001000
00000100
00000001
,
00001000
00000100
00000010
00001000
,
00010000
00001000
00010000
00000000
00000010
00001000
00000010
00000000
,
00010000
00001000
00010000
00000000
01000000
00000000
00000000
00000000
,
10000000
00100000
10000000
00000000
00100000
00000000
00010000
00000000
,
00001000
00010000
01000000
00010000
,
00001000
00010000
00001000
00000000
00010000
00000000
00000010
00000000
,
00000100
00000010
00000100
00000000
00000001
00000000
00000000
00000000
,
00001000
00000000
00000010
00000100
00000010
00000000
00001000
00000000
,
00000100
00000000
00010000
00000000
00001000
00010000
00001000
00000000
,
01000000
00010000
01000000
00000000
00100000
00000000
00010000
00000000
,
00001000
00010000
00001000
00000000
00100000
00000000
00000000
00000000
,
01000000
00100000
01000000
00000000
00010000
00001000
00010000
00000000
,
00001000
00000100
00001000
00000000
00000100
00000010
00000100
00000000
,
00000001
00000010
00001000
00010000
,
00100000
10000000
01010000
00000000
,
10000000
01000000
10000000
00000000
01000000
00000000
00010000
00000000
,
00001000
00010000
00001000
00000100
,
00000001
00000001
00000010
00001000
,
00000001
00000100
00001000
00000000
,
00000001
00000100
00000001
00000000
00000100
00000000
00001000
00000000
,
00010000
00001000
00010000
01000000
,
10000000
10000000
01000000
00010000
,
10000000
00100000
00010000
00000000
,
00010000
00011000
00000000
00000000
,
00000010
00001000
00000010
00010000
,
00001000
00011000
00000000
00000000
,
00100000
00001000
00010000
00001000
,
00000100
00000220
00000000
00000000
,
00000000
00000000
00000330
00000000
,
00000100
00001000
00000100
00000000
00001000
00000000
00010000
00000000
,
01000000
10000000
00100000
00010000
,
00000000
00000000
00000000
00000000
;

//---------------dance-double - ----------------
#NOTES:
     dance-double:
     :
     Hard:
     15:
     :
00000000
00000000
00000000
00000000
,
00000000
00000000
00000000
00000000
,
00000000
00000000
00000000
00000000
,
00000000
00000000
00000000
00000000
,
00000000
00000000
00000000
00000000
,
00000000
00000000
00000000
00000000
,
00000000
00000000
00000000
00000000
,
00000000
00000000
00000000
00000000
,
00000000
00000000
00000000
00000000
,
00000000
00000000
00000000
00010010
,
00001000
00010000
00000000
00000000
,
00000000
00000000
00000000
00101000
,
00010000
00001000
00000000
00000000
,
00000000
00000000
00000000
00010010
,
00001010
00000102
00000000
00000000
,
00000000
00000000
00000000
00000000
,
00000003
00000000
00000000
00000000
,
00000000
00000000
00000000
00000000
,
00000010
00000000
00000001
00000000
00000010
00001000
00000000
00010000
,
00001000
00010000
00001000
00000100
00000010
00000100
00000001
00000000
,
00000100
00000000
00001000
00000000
00100000
00001000
00000000
00010000
,
00001000
00010000
01000000
00100000
01000000
10000000
01000000
00010000
,
00001000
00000000
00010000
00000000
00001000
00010000
00000000
00000100
,
00000010
00000100
00000010
00000001
00000100
00000010
00000100
00000000
,
00001000
00010000
00001000
00000000
00001000
00010000
01000000
00100000
,
01000000
00010000
00001000
00000000
00000010
00000100
00000010
00000100
,
00001000
00000000
00000001
00000000
00000100
00001000
00000000
00010000
,
00001000
00010000
01000000
00100000
01000000
00100000
00010000
00000000
,
10000000
00000000
00100000
00000000
01000000
00010000
00000000
01000000
,
00100000
00010000
00001000
00010000
00100000
00010000
00000010
00010000
,
00001000
00000000
00010000
00000000
01000000
00100000
00000000
00010000
,
01000000
00100000
00010000
00100000
01000000
00010000
00001000
00000000
,
00000010
00001000
00000100
00000010
00000001
00000010
00000100
00010000
,
00001000
00010000
00001000
00000100
00000010
00001000
00000100
00000000
,
00000002
00000003
00000200
00000300
,
00002000
00003000
00020000
00030000
,
00100000
00000000
10000000
00000000
01000000
00010000
00001000
00010000
,
00001000
01000000
00010000
01000000
00100000
01000000
00010000
00000000
,
00010000
00000000
00001000
00000000
00000100
00000010
00000100
00000000
,
00000001
00001000
00000001
00000000
00000010
00000000
00000100
00000000
,
00000001
00000100
00000001
00000000
00000100
00001000
00000100
00000000
,
00000010
00000000
00001000
00000000
00010000
00001000
00010000
00000000
,
00200000
00300000
20000000
30000000
,
02000000
03000000
00020000
00030000
,
00001000
00000000
00000010
00000000
00000001
00000100
00000010
00000100
,
00001000
00010000
00100000
00010000
00100000
00010000
00001000
00000000
,
00000010
00000000
00000100
00000000
00010000
00001000
00010000
00000000
,
00000010
00000100
00000010
00000000
00000100
00000000
00001000
00000000
,
00010000
00001000
00010000
00000000
00001000
01000000
00001000
00000000
,
01000000
00100000
10000000
00000000
,
10010000
00000000
01000000
00000000
00010000
00001000
00000000
00010000
,
00000100
00000000
00000000
00000010
00000100
00000000
00001100
00000000
,
00000000
00000000
00000011
00000000
00000110
00000000
00000000
00001100
,
00000000
00000000
00010000
00000000
00001000
00010000
00000000
00001000
,
00000100
00000000
00000010
00000000
00000100
00001000
00000000
00010000
,
00001000
00000000
00000000
00010000
01000000
00000000
01100000
00000000
,
00000000
00000000
11000000
00000000
10010000
00000000
00000000
01010000
,
00000000
00000000
00100000
00000000
00010000
00001000
00000000
00010000
,
00001000
00000000
00000010
00000000
00000001
00000010
00000000
00000100
,
00000010
00000000
00000000
00001000
00010000
00000000
00011000
00000000
,
00000000
00000000
01010000
00000000
01100000
00000000
00000000
10100000
,
00000000
00000000
01000000
00000000
00001000
00010000
00000000
00001000
,
00010000
00000000
00000010
00000000
00000100
00000010
00000000
00000001
,
00000010
00000000
00000000
00000100
00001000
00000000
00011000
00000000
,
00000000
00000000
00001010
00000000
00000110
00000000
00000000
00000101
,
00000000
00000000
00000010
00000000
00001000
00010000
00001000
01000000
,
00100000
00000000
00000000
10100000
00000000
00000000
01000000
00000000
,
00100000
00010000
00001000
00010000
00001000
00000100
00001000
00000100
,
00000010
00000000
00000000
00001001
00000000
00000000
00000010
00000000
,
00001000
00010000
00001000
01000000
00100000
01000000
00001000
00010000
,
00100000
00000000
00000000
10100000
00000000
00000000
00010000
00000000
,
10000000
00010000
00100000
01000000
00010000
00001000
00010000
00001000
,
00000010
00000000
00000001
00000000
00000010
00000100
00000010
00001000
,
00000010
00001000
00010000
00000000
00001000
00010000
00100000
00010000
,
00001000
00000000
00000000
00011000
00000000
00000000
00000100
00000000
,
00000010
00000100
00001000
00000100
00001000
00010000
00001000
00100000
,
01000000
00000000
00000000
10010000
00000000
00000000
00100000
00000000
,
00010000
00001000
00010000
00000100
00000010
00001000
00010000
00001000
,
00010000
01000000
00100000
00010000
01000000
00100000
10000000
00100000
,
01000000
00010000
00100000
00001000
00010000
00000010
00000100
00000000
,
00001000
00000000
00010000
00000000
,
01000000
00000000
00000000
00000000
00000000
10000000
00100000
10000000
,
00100000
00010000
00011000
00001000
,
00001000
00000100
00000010
00000100
00000010
00000000
00000101
00000000
,
00000001
00000010
00000100
00000010
00000100
00001000
00000100
00001000
,
00010000
00100000
00010000
00100000
01000000
00000000
00000000
00000000
,
10000000
01000000
10000000
00000000
10010000
00000000
01000000
00000000
,
00100000
00010000
00001000
00010000
00001000
00000000
00011000
00000000
,
00000100
00000010
00000100
00000001
00001000
00000100
00000000
00000010
,
00000000
00002000
00000000
00013000
00001000
00000100
00000010
00000000
,
00000100
00000000
00000100
00001000
00010000
00001000
00010000
00001000
,
00100000
00010000
01000000
00100000
00010000
00001000
00010000
00000000
,
00010000
01000000
00100000
10000000
00100000
01000000
00010000
00001000
,
00010000
00001000
01000000
00100000
00010000
00001000
00010000
00000000
,
00001000
00010000
00001000
00000100
00000010
00000100
00000001
00000010
,
00000001
00000010
00000100
00000010
00001000
00010000
00001000
00000000
,
00010000
00001000
00010000
00000100
00000010
00000100
00010000
00001000
,
00010000
00100000
01000000
00100000
00010000
00000000
00000000
00000000
,
00011000
00000000
00010000
00000000
00000010
00000100
00001000
00000000
,
00010000
00000000
00100000
00000000
01000000
00010000
01000000
00000000
,
10000000
01000000
10000000
00000000
00010000
01000000
00100000
01000000
,
00010000
00001000
00000010
00000100
,
00000001
00000000
00000100
00000000
00001000
00010000
00001000
00000000
,
00010000
00000000
00000100
00000000
00000010
00000100
00000010
00000000
,
00000001
00000100
00000001
00000000
00001000
00000100
00000010
00000100
,
00001000
00010000
00100000
01000000
,
10010000
00000000
00100000
00000000
00010000
00001000
00010000
00000000
,
00001000
00000000
00000100
00000010
00000001
00000000
00000010
00000000
,
00001001
00000000
00000010
00000000
00001000
00010000
00001000
00000000
,
00010000
00000000
01000000
00100000
00010000
00000000
01000000
00000000
,
01010000
00011000
00010000
00001000
,
00000100
00000010
00001000
00000010
00000100
00000000
00000000
00000000
,
00000001
00000010
00000100
00000010
00001000
00010000
00001000
00010000
,
00100000
01000000
00100000
00010000
00001000
00010000
00001000
00000100
,
00000000
00000000
00000000
00000000
;
