#TITLE:Salamander Beat Crush mix;
#ARTIST:nite system;
#BANNER:Salamander Beat Crush mix-bn.png;
#BACKGROUND:Salamander Beat Crush mix-bg.png;
#JACKET:Salamander Beat Crush mix-jacket.png;
#MUSIC:Salamander Beat Crush mix.ogg;
#SAMPLESTART:8.958;
#SAMPLELENGTH:20;
#DISPLAYBPM:134;
#BPMS:0=133.955;
#BGCHANGES:;

//---------------dance-single - ----------------
#NOTES:
     dance-single:
     :
     Beginner:
     2:
     :
0000
0000
0000
0000
,
0000
0000
0000
0000
,
0000
0000
0000
0000
,
1001
0000
0000
0000
,
0010
0010
0010
0000
,
0000
0110
0000
0000
,
0000
1000
0000
0001
,
0000
0110
0000
0000
,
0000
0100
0000
0010
,
0000
1001
0000
0000
,
0000
0110
0000
0000
,
0000
1001
0000
0000
,
1000
1000
1000
1000
,
0000
0000
0000
0000
,
0001
0000
1000
0000
,
0010
0000
0000
0000
,
1000
0000
0100
0000
,
0010
0000
0110
0000
,
0001
0000
1001
0000
,
0100
0000
0110
0000
,
1000
0000
1001
0000
,
0010
0010
0010
0000
,
0100
0000
0001
0000
,
1000
1000
1000
0000
,
0001
0000
0010
0000
,
0001
0001
0001
0000
,
1000
0000
0010
0000
,
0100
0100
0100
0000
,
0010
0000
1000
0000
,
1001
0000
0000
0000
,
0001
0000
1000
0000
,
0110
0000
0000
0000
,
0010
0000
0100
0000
,
0001
0001
0000
0000
,
1000
1000
1000
0000
,
0010
0000
0000
0000
,
0100
0100
0100
0000
,
0000
0110
0000
0001
,
0000
0110
0000
0010
,
0000
1001
0000
0100
,
0000
0000
1001
0000
,
0000
0110
0000
0100
,
0000
1001
0000
0010
,
0000
0110
0000
0001
,
0000
0000
0000
1001
;

//---------------dance-single - ----------------
#NOTES:
     dance-single:
     :
     Easy:
     7:
     :
0000
0000
0000
0000
,
0000
0000
0000
0000
,
0000
0000
0000
0000
,
0000
0000
0000
0000
,
0000
0000
0000
0000
,
0010
1001
0100
0100
,
0010
0010
0000
0010
,
0100
1001
0010
0010
,
0100
0100
0000
0100
,
0010
1001
0100
0100
,
0100
1001
0010
0010
,
0010
1001
0100
0100
,
0010
0011
0100
1100
,
1001
0010
0100
0100
,
1000
0100
0010
0001
,
0001
0010
0100
1000
,
1000
0100
0010
0001
,
0100
0000
0000
0010
0000
0000
0000
0000
,
0010
0000
0000
0100
0000
0000
0000
0000
,
0100
0000
0000
1001
0000
0000
0000
0000
,
1001
0000
0000
0110
0000
0000
1001
0000
,
0100
0000
0000
0100
0000
0000
0100
0000
0000
0000
0000
0000
0000
0000
1000
0000
,
0001
0000
0000
0001
0000
0000
0001
0000
0000
0000
0000
0000
0100
0000
0000
0000
,
1000
0000
0000
1000
0000
0000
1000
0000
0000
0000
0000
0000
0000
0000
0010
0000
,
0001
0000
0000
1000
0000
0000
0001
0000
0000
0000
0000
0000
0001
0000
0000
0000
,
0100
0000
0000
0010
0000
0000
0100
0000
0000
0000
0000
0000
0000
0000
1000
0000
,
0001
0000
0000
1000
0000
0000
0001
0000
0000
0000
0000
0000
0100
0000
0000
0000
,
1000
0000
0000
0001
0000
0000
1000
0000
0000
0000
0000
0000
0000
0000
0010
0000
,
0001
0000
0000
1000
0000
0000
0001
0000
0000
0000
0000
0000
0100
0000
0000
0000
,
1001
0000
0000
0100
0000
0000
0100
0000
0000
0000
0000
0000
0000
0000
0010
0000
,
1000
0000
0000
0001
0000
0000
1000
0000
0000
0000
0000
0000
0100
0000
0000
0000
,
0010
0000
0000
0010
0000
0000
0010
0000
0000
0000
0000
0000
0000
0000
0010
0000
,
0100
0000
0000
0100
0000
0000
0100
0000
0000
0000
0000
0000
1001
0000
0000
0000
,
0110
0001
0010
0100
,
1000
0000
0010
0100
0000
0000
1001
0000
,
0110
0001
1000
0001
,
0011
1000
1100
0010
,
0010
1001
0100
0100
,
0010
1001
0010
0010
,
0100
1001
0010
0010
,
0100
0000
0000
0100
0000
0000
0100
0000
0000
0000
0000
0000
1000
0000
0001
0000
,
0010
1001
0100
0010
,
0100
1001
0010
0100
,
0010
1001
0010
0100
,
0010
0000
0000
0010
0000
0000
0010
0000
0000
0000
0000
0000
1000
0000
0001
0000
;

//---------------dance-single - ----------------
#NOTES:
     dance-single:
     :
     Medium:
     8:
     :
0000
0000
0000
0000
,
0000
0000
0000
0000
,
0000
0000
0000
0000
,
0000
0000
0000
0000
,
0000
0000
0000
0000
,
0010
1001
0100
0100
,
0010
0000
0100
0000
0001
1000
0000
0010
,
0100
1001
0100
0100
,
0010
0000
0100
0000
0001
1000
0000
0010
,
0100
1001
0100
0100
,
0100
0000
1001
0000
0010
0100
0000
0001
,
0100
1001
0100
0100
,
0011
1100
0101
1010
,
1001
0010
0100
0100
,
1000
0000
0100
0000
0010
0000
0001
1000
,
0001
0000
0010
0000
0100
0000
1000
0001
,
1000
0000
0100
0000
0010
0000
0001
1000
,
0100
0000
0000
0010
0000
0000
0001
1000
,
0100
0000
0000
0100
0000
0000
0001
1000
,
0100
0000
0000
1001
0000
0000
0001
1000
,
0100
0000
0000
0110
0000
0000
1001
0000
,
0100
0000
0000
0010
0000
0000
0100
0000
0000
0000
0000
0000
0000
0000
1000
0000
,
0001
0000
0000
1000
0000
0000
0010
0000
0000
0000
0000
0000
0100
0000
0000
0000
,
1000
0000
0000
0001
0000
0000
1000
0000
0000
0000
0000
0000
0000
0000
0100
0000
,
0010
0000
0000
1000
0000
0000
0001
0000
0000
0000
0000
0000
0010
0000
0000
0000
,
0100
0000
0000
1000
0000
0000
0010
0000
0000
0000
0000
0000
0000
0000
0001
0000
,
1000
0000
0000
0010
0000
0000
0100
0000
0000
0000
0000
0000
0001
0000
0000
0000
,
1000
0000
0000
1000
0000
0000
0001
0000
0000
0000
0000
0000
0000
0000
0001
0000
,
1000
0000
0000
0100
0000
0000
0010
0000
0000
0000
0000
0000
0100
0000
0000
0000
,
1001
0000
0000
0100
0000
0000
0100
0000
0000
0000
0000
0000
0000
0000
0010
0000
,
0100
0000
0000
1000
0000
0000
0001
0000
0000
0000
0000
0000
0100
0000
0000
0000
,
0010
0000
0000
0010
0000
0000
0010
0000
0000
0000
0000
0000
0000
0000
0010
0000
,
0100
0000
0000
0100
0000
0000
0100
0000
0000
0000
0000
0000
1001
0000
0000
0000
,
0110
0001
0010
0100
,
1000
0000
0010
0100
0000
0000
1001
0000
,
0110
0001
1000
0001
,
0011
1100
0101
1010
,
0110
1001
0100
0100
,
0110
1001
0010
1001
,
0100
1001
0010
0010
,
0100
0000
0000
0100
0000
0000
0100
0000
0000
0000
0000
0000
0100
0000
0010
0000
,
0010
1001
0100
0101
,
1100
0010
0000
1001
,
0010
1001
0100
1001
,
0010
0000
0000
0010
0000
0000
0010
0000
0000
0000
0000
0000
1000
0000
0001
0000
;

//---------------dance-single - ----------------
#NOTES:
     dance-single:
     :
     Hard:
     10:
     :
0000
0000
0000
0000
,
0000
0000
0000
0000
,
0000
0000
0000
0000
,
0000
0000
0000
0000
,
0000
0000
0000
0000
,
0010
0000
1001
0000
0100
0001
0100
0001
,
1000
0010
1000
0010
0100
0001
0000
0010
,
0100
0000
1001
0000
0010
1000
0010
1000
,
0001
0100
0001
0100
0010
1000
0000
0010
,
0100
0000
1001
0000
0100
0001
0100
0001
,
1000
0000
0110
0000
0001
1000
0000
0010
,
0100
0000
1001
0000
0010
0010
0100
0100
,
0010
1100
0010
0101
,
1001
0000
0010
0000
0100
0100
0010
0010
,
0001
0000
1100
0000
0010
0000
1000
0001
,
1000
0000
0010
0100
0010
0000
1000
0001
,
1000
0000
0100
0010
0100
0000
0001
1000
,
0100
0000
0000
1001
0000
0000
0010
1000
,
0100
0010
0000
0010
0000
0000
0001
1000
,
0010
0000
0000
0100
0000
0000
1000
0100
,
0001
0000
0000
0110
0000
0000
1001
0000
,
0100
0000
0000
0010
0000
0000
0100
0000
0000
0000
0000
0000
0000
0000
1000
0000
,
0001
0000
0000
1000
0000
0000
0001
0000
0000
0000
0000
0000
0001
0000
0000
0000
,
1000
0000
0000
0001
0000
0000
1000
0000
0000
0000
0000
0000
0000
0000
0100
0000
,
0010
0000
0000
0101
0000
0000
1100
0000
0000
0000
0000
0000
0100
0000
0000
0000
,
0001
0000
0000
1100
0000
0000
0101
0000
0000
0000
0000
0000
0000
0000
0001
0000
,
1000
0000
0000
0101
0000
0000
1100
0000
0000
0000
0000
0000
0100
0000
0000
0000
,
0010
0000
0000
1100
0000
0000
0101
0000
0000
0000
0000
0000
0000
0000
0100
0000
,
1000
0000
0000
0101
0000
0000
1100
0000
0000
0000
0000
0000
0100
0000
0000
0000
,
1001
0000
0000
0100
0000
0000
0100
0000
0000
0000
0000
0000
0000
0000
0100
0000
,
1010
0000
0000
0101
0000
0000
1100
0000
0000
0000
0000
0000
0100
0000
0000
0000
,
0011
0000
0000
1100
0000
0000
0101
0000
0000
0000
0000
0000
0000
0000
0100
0000
,
1010
0000
0000
0101
0000
0000
1100
0000
0000
0000
0000
0000
0110
0000
0000
0000
,
0001
1000
0001
1000
0010
0000
0100
0000
,
0010
0000
1000
0001
1000
0001
0100
0000
,
1000
0100
1000
0100
1000
0100
1000
0100
,
0011
1100
0001
1000
,
0110
1001
0100
0100
,
0110
1001
0010
1100
,
0010
0101
0010
1100
,
0010
0000
0000
0101
0000
0000
1100
0000
0000
0000
0000
0000
0010
0000
0100
0000
,
0100
1001
0100
0101
,
1100
0010
0000
0101
,
0010
1100
0010
1001
,
0010
0000
0000
1100
0000
0000
0101
0000
0000
0000
1000
0100
1000
0000
0001
0000
;

//---------------dance-single - ----------------
#NOTES:
     dance-single:
     :
     Challenge:
     12:
     :
0000
0000
0000
0000
,
0000
0000
0000
0000
,
0000
0000
0000
0000
,
1001
0100
0001
0100
0001
0100
0001
0100
,
0010
0000
0010
0000
0010
0000
0010
0000
1000
0001
1000
0000
0001
1000
0001
0000
,
0100
0000
0000
0000
1010
0000
0000
0001
2000
0000
0100
0000
3100
0000
0010
0000
,
0001
0100
0001
0000
0101
0000
0000
0100
0010
0000
1000
0000
1100
0000
0000
0000
,
0001
0000
0000
0000
1010
0000
0000
1000
0200
0000
0010
0000
0310
0000
0000
0000
,
0001
0010
0001
0000
0011
0000
0000
0100
0010
0000
1000
0000
0001
1000
0000
0000
,
0100
0000
0000
0000
0011
0000
0001
1000
0002
0000
0100
0000
0103
0000
0000
0000
,
0010
0000
0000
0000
1100
0000
1000
0001
2000
0000
0010
0000
3010
0100
0000
0000
,
0010
0000
0000
0000
1001
0000
0100
0010
0200
0000
0001
0000
0301
0000
0000
0000
,
0210
0000
0010
0000
0320
0000
1000
0000
2030
0000
0001
0000
3001
0000
0100
0010
,
0100
0000
0000
0001
1000
0000
0000
0000
0010
0100
0000
0010
1000
0000
0001
0000
,
0010
0000
0000
0001
0000
0000
0100
0010
0000
1000
0000
0001
1000
0000
0100
0000
,
0010
0000
0000
0001
1000
0000
0000
0000
0100
1000
0000
0001
0100
0000
0010
0000
,
1000
0000
0000
0100
0010
0000
0001
0100
0000
0001
0000
1000
0010
0000
0100
0000
,
0010
0000
0000
0100
0001
0000
2010
0000
0000
3002
0000
0000
1003
0000
0100
0000
,
0010
0000
0000
0001
1000
0000
0201
0000
0000
0320
0000
0000
1030
0100
1000
0000
,
0001
0000
0000
1000
0010
0000
2100
0000
0000
3020
0000
0000
0130
0000
0001
0000
,
0010
0000
0000
0001
1000
0000
0120
0000
0000
1030
0010
0000
0100
0000
0000
0000
,
0101
0000
0000
1100
0000
0000
0101
0000
0000
1000
0000
1000
0001
0000
0010
0000
,
0011
0000
0000
1010
0000
0000
0011
0000
0000
0100
0000
0000
0110
0000
0000
0000
,
1010
0000
0000
0101
0000
0000
1010
0000
0000
1000
0000
1000
0001
0000
0010
0000
,
0011
0000
0000
1100
0000
0000
0011
0000
0000
1000
0000
0000
1001
0000
0000
0000
,
1100
0000
0000
0110
0000
0000
0011
0000
0000
0100
0000
0010
1000
0000
0001
0000
,
0101
0000
0000
1001
0000
0000
1010
0000
0000
0100
1000
0000
1100
0000
0000
0000
,
0011
0000
0000
1001
0000
0000
0101
0000
0000
0010
0000
0001
1000
0000
0100
0000
,
1100
0000
0000
1010
0000
0000
0110
0000
0000
0100
0001
0000
0011
0000
0000
0001
,
2000
0000
0000
3020
0000
0000
0230
0000
0000
0000
0000
0000
0000
0000
0001
0000
,
0302
0000
0000
2003
0000
0000
3020
0000
0000
0000
0000
0000
0230
0000
0000
0000
,
0320
0000
0000
2030
0000
0000
3002
0000
0000
0000
0000
0000
0000
0000
0100
0000
,
0203
0000
0000
0320
0000
0000
2030
0000
0000
0000
3000
0000
1001
0000
0000
0000
,
0010
0000
0000
1000
0100
0000
1000
0000
0000
0001
0000
0000
0100
0000
0010
0000
,
1000
0000
0000
0001
0010
0000
0001
0000
0000
0100
0000
0000
0010
0000
1000
0000
,
1001
0100
1000
0100
1000
0100
1000
0100
,
0010
0000
0010
0000
0010
0000
0010
0000
0001
1000
0001
0000
1000
0001
1000
0000
,
0010
0000
0000
0000
0101
0000
1000
0100
0000
1000
0001
0000
0010
0000
0100
0000
,
1000
0000
0000
0000
0110
0000
0010
0100
0000
0001
0100
0000
0010
0000
1000
0000
,
0001
0000
0000
0000
1100
0000
0010
1000
0000
0010
0100
0000
0001
0000
1000
0000
,
0100
0000
0000
0010
0001
0000
1000
0000
0010
0100
0000
0000
0110
0000
0001
0000
,
1000
0000
0000
0000
0011
0000
0100
0001
0000
1000
0001
0000
0010
0000
0100
0000
,
0010
0000
0000
0000
1100
0000
1000
0001
0000
0010
0001
0000
1000
0000
0100
0000
,
0001
0000
0000
0000
1010
0000
0100
0010
0000
0001
1000
0000
0001
0000
0100
0000
,
0010
0000
0000
0010
0000
0000
0010
0000
0000
1000
0001
0000
0100
0000
1001
0000
;

//---------------dance-double - ----------------
#NOTES:
     dance-double:
     :
     Easy:
     7:
     :
00000000
00000000
00000000
00000000
,
00000000
00000000
00000000
00000000
,
00000000
00000000
00000000
00000000
,
00000000
00000000
00000000
00000000
,
00000000
00000000
00000000
00000000
,
00100000
10010000
01000000
00001000
,
00000100
00000010
00000000
00000001
,
00000100
00001001
00000100
00010000
,
00100000
01000000
00000000
00010000
,
01000000
00011000
00000100
00001000
,
00000100
00011000
00000100
00010000
,
01000000
10010000
01000000
00100000
,
10000000
00010000
01000000
00001000
,
00000110
00000001
00000100
00010000
,
00001000
00100000
01000000
00001000
,
00010000
00000010
00000100
00010000
,
00001000
01000000
00100000
00010000
,
01000000
00000000
00000000
00011000
00000000
00000000
00000000
00000000
,
00000100
00000000
00000000
00011000
00000000
00000000
00000000
00000000
,
01000000
00000000
00000000
00011000
00000000
00000000
00000000
00000000
,
00000100
00000000
00000000
00011000
00000000
00000000
01100000
00000000
,
10000000
00000000
00000000
10000000
00000000
00000000
10000000
00000000
00000000
00000000
00000000
00000000
00000000
00000000
00010000
00000000
,
01000000
00000000
00000000
01000000
00000000
00000000
01000000
00000000
00000000
00000000
00000000
00000000
01000000
00000000
00000000
00000000
,
00001000
00000000
00000000
00001000
00000000
00000000
00001000
00000000
00000000
00000000
00000000
00000000
00000000
00000000
00000100
00000000
,
00000001
00000000
00000000
00001000
00000000
00000000
00000001
00000000
00000000
00000000
00000000
00000000
00000100
00000000
00000000
00000000
,
00010000
00000000
00000000
00000100
00000000
00000000
00010000
00000000
00000000
00000000
00000000
00000000
00000000
00000000
01000000
00000000
,
10000000
00000000
00000000
00010000
00000000
00000000
10000000
00000000
00000000
00000000
00000000
00000000
00010000
00000000
00000000
00000000
,
00001000
00000000
00000000
01000000
00000000
00000000
00001000
00000000
00000000
00000000
00000000
00000000
00000000
00000000
00001000
00000000
,
00010000
00000000
00000000
00000100
00000000
00000000
00010000
00000000
00000000
00000000
00000000
00000000
00000100
00000000
00000000
00000000
,
00001001
00000000
00000000
00000100
00000000
00000000
00000100
00000000
00000000
00000000
00000000
00000000
00000000
00000000
00000100
00000000
,
00010000
00000000
00000000
00000010
00000000
00000000
00010000
00000000
00000000
00000000
00000000
00000000
01000000
00000000
00000000
00000000
,
00100000
00000000
00000000
00100000
00000000
00000000
00100000
00000000
00000000
00000000
00000000
00000000
00000000
00000000
00001000
00000000
,
00000100
00000000
00000000
00000100
00000000
00000000
00000100
00000000
00000000
00000000
00000000
00000000
00011000
00000000
00000000
00000000
,
01100000
00010000
01000000
10000000
,
00010000
00000000
01000000
00010000
00000000
00000000
00011000
00000000
,
00000110
00000001
00001000
00000100
,
00001001
00000100
00011000
00100000
,
01000000
10010000
01000000
00001000
,
00010000
00000110
00000001
00001000
,
00000100
00011000
00100000
01000000
,
00010000
00000000
00000000
00010000
00000000
00000000
00010000
00000000
00000000
00000000
00000000
00000000
00010000
00000000
10000000
00000000
,
00100000
10010000
01000000
00011000
,
00000100
00001001
00000100
00001000
,
00000010
00011000
01000000
00001000
,
00001000
00000000
00000000
00001000
00000000
00000000
00001000
00000000
00000000
00000000
00000000
00000000
00010000
00000000
00001000
00000000
;

//---------------dance-double - ----------------
#NOTES:
     dance-double:
     :
     Medium:
     8:
     :
00000000
00000000
00000000
00000000
,
00000000
00000000
00000000
00000000
,
00000000
00000000
00000000
00000000
,
00000000
00000000
00000000
00000000
,
00000000
00000000
00000000
00000000
,
00100000
10010000
01000000
00001000
,
00000100
00000000
00000010
00000000
00000001
00001000
00000000
00000010
,
00000100
00001001
00000100
00010000
,
00100000
00000000
01000000
00000000
00010000
10000000
00000000
00100000
,
01000000
00011000
00000100
00001000
,
00000100
00000000
00011000
00000000
00000100
00010000
00000000
10000000
,
01000000
10010000
01000000
00100000
,
11000000
00110000
00001100
00000011
,
00001001
00000010
00000100
00010000
,
00001000
00000000
00100000
00000000
01000000
00000000
00010000
10000000
,
00010000
00000000
00000010
00000000
00000100
00000000
00001000
00000001
,
00001000
00000000
01000000
00000000
00100000
00000000
00010000
10000000
,
01000000
00000000
00000000
00011000
00000000
00000000
00000001
00001000
,
00000100
00000000
00000000
00011000
00000000
00000000
10000000
00010000
,
01000000
00000000
00000000
00011000
00000000
00000000
00000001
00001000
,
00000100
00000000
00000000
00011000
00000000
00000000
10010000
00000000
,
01000000
00000000
00000000
00100000
00000000
00000000
01000000
00000000
00000000
00000000
00000000
00000000
00000000
00000000
00010000
00000000
,
10000000
00000000
00000000
00010000
00000000
00000000
10000000
00000000
00000000
00000000
00000000
00000000
01000000
00000000
00000000
00000000
,
00001000
00000000
00000000
00010000
00000000
00000000
00001000
00000000
00000000
00000000
00000000
00000000
00000000
00000000
00000100
00000000
,
00000001
00000000
00000000
00001000
00000000
00000000
00000001
00000000
00000000
00000000
00000000
00000000
00000100
00000000
00000000
00000000
,
00010000
00000000
00000000
00001000
00000000
00000000
00010000
00000000
00000000
00000000
00000000
00000000
00000000
00000000
01000000
00000000
,
10000000
00000000
00000000
00100000
00000000
00000000
01000000
00000000
00000000
00000000
00000000
00000000
00010000
00000000
00000000
00000000
,
10000000
00000000
00000000
10000000
00000000
00000000
00010000
00000000
00000000
00000000
00000000
00000000
00000000
00000000
01000000
00000000
,
00001000
00000000
00000000
00010000
00000000
00000000
00001000
00000000
00000000
00000000
00000000
00000000
00000100
00000000
00000000
00000000
,
00001001
00000000
00000000
00000100
00000000
00000000
00000100
00000000
00000000
00000000
00000000
00000000
00000000
00000000
00000100
00000000
,
00010000
00000000
00000000
00001000
00000000
00000000
00010000
00000000
00000000
00000000
00000000
00000000
01000000
00000000
00000000
00000000
,
00100000
00000000
00000000
00001000
00000000
00000000
00010000
00000000
00000000
00000000
00000000
00000000
00000000
00000000
00000010
00000000
,
00000001
00000000
00000000
00001000
00000000
00000000
00000100
00000000
00000000
00000000
00000000
00000000
00011000
00000000
00000000
00000000
,
01100000
00010000
01000000
10000000
,
00010000
00000000
01000000
00010000
00000000
00000000
00011000
00000000
,
00000110
00000001
00001000
00000100
,
00001001
00000110
00011000
00011000
,
01100000
10010000
01000000
00011000
,
00000110
00001001
00000010
00001001
,
00000100
00011000
00100000
01000000
,
00010000
00000000
00000000
00001000
00000000
00000000
00010000
00000000
00000000
00000000
00000000
00000000
01000000
00000000
00100000
00000000
,
00100000
10010000
01000000
00011000
,
00001001
00000100
00000000
00011000
,
00000010
00001100
00010000
01010000
,
00001000
00000000
00000000
00010000
00000000
00000000
00001000
00000000
00000000
00000000
00000000
00000000
00010000
00000000
00001000
00000000
;

//---------------dance-double - ----------------
#NOTES:
     dance-double:
     :
     Hard:
     10:
     :
00000000
00000000
00000000
00000000
,
00000000
00000000
00000000
00000000
,
00000000
00000000
00000000
00000000
,
00012000
00023000
00032000
00023000
,
00130000
10000000
00100000
10000000
01000000
00100000
00010000
10000000
,
01000000
00000000
00102000
00000000
00023000
00000100
00030100
00000000
,
00010000
00000000
00001000
00000000
00000100
00000000
00000000
00000100
00000001
00000000
00000010
00000000
00000000
00000001
00000000
00000000
,
00000100
00000000
00020010
00000000
00032000
01000000
01003000
00000000
,
00001000
00000000
00010000
00000000
01000000
00000000
00000000
01000000
10000000
00000000
00010000
00000000
00000000
01000000
00000000
00000000
,
00100000
00000000
01002000
00000000
00023000
00000100
00030100
00000010
,
00000001
00000000
00001200
00000000
00020300
00000010
00030010
00000100
,
00000001
00000000
00001020
00000000
00020030
00001000
00031000
00000000
,
00010000
00000100
00010000
01000000
00010000
00000100
00010000
01000000
,
10000000
00000000
00000000
11000000
00000000
00000000
00000000
00000000
00000000
00100000
00000000
00000000
10000000
00000000
00010000
00000000
,
01000000
00000000
00000000
01010000
00000000
00000000
00000000
00010000
00000000
00001000
00000000
00000000
00010000
00000000
01000000
00000000
,
00100000
00000000
00000000
10100000
00000000
00000000
01000000
00000000
00000000
00100000
00000000
00000000
00001000
00000000
00010000
00000000
,
00000010
00000000
00000000
00000110
00000000
00000000
00000000
00000001
00000000
00001000
00000000
00000000
00000010
00000000
00000100
00000000
,
00000010
00000000
00000000
00010010
00000000
00000000
00022000
00000000
00033000
01000000
00000000
00000000
00001000
00000000
00010000
00000000
,
00100000
00000000
00000000
10100000
00000000
00000000
02200000
00000000
03300000
00010000
00000000
00000000
10000000
01000000
10000000
00000000
,
00100000
00000000
00000000
01010000
00000000
00000000
20020000
00000000
30030000
01000000
00000000
00000000
00001000
00000000
00010000
00000000
,
00000100
00000000
00000000
00000110
00000000
00000000
00000022
00000000
00000033
00001000
00000000
00000000
00000010
00000000
00000000
00000000
,
00000101
00000000
00000000
00001100
00000000
00000000
00000101
00000000
00000000
00000000
00000000
00000000
00000000
00000000
00011000
00000000
,
00011000
00000000
00000000
01001000
00000000
00000000
01100000
00000000
00000000
00000000
00000000
00000000
10010000
00000000
00000000
00000000
,
11000000
00000000
00000000
01010000
00000000
00000000
11000000
00000000
00000000
00000000
00000000
00000000
00000000
00000000
00011000
00000000
,
00011000
00000000
00000000
00010100
00000000
00000000
00000110
00000000
00000000
00000000
00000000
00000000
00001001
00000000
00000000
00000000
,
00000011
00000000
00000000
00000110
00000000
00000000
00001100
00000000
00000000
00010000
00000000
00000000
00001000
00000000
00011000
00000000
,
00011000
00000000
00000000
00101000
00000000
00000000
01100000
00000000
00000000
10000000
00000000
00000000
10010000
00000000
00000000
00000000
,
10100000
00000000
00000000
01100000
00000000
00000000
01001000
00000000
00000000
00010000
00000000
00000000
00001000
00000000
00011000
00000000
,
00011000
00000000
00000000
00010010
00000000
00000000
00001010
00000000
00000000
00000100
00000000
00000000
00000110
00000000
00000000
00000000
,
00000002
00000000
00000000
00001000
00000000
00000000
00000200
00000000
00000000
00000000
00000000
00000000
00000303
00000000
00000010
00000000
,
00002000
00000000
00000000
00010000
00000000
00000000
00000200
00000000
00003000
00000000
00000000
00000000
00010300
00000000
00000000
00000000
,
00020000
00000000
00000000
00001000
00000000
00000000
02000000
00000000
00000000
00000000
00000000
00000000
03030000
00000000
10000000
00000000
,
20000000
00000000
00000000
00100000
00000000
00000000
00020000
00000000
30000000
00000000
00000000
00000000
01030000
00000000
00000000
00000000
,
00210000
00000000
10000000
00000000
00010000
00000000
01300000
00001000
,
00020000
00000010
00001000
00030100
,
00021000
00032000
00023000
00032000
,
00003010
00000001
00000010
00000001
00001000
00000010
00001000
00000100
,
00010000
00000000
00000000
00000000
00010010
00000000
00020000
00000000
00000000
00032000
00000000
00000000
01003000
00000000
00100000
00000000
,
01000000
00000000
00000000
00000000
01100000
00000000
20000000
00000000
00000000
30020000
00000000
00000000
00130000
00000000
00010000
00000000
,
00000100
00000000
00000000
00000000
00000110
00000000
00000002
00000000
00000000
00002003
00000000
00000000
00003100
00000000
00000010
00000000
,
00000100
00000000
00000000
00000100
00000000
00000000
00000010
00000000
00000001
00001000
00000000
00000000
00001000
00000000
00000100
00000000
,
00010000
00000000
00000000
00000000
00010100
00000000
00000200
00000000
00000000
00002300
00000000
00000000
00013000
00000000
01000000
00000000
,
00100000
00000000
00000000
00000000
00101000
00000000
00002000
00000000
00000000
02003000
00000000
00000000
03100000
00000000
10000000
00000000
,
01000000
00000000
00000000
00000000
10010000
00000000
20000000
00000000
00000000
30200000
00000000
00000000
01300000
00000000
00010000
00000000
,
00000010
00000000
00000000
00000010
00000000
00000000
00000010
00000000
00000000
00000001
00001000
00000000
00000001
00000000
00000100
00000000
;

//---------------dance-double - ----------------
#NOTES:
     dance-double:
     :
     Challenge:
     12:
     :
00000000
00000000
00000000
00000000
,
00000000
00000000
00000000
00000000
,
00000000
00000000
00000000
00000000
,
00011000
01000000
00010000
01000000
00010000
01000000
00010000
01000000
,
00100000
00000000
00100000
00000000
00100000
00000000
00100000
00000000
10000000
00010000
10000000
00000000
00010000
10000000
00010000
00000000
,
01000000
00000000
00000000
00000000
10100000
00000000
00000000
00010000
20000000
00000000
01000000
00000000
31000000
00000000
00100000
00000000
,
00001000
00000000
00010000
00000000
00011000
00000000
00000000
00000010
00000100
00000000
00000001
00000000
00001000
00000100
00001000
00000000
,
00000001
00000000
00000000
00000000
00001010
00000000
00000000
00000100
00002000
00000000
00000010
00000000
00003010
00000000
00000100
00000000
,
00000001
00000010
00000001
00000000
00000011
00000000
00000000
00000100
00001000
00000000
00000010
00000000
00010000
00001000
00010000
00000000
,
01000000
00000000
00000000
00000000
11000000
00000000
10000000
00010000
20000000
00000000
00100000
00000000
30100000
00000000
01000000
00000000
,
00001000
00000000
00000000
00000000
00011000
00000000
00010000
00000010
00010000
00000000
00000100
00000000
00000010
00000001
00000000
00001000
,
00000001
00000000
00000000
00000000
00000110
00000000
00000100
00000001
00000200
00000000
00000010
00000000
00000310
00000000
00000000
00000000
,
00002000
00000001
00003002
00000010
00000023
00000100
00000230
00010000
,
00010300
00000000
00000000
00001000
00100000
00000000
00000000
01000000
10000000
00000000
00000000
00100000
01000000
00000000
00010000
00000000
,
10000000
00000000
00000000
10000000
00000000
00000000
00010000
00000000
00000000
01000000
00000000
00000000
00100000
00000000
01000000
00000000
,
00010000
00000000
00000000
00100000
00001000
00000000
00000000
00010000
00000100
00000000
00000000
00001000
00000001
00000000
00000100
00000000
,
00000010
00000000
00000000
00000010
00000000
00000000
00001000
00000000
00000000
00000001
00000000
00000000
00001000
00000000
00000100
00000000
,
00000010
00000001
00000000
00000010
00000001
00000000
00001200
00000000
00000000
00020300
00000000
00000000
00031000
00000000
01000000
00000000
,
00100000
10000000
00000000
00100000
10000000
00000000
02010000
00000000
00000000
03200000
00000000
00000000
01300000
00000000
00010000
00000000
,
00100000
00001000
00000000
00100000
00001000
00000000
00012000
00000000
00000000
00003020
00000000
00000000
00000031
00000000
00000100
00000000
,
00000010
00010000
00000000
00000010
00010000
00000000
00010200
00000000
00000000
00002300
00000000
00000000
00003001
00000000
00000000
00000000
,
00000011
00000000
00000000
00000110
00000000
00000000
00001100
00000000
00000000
00000010
00000000
00000000
00010000
00000000
00011000
00000000
,
00011000
00000000
00000000
01001000
00000000
00000000
01010000
00000000
00000000
00100000
00000000
00000000
01100000
00000000
00000000
00000000
,
10010000
00000000
00000000
10100000
00000000
00000000
11000000
00000000
00000000
00100000
00000000
00000000
00001000
00000000
00011000
00000000
,
00011000
00000000
00000000
00010100
00000000
00000000
00001100
00000000
00000000
00000010
00000000
00000000
00000110
00000000
00000000
00000000
,
00000001
00000000
00001000
00000100
00000000
00001000
00000100
00000000
00000000
00000010
00000001
00000000
00000100
00000000
00000010
00000000
,
00001000
00000000
00000100
00010000
00000000
00000100
00010000
00000000
00000000
00001000
01000000
00000000
00100000
00000000
10000000
00000000
,
01000000
00000000
00100000
00010000
00000000
00100000
00010000
00000000
00000000
10000000
00010000
00000000
01000000
00000000
00100000
00000000
,
10000000
00000000
00010000
00100000
00000000
00010000
00100000
00000000
00000000
00001000
00000010
00000000
00000001
00000000
00000100
00000000
,
00000020
00000000
00000000
00002030
00000000
00000000
00003002
00000000
00000000
00000000
00000000
00000000
00000000
00000000
00000100
00000000
,
00000203
00000000
00000000
00000320
00000000
00000000
00020030
00000000
00000000
00000000
00000000
00000000
00032000
00000000
00000000
00000000
,
02003000
00000000
00000000
03020000
00000000
00000000
20030000
00000000
00000000
00000000
00000000
00000000
00000000
00000000
01000000
00000000
,
32000000
00000000
00000000
03200000
00000000
00000000
00320000
00000000
00000000
00000000
00000000
00000000
00030100
00000000
00000000
00000000
,
00000110
00000000
00000000
00001000
00000001
00000000
00000020
00000000
00000000
00000032
00000000
00000000
00002003
00000000
00000100
00000000
,
00003100
00000000
00000000
00001000
00000001
00000000
00000200
00000000
00000000
00000320
00000000
00000000
00010030
00000000
00001000
00000000
,
00011000
00000100
00010000
00000100
00010000
00000100
00010000
00000100
,
00000010
00000000
00000010
00000000
00000010
00000000
00000010
00000000
00000001
00001000
00000001
00000000
00001000
00000001
00001000
00000000
,
00000100
00000000
00000000
00000000
00010100
00000000
00010000
00001000
00000000
00001000
01000000
00000000
00100000
00000000
10000000
00000000
,
01000000
00000000
00000000
00000000
00101000
00000000
00001000
01000000
00000000
01000000
00100000
00000000
10000000
00000000
00010000
00000000
,
00100000
00000000
00000000
00000000
00101000
00000000
00001000
00010000
00000000
00010000
00000100
00000000
00001000
00000000
00000010
00000000
,
00000100
00000000
00000000
00000001
00000010
00000000
00000100
00000000
00001000
00000010
00001000
00000000
00000001
00000000
00000100
00000000
,
00000010
00000000
00000000
00000000
00010010
00000000
00010000
00000100
00000000
00000100
00001000
00000000
01000000
00000000
00100000
00000000
,
00010000
00000000
00000000
00000000
10010000
00000000
10000000
00100000
00000000
00100000
01000000
00000000
00010000
00000000
10000000
00000000
,
00100000
00000000
00000000
00000000
01010000
00000000
00010000
00100000
00000000
00100000
00001000
00000000
00010000
00000000
00000100
00000000
,
00000010
00000000
00000000
00000010
00000000
00000000
00000010
00000000
00000000
00000001
00001000
00000000
00000001
00000000
00000100
00000000
;
