#TITLE:SUPERMODEL;
#SUBTITLE:;
#ARTIST:BAMBEE;
#TITLETRANSLIT:;
#SUBTITLETRANSLIT:;
#ARTISTTRANSLIT:;
#GENRE:;
#CREDIT:;
#BANNER:SUPERMODEL-bn.png;
#BACKGROUND:SUPERMODEL-bg.png;
#LYRICSPATH:;
#CDTITLE:;
#MUSIC:SUPERMODEL.ogg;
#OFFSET:-0.062500;
#SAMPLESTART:65.565125;
#SAMPLELENGTH:20.000000;
#SELECTABLE:YES;
#DISPLAYBPM:137.000000;
#BPMS:0.000000=137.029999
;
#STOPS:
;
#BGCHANGES:;
#KEYSOUNDS:;
#ATTACKS:;

//---------------dance-single - ----------------
#NOTES:
     dance-single:
     :
     Hard:
     10:
     0.453697,0.461307,0.180905,0.000000,0.000000,316.000000,298.000000,18.000000,0.000000,0.000000,0.000000,0.453697,0.461307,0.180905,0.000000,0.000000,316.000000,298.000000,18.000000,0.000000,0.000000,0.000000:
0000
0000
0000
0000
,
0000
0000
0000
0000
,
0000
0000
0000
0000
,
0000
0000
0000
0000
,
0000
0000
0000
0000
,
0001
1000
0010
0100
0001
1000
0010
0100
,
0000
0100
0000
0001
0010
0001
0010
0000
,
1000
0010
0100
0001
1000
0010
0100
0001
,
0000
0001
0000
1000
0100
1000
0100
0000
,
1001
0000
0010
0100
0000
0000
0100
0000
,
0110
0000
1000
0001
0000
0000
0000
0001
,
0100
0000
0010
1000
0000
0011
0000
1010
,
0000
1100
0000
0000
0001
0000
1000
0000
,
0101
0000
0000
0000
0000
0000
0001
0010
,
0001
0100
0010
0000
0010
1000
0100
0000
,
0001
0010
0100
1000
0100
0010
0001
0000
,
0100
0001
1000
0000
0010
1000
0001
0000
,
1000
0100
0010
0001
0010
0100
1000
0000
,
0010
0001
0010
0001
0100
0000
0100
0000
,
0010
1000
0010
1000
0100
0000
0100
0000
,
0001
0100
0010
1000
0001
0100
0010
1000
,
0100
0000
0010
0000
0000
0000
1000
0001
,
1000
0001
0100
0001
0000
0001
1000
0100
,
0000
0100
0010
0000
0010
1000
0100
1000
,
0001
1000
0010
0000
0001
1000
0100
0000
,
0011
1000
1100
0001
,
0001
0100
0010
0100
0000
0100
0001
0010
,
0000
0010
0001
0000
0001
1000
0010
1000
,
0100
0010
1000
0000
0100
0010
0001
0000
,
1010
0100
0101
0010
,
0010
0100
0001
1000
0010
0100
0001
1000
,
0001
0100
0010
0100
0001
0100
0010
0000
,
1000
0100
0010
0001
1000
0100
0010
0001
,
0100
0010
1000
0010
0100
0010
1000
0000
,
0001
0100
1000
0010
0001
0100
1000
0010
,
1000
0001
0010
0001
1000
0001
0010
0000
,
0001
0010
0100
1000
0001
0010
0100
1000
,
0001
0000
0000
0100
0010
0100
0010
0000
,
0100
0001
1000
0100
0010
1000
0001
0010
,
0000
1001
0000
1000
0010
0001
0100
0000
,
0010
0100
0010
0100
0001
1000
0001
1000
,
0000
0110
0000
0100
1000
0001
0010
0000
,
1010
0000
0100
0010
0001
0010
0100
0000
,
0011
0000
1000
0001
0000
0010
0001
1000
,
0100
0010
1000
0001
0100
0001
1000
0010
,
0000
0110
0000
0100
0001
0100
0001
0000
,
0001
1000
0010
0100
0001
1000
0010
0100
,
0000
1100
0000
0000
0000
0000
0000
0000
,
1000
0001
0100
0010
1000
0001
0100
0010
,
0000
0101
0000
0000
0000
0000
0000
0000
,
0010
0100
0001
0100
0010
1000
0001
1000
,
0100
1000
0001
1000
0010
0100
0001
0010
,
0001
0010
0100
1000
0001
0010
0100
1000
,
0010
0000
0010
0000
0010
0000
1000
0001
,
1001
0000
0000
0000
;

//---------------dance-single - ----------------
#NOTES:
     dance-single:
     :
     Medium:
     8:
     0.341709,0.379900,0.301508,0.000000,0.000000,238.000000,208.000000,30.000000,0.000000,0.000000,0.000000,0.341709,0.379900,0.301508,0.000000,0.000000,238.000000,208.000000,30.000000,0.000000,0.000000,0.000000:
0000
0000
0000
0000
,
0000
0000
0000
0000
,
0000
0000
0000
0000
,
0000
0000
0000
0000
,
0000
0000
0000
0000
,
0001
0010
1000
0000
0001
0100
1000
0000
,
0000
0000
0000
0000
1000
0001
0100
0000
,
0010
1000
0100
0000
0010
0001
0100
0000
,
0000
0000
0000
0000
0001
0010
0100
0000
,
1001
0000
0100
0010
0000
0000
0100
0000
,
0110
0000
0001
1000
0000
0000
0000
0000
,
0010
0000
0000
0011
0000
1100
0000
0101
,
0000
0000
0000
0000
,
1001
0000
0000
0100
,
0101
0001
1100
1000
,
1001
0000
0010
0000
1000
0001
0100
0000
,
1010
1000
0011
0001
,
0110
0000
0010
0000
0001
1000
0100
0000
,
0011
0000
0001
0100
1000
0000
0010
0000
,
1100
0000
1000
0010
0001
0000
0100
0000
,
0011
1000
1010
0001
,
1001
0110
0000
0010
,
1000
0001
0000
0010
0000
0001
0000
0100
,
0000
0000
0110
0000
1000
0001
0000
0010
,
0001
0100
0010
1000
,
1100
0001
0101
1000
,
0010
1000
0000
0001
0000
0010
0000
0100
,
0000
0000
1001
0000
0010
0000
1000
0001
,
1000
0100
0010
0001
,
0100
0010
1010
0101
,
1000
0001
0000
0010
0000
0001
0000
0100
,
0000
0010
0000
1000
0000
0001
0000
0000
,
0010
0100
0000
0010
0000
0001
0000
0100
,
0000
0010
0000
1000
0000
0001
0000
1000
,
0100
1000
0000
0010
0000
0100
0001
0100
,
0000
0010
0000
1000
0000
0001
0000
0000
,
0010
0001
0100
1000
0000
0000
1000
0001
,
0100
0000
0010
0010
,
1000
0001
0100
0000
0001
0010
1000
0000
,
0100
0000
0010
0000
0001
1000
0001
0000
,
1000
0100
0010
0000
0001
0100
1000
0000
,
0001
0000
0010
0000
1000
0100
1000
0000
,
1001
0000
0010
0100
0000
0000
0100
0000
,
0110
0000
0001
1000
0000
0000
0000
0100
,
1000
0000
0001
0100
0000
1010
0000
0011
,
0000
0101
0000
0000
0000
0000
0000
0000
,
1000
0001
0100
0000
0001
0010
0100
1000
,
0000
0000
0000
0000
,
0010
0100
0001
0000
1000
0100
0010
0001
,
0000
0000
0000
0000
,
1000
0100
0010
0001
0100
0000
0100
0000
,
0001
0010
0100
1000
0010
0000
0010
0000
,
1000
0001
0100
0010
1000
0001
0100
0010
,
0000
0000
0000
0000
0000
0000
0100
0010
,
1001
0000
0000
0000
;

//---------------dance-single - ----------------
#NOTES:
     dance-single:
     :
     Easy:
     6:
     0.242642,0.271357,0.120603,0.000000,0.000000,169.000000,157.000000,12.000000,0.000000,0.000000,0.000000,0.242642,0.271357,0.120603,0.000000,0.000000,169.000000,157.000000,12.000000,0.000000,0.000000,0.000000:
0000
0000
0000
0000
,
0000
0000
0000
0000
,
0000
0000
0000
0000
,
0000
0000
0000
0000
,
0000
0000
0000
0000
,
0001
0010
0100
1000
,
0010
0000
1000
0001
,
1000
0100
0010
0001
,
0100
0000
0010
0100
,
1001
0100
0010
0000
,
0110
0001
1000
0000
,
0010
0010
1000
0001
,
0100
0000
0001
0000
,
1001
0000
0000
0110
,
1000
1000
0001
0001
,
0100
0100
0010
1000
,
0100
0100
0010
0010
,
0001
0001
1000
0001
,
0010
0010
0001
0100
,
0010
0010
1000
0100
,
1000
0001
0100
0010
,
0110
0000
0000
1001
,
1000
0001
0010
0001
,
0100
0100
0010
1000
,
0001
0000
1000
0000
,
1100
0000
0101
0000
,
0010
0010
1000
0001
,
1000
0100
0100
0010
,
0001
0000
1000
0000
,
0010
0000
0100
0100
,
0001
0001
0001
0000
,
1000
1000
1000
0000
,
0010
0010
0010
0000
,
0100
0100
0100
0000
,
0001
0010
0001
0000
,
1000
0010
1000
0000
,
0010
0100
0001
1000
,
0100
0000
1000
1000
,
1000
0001
0010
0100
,
1000
0000
0010
0100
,
0010
1000
0001
0100
,
0001
0000
0010
0100
,
1001
0010
0100
0000
,
0110
0001
1000
0000
,
0010
0010
1000
0001
,
0100
0000
0010
0000
,
1000
0001
0100
0100
,
0000
0000
0000
0000
,
0001
1000
0010
0010
,
0000
0000
0000
0000
,
1000
0010
1000
0100
,
0010
0001
1000
0001
,
0010
0100
1000
0001
,
0100
0000
0000
0110
,
1001
0000
0000
0000
;

//---------------dance-single - ----------------
#NOTES:
     dance-single:
     :
     Beginner:
     1:
     0.127782,0.189950,0.100503,0.000000,0.000000,89.000000,79.000000,10.000000,0.000000,0.000000,0.000000,0.127782,0.189950,0.100503,0.000000,0.000000,89.000000,79.000000,10.000000,0.000000,0.000000,0.000000:
// measure 0
0000
0000
0000
0000
,  // measure 1
0000
0000
0000
0000
,  // measure 2
0000
0000
0000
0000
,  // measure 3
0000
0000
0000
0000
,  // measure 4
0000
0000
0000
0000
,  // measure 5
0001
0000
0001
0000
,  // measure 6
0000
0000
1000
0000
,  // measure 7
0010
0000
0010
0000
,  // measure 8
0000
0000
0100
0000
,  // measure 9
1001
0000
0000
0000
,  // measure 10
0110
0000
0000
0000
,  // measure 11
0001
0000
1000
0000
,  // measure 12
1001
0000
0000
0000
,  // measure 13
0110
0000
0000
0000
,  // measure 14
0010
0000
1000
0000
,  // measure 15
0010
0000
1000
0000
,  // measure 16
0001
0000
0100
0000
,  // measure 17
0001
0000
0100
0000
,  // measure 18
0001
0000
0010
0000
,  // measure 19
0100
0000
1000
0000
,  // measure 20
0010
0000
0010
0000
,  // measure 21
0010
0000
0000
0000
,  // measure 22
1000
0000
1000
0000
,  // measure 23
0001
0000
0001
0000
,  // measure 24
0100
0000
0000
0000
,  // measure 25
1001
0000
0110
0000
,  // measure 26
0010
0000
0010
0000
,  // measure 27
0100
0000
0100
0000
,  // measure 28
0001
0000
0000
0000
,  // measure 29
1000
0000
0000
0000
,  // measure 30
0001
0000
0010
0000
,  // measure 31
0001
0000
0100
0000
,  // measure 32
1000
0000
0010
0000
,  // measure 33
1000
0000
0100
0000
,  // measure 34
1000
0000
0010
0000
,  // measure 35
0100
0000
0001
0000
,  // measure 36
0010
0000
0010
0000
,  // measure 37
0010
0000
0100
0000
,  // measure 38
1000
0000
1000
0000
,  // measure 39
0000
0000
0001
0000
,  // measure 40
0100
0000
0100
0000
,  // measure 41
0000
0000
0010
0000
,  // measure 42
1001
0000
0000
0000
,  // measure 43
0110
0000
0000
0000
,  // measure 44
1000
0000
1000
0000
,  // measure 45
1000
0000
0000
0000
,  // measure 46
0001
0000
1000
0000
,  // measure 47
0000
0000
0000
0000
,  // measure 48
0010
0000
0100
0000
,  // measure 49
0000
0000
0000
0000
,  // measure 50
0010
0000
0010
0000
,  // measure 51
0100
0000
0100
0000
,  // measure 52
0001
0000
1000
0000
,  // measure 53
0110
0000
0000
0000
,  // measure 54
1001
0000
0000
0000
;
